<?xml version="1.0" standalone="no"?>
<!DOCTYPE svg PUBLIC "-//W3C//DTD SVG 1.1//EN" "http://www.w3.org/Graphics/SVG/1.1/DTD/svg11.dtd" >
<svg xmlns="http://www.w3.org/2000/svg">
<metadata></metadata>
<defs>
<font id="helveticaneuelight" horiz-adv-x="1138" >
<font-face units-per-em="2048" ascent="1638" descent="-410" />
<missing-glyph horiz-adv-x="569" />
<glyph horiz-adv-x="2048" />
<glyph horiz-adv-x="2048" />
<glyph unicode="&#xd;" horiz-adv-x="569" />
<glyph unicode=" "  horiz-adv-x="569" />
<glyph unicode="&#x09;" horiz-adv-x="569" />
<glyph unicode="&#xa0;" horiz-adv-x="569" />
<glyph unicode="!" horiz-adv-x="493" d="M162 0v217h172v-217h-172zM178 1026v436h139v-436l-30 -661h-78z" />
<glyph unicode="&#x22;" horiz-adv-x="757" d="M178 965v497h129v-497h-129zM451 965v497h129v-497h-129z" />
<glyph unicode="#" d="M72 457v92h237l45 319h-225v93h238l63 454h102l-63 -454h289l63 454h103l-64 -454h215v-93h-227l-45 -319h215v-92h-227l-64 -457h-102l63 457h-289l-63 -457h-103l64 457h-225zM412 549h288l45 319h-288z" />
<glyph unicode="$" d="M59 467h129q2 -350 338 -389v606q-211 47 -301 117q-129 98 -129 293q0 180 127 292q121 106 303 107v160h80v-160q184 0 309 -121q129 -127 125 -323h-129q-2 152 -86 243.5t-219 91.5v-589q219 -47 324 -119q150 -104 149 -297q0 -190 -147 -305q-133 -106 -326 -105 v-174h-80v176q-238 23 -347.5 141.5t-119.5 354.5zM225 1079q0 -127 92 -190q59 -39 209 -76v571q-133 0 -211 -71q-90 -80 -90 -234zM606 78q143 0 238 69q106 80 106 230q0 129 -112 205q-74 47 -232 86v-590z" />
<glyph unicode="%" horiz-adv-x="1820" d="M141 1059q0 176 76 276q84 111 250 111t250 -111q76 -100 76 -276t-76 -277q-84 -111 -250 -110q-166 0 -250 110q-76 100 -76 277zM250 1057q0 -119 45 -195q55 -98 172 -98t174 98q43 76 43 195q0 121 -43 198q-57 99 -174 99t-172 -99q-45 -78 -45 -198zM389 -70 l928 1555h96l-926 -1555h-98zM1040 356q0 176 76 277q84 110 250 110t250 -110q76 -100 76 -277q0 -176 -76 -276q-84 -111 -250 -111t-250 111q-76 100 -76 276zM1149 354q0 -119 45 -194q55 -98 172 -99q117 0 174 99q43 76 43 194q0 121 -43 199q-57 98 -174 98t-172 -98 q-45 -78 -45 -199z" />
<glyph unicode="&#x26;" horiz-adv-x="1251" d="M80 379q0 242 358 434q-104 135 -121 162q-59 98 -59 190q0 131 93 214t231 83q137 0 230 -83t93 -214q0 -123 -88 -223q-61 -70 -199 -156l320 -385q43 88 43 246h129q0 -190 -86 -350l246 -297h-162l-156 190q-176 -221 -430 -221q-195 0 -315 107q-127 111 -127 303z M209 367q0 -125 94 -207t223 -82q199 0 346 209l-364 442q-299 -162 -299 -362zM387 1165q0 -94 164 -295q225 139 225 295q0 88 -55 138.5t-139 50.5t-139.5 -50.5t-55.5 -138.5z" />
<glyph unicode="'" horiz-adv-x="569" d="M221 965v497h129v-497h-129z" />
<glyph unicode="(" horiz-adv-x="493" d="M104 545q0 500 289 948h103q-262 -418 -263 -995q0 -219 74 -461q70 -233 189 -428h-103q-289 477 -289 936z" />
<glyph unicode=")" horiz-adv-x="493" d="M-2 -391q262 418 262 995q0 219 -72 461q-71 233 -190 428h102q289 -477 289 -936q0 -500 -289 -948h-102z" />
<glyph unicode="*" horiz-adv-x="720" d="M55 1219l29 75l235 -84v252h80v-252l236 84l31 -75l-242 -80l147 -201l-65 -47l-150 205l-149 -205l-66 47l150 201z" />
<glyph unicode="+" horiz-adv-x="1228" d="M100 461v108h461v461h109v-461h460v-108h-460v-461h-109v461h-461z" />
<glyph unicode="," horiz-adv-x="569" d="M190 -193q47 16 74 80q25 55 21 113h-86v217h172v-219q0 -96 -43 -170q-49 -84 -138 -109v88z" />
<glyph unicode="-" horiz-adv-x="757" d="M123 504v119h512v-119h-512z" />
<glyph unicode="." horiz-adv-x="569" d="M199 0v217h172v-217h-172z" />
<glyph unicode="/" horiz-adv-x="681" d="M-27 -31l631 1524h105l-625 -1524h-111z" />
<glyph unicode="0" d="M70 707q-1 739 499 739t500 -737q0 -739 -500 -740q-500 0 -499 738zM199 709q0 -631 370 -631q371 0 371 631q0 628 -371 628t-370 -628z" />
<glyph unicode="1" d="M199 1065v92q205 8 272 43q104 53 131 234h105v-1434h-129v1065h-379z" />
<glyph unicode="2" d="M74 0q4 190 129 336q80 92 276 223q211 141 285 215q119 119 119 270q0 135 -97 218q-90 76 -225 75q-166 0 -252 -120q-76 -106 -71 -279h-129q-4 229 110 365q121 143 348 143q195 0 316 -103q129 -109 129 -301q0 -164 -111 -299q-82 -100 -250 -211 q-246 -162 -254 -170q-154 -121 -176 -243h797v-119h-944z" />
<glyph unicode="3" d="M68 457h129q-6 -172 90 -275.5t268 -103.5q150 0 254 82q113 88 113 235q0 145 -101 228q-94 76 -243 75h-109v109h109q113 0 194 63q96 72 96 197q0 135 -92 207q-84 63 -221 63q-158 0 -244 -99t-82 -263h-129q2 207 125 339t328 132q184 0 307 -86q137 -100 137 -279 q0 -119 -64.5 -204.5t-176.5 -112.5v-4q139 -23 217 -118t78 -236q0 -203 -148 -324q-137 -113 -346 -113q-229 0 -366 131.5t-123 356.5z" />
<glyph unicode="4" d="M61 356v125l664 953h117v-969h215v-109h-215v-356h-119v356h-662zM178 465h545v780h-4z" />
<glyph unicode="5" d="M74 410h129q4 -147 103.5 -239.5t248.5 -92.5q162 0 260 114.5t98 276.5q0 160 -103 266.5t-263 106.5q-211 0 -320 -170h-110l139 743h717v-119h-627l-92 -475l4 -4q113 133 303 133q219 0 350 -138t131 -357q0 -209 -144 -347.5t-353 -138.5q-203 0 -335 120t-136 321z " />
<glyph unicode="6" d="M82 731q0 240 80 422q129 293 432 293q395 0 440 -375h-129q-16 121 -96 193.5t-203 72.5q-223 0 -323 -223q-72 -162 -72 -418h4q51 106 155.5 172t225.5 66q213 0 343 -133t130 -346q0 -209 -137 -347.5t-348 -138.5q-264 0 -383 174t-119 588zM238 446q0 -162 86 -260 q94 -109 272 -108q150 0 250 110q94 104 94 258q0 162 -90 269q-96 110 -256 110q-164 0 -260 -107.5t-96 -271.5z" />
<glyph unicode="7" d="M104 1296v119h922v-119q-545 -569 -580 -1296h-139q27 367 161 662.5t429 633.5h-793z" />
<glyph unicode="8" d="M76 401q2 141 81 241.5t210 125.5v4q-233 70 -234 315q0 172 137 273q123 86 297 86q176 0 299 -86q138 -101 138 -273q0 -117 -61.5 -199.5t-172.5 -117.5v-2q137 -27 215 -124t78 -243q0 -207 -145 -323q-135 -109 -349 -109q-213 0 -348 109q-147 117 -145 323z M205 401q0 -156 106 -241q100 -82 258 -82q160 0 258 80q106 86 107 243q0 147 -111 234q-100 78 -254 78q-158 0 -256 -76q-109 -84 -108 -236zM262 1087q0 -135 96 -204q84 -62 211 -62q129 0 211 64q94 72 94 202q0 119 -84.5 184.5t-220.5 65.5q-127 0 -213 -63 q-94 -70 -94 -187z" />
<glyph unicode="9" d="M70 961q0 209 137 347t348 138q264 0 383 -174t119 -588q0 -240 -80 -422q-129 -293 -432 -293q-394 0 -441 375h129q16 -121 96.5 -193.5t202.5 -72.5q223 0 324 223q72 162 72 418h-4q-51 -106 -155.5 -172t-225.5 -66q-213 0 -343 133.5t-130 346.5zM199 969 q0 -162 93 -270.5t253 -108.5q164 0 262 110q94 104 94 269q0 162 -86 260q-94 109 -272 108q-150 0 -247 -107.5t-97 -260.5z" />
<glyph unicode=":" horiz-adv-x="569" d="M199 0v217h172v-217h-172zM199 807v217h172v-217h-172z" />
<glyph unicode=";" horiz-adv-x="569" d="M190 -193q47 16 74 80q25 55 21 113h-86v217h172v-219q0 -96 -43 -170q-49 -84 -138 -109v88zM199 807v217h172v-217h-172z" />
<glyph unicode="&#x3c;" horiz-adv-x="1228" d="M94 463v110l1041 480v-113l-914 -422l914 -422v-112z" />
<glyph unicode="=" horiz-adv-x="1228" d="M100 262v109h1030v-109h-1030zM100 666v108h1030v-108h-1030z" />
<glyph unicode="&#x3e;" horiz-adv-x="1228" d="M94 -16v112l914 422l-914 422v113l1041 -480v-110z" />
<glyph unicode="?" horiz-adv-x="1099" d="M111 1012q2 221 123.5 351t340.5 130q176 0 293 -100q123 -106 123 -279q0 -174 -178 -348q-143 -139 -160 -170q-27 -51 -30 -229h-129q-4 174 51 272q39 68 184 205q133 125 133 264q0 121 -85 198.5t-208 77.5q-162 0 -247.5 -103t-81.5 -269h-129zM473 0v217h172 v-217h-172z" />
<glyph unicode="@" horiz-adv-x="1638" d="M96 737q0 319 219.5 537.5t532.5 218.5q299 0 496.5 -178t197.5 -459q0 -240 -148.5 -417t-326.5 -177q-125 0 -137 137h-4q-127 -135 -260 -135q-123 0 -197 86t-74 211q0 225 133 402q143 190 353 190q154 0 217 -172l51 133h108l-196 -590q-23 -70 -23 -110 q0 -59 49 -60q133 0 242 168q104 162 105 340q0 246 -172 395q-164 143 -410 144q-283 0 -465 -195.5t-182 -482.5q0 -281 186.5 -471.5t464.5 -190.5q152 0 296 73t232 200h105q-92 -168 -265 -266.5t-368 -98.5q-328 0 -544 221.5t-216 546.5zM524 571q0 -90 47 -144 t123 -54q133 0 242 174q98 156 98 307q0 72 -51.5 131t-110.5 59q-145 0 -251 -163q-96 -150 -97 -310z" />
<glyph unicode="A" horiz-adv-x="1290" d="M-14 0l589 1462h156l574 -1462h-150l-178 455h-666l-176 -455h-149zM354 573h576l-283 750z" />
<glyph unicode="B" horiz-adv-x="1366" d="M147 0v1462h619q207 0 328 -78q141 -90 141 -280q0 -117 -70.5 -210t-183.5 -118v-4q141 -18 225 -115.5t84 -240.5q0 -416 -524 -416h-619zM287 119h479q385 0 385 301q0 282 -382 282h-3h-479v-583zM287 821h479q160 0 248 72q82 68 82 176q0 274 -330 274h-479v-522z " />
<glyph unicode="C" horiz-adv-x="1441" d="M78 731q0 319 172 531q188 231 518 231q219 0 383 -121q178 -133 205 -352h-139q-37 166 -161 260t-288 94q-272 0 -420 -200q-131 -178 -131 -443q0 -264 131 -440q147 -203 420 -203q197 0 326 137q123 129 143 332h139q-29 -270 -191.5 -429t-416.5 -159 q-330 0 -518 232q-172 211 -172 530z" />
<glyph unicode="D" horiz-adv-x="1402" d="M147 0v1462h506q330 0 501 -185t171 -546q0 -360 -171 -545.5t-501 -185.5h-506zM287 119h297q317 0 459.5 143.5t142.5 468.5q0 326 -142.5 469t-459.5 143h-297v-1224z" />
<glyph unicode="E" horiz-adv-x="1214" d="M147 0v1462h1010v-119h-870v-528h815v-119h-815v-577h880v-119h-1020z" />
<glyph unicode="F" horiz-adv-x="1099" d="M147 0v1462h928v-119h-788v-528h700v-119h-700v-696h-140z" />
<glyph unicode="G" horiz-adv-x="1517" d="M78 731q0 319 172 531q188 231 518 231q238 0 401 -123q170 -129 209 -362h-139q-14 139 -137 245q-137 121 -334 121q-272 0 -420 -200q-131 -178 -131 -443q0 -264 131 -440q147 -203 420 -203q238 0 377 152q129 143 129 371v14h-498v118h621v-743h-101l-18 266h-4 q-139 -297 -506 -297q-330 0 -518 232q-172 211 -172 530z" />
<glyph unicode="H" horiz-adv-x="1441" d="M147 0v1462h140v-635h868v635h139v-1462h-139v709h-868v-709h-140z" />
<glyph unicode="I" horiz-adv-x="454" d="M158 0v1462h139v-1462h-139z" />
<glyph unicode="J" horiz-adv-x="1024" d="M43 469h139q6 -170 33 -238q61 -143 248 -143q158 0 219 88q55 84 55 291v995h140v-1054q0 -227 -95 -330q-100 -109 -331 -109q-408 0 -408 490v10z" />
<glyph unicode="K" horiz-adv-x="1327" d="M147 0v1462h140v-786l850 786h188l-653 -604l684 -858h-180l-609 762l-280 -260v-502h-140z" />
<glyph unicode="L" horiz-adv-x="1099" d="M147 0v1462h140v-1343h819v-119h-959z" />
<glyph unicode="M" horiz-adv-x="1705" d="M143 0v1462h205l506 -1282l504 1282h205v-1462h-140v1264h-4l-499 -1264h-132l-501 1264h-4v-1264h-140z" />
<glyph unicode="N" horiz-adv-x="1441" d="M145 0v1462h156l852 -1237h4v1237h139v-1462h-155l-852 1237h-4v-1237h-140z" />
<glyph unicode="O" horiz-adv-x="1517" d="M70 731q0 319 172 531q188 231 518 231q328 0 516 -231q172 -211 172 -531q0 -319 -172 -530q-188 -231 -516 -232q-330 0 -518 232q-172 211 -172 530zM209 731q0 -264 131 -440q147 -203 420 -203q270 0 420 203q129 176 129 440t-129 443q-149 200 -417 200h-3 q-272 0 -420 -200q-131 -179 -131 -443z" />
<glyph unicode="P" horiz-adv-x="1290" d="M147 0v1462h650q199 0 316.5 -110.5t117.5 -307.5t-118 -307t-316 -110h-510v-627h-140zM287 745h479q150 0 238 77t88 222t-91 226q-85 73 -231 73h-4h-479v-598z" />
<glyph unicode="Q" horiz-adv-x="1517" d="M70 731q0 319 172 531q188 231 518 231q328 0 516 -231q172 -211 172 -531q0 -367 -221 -579l209 -160l-70 -86l-227 172q-156 -109 -379 -109q-330 0 -518 232q-172 211 -172 530zM209 731q0 -264 131 -440q147 -203 420 -203q158 0 270 72l-192 145l71 88l213 -162 q186 178 187 500q0 264 -129 443q-149 200 -417 200h-3q-272 0 -420 -200q-131 -178 -131 -443z" />
<glyph unicode="R" horiz-adv-x="1366" d="M147 0v1462h670q195 0 313 -92q131 -100 132 -289q0 -143 -72 -241q-76 -104 -213 -131v-4q238 -31 256 -330q10 -176 12 -197q16 -131 55 -178h-153q-29 45 -39 227q-12 207 -51 287q-66 135 -242 135h-528v-649h-140zM287 768h520q133 0 224 78t91 207 q0 137 -80.5 213.5t-234.5 76.5h-520v-575z" />
<glyph unicode="S" horiz-adv-x="1290" d="M74 481h139v-13q0 -380 477 -380q139 0 252 70q135 82 135 227q0 190 -301 264l-325 80q-330 80 -330 352q0 147 98 260q133 152 406 152q229 0 379 -115q161 -123 161 -332v-8h-139q-6 160 -125 252q-111 84 -274 84q-160 0 -254 -63q-113 -76 -113 -228 q0 -168 221 -223l357 -88q379 -94 379 -385q0 -141 -87 -246q-139 -172 -473 -172q-274 0 -428 123q-156 124 -156 355q0 17 1 34z" />
<glyph unicode="T" d="M-10 1343v119h1159v-119h-510v-1343h-139v1343h-510z" />
<glyph unicode="U" horiz-adv-x="1402" d="M133 526v936h139v-905q0 -469 428 -469q430 0 430 469v905h140v-936q0 -246 -131 -391q-150 -166 -439 -166q-287 0 -436 166q-131 147 -131 391z" />
<glyph unicode="V" horiz-adv-x="1214" d="M-14 1462h149l475 -1308h4l471 1308h148l-543 -1462h-162z" />
<glyph unicode="W" horiz-adv-x="1857" d="M0 1462h150l331 -1280h4l357 1280h174l358 -1280h4l334 1280h139l-403 -1462h-148l-370 1309h-4l-369 -1309h-151z" />
<glyph unicode="X" horiz-adv-x="1175" d="M-25 0l527 754l-496 708h164l414 -612l428 612h155l-499 -712l528 -750h-168l-444 645l-451 -645h-158z" />
<glyph unicode="Y" horiz-adv-x="1251" d="M-20 1462h165l482 -741l479 741h166l-578 -860v-602h-139v602z" />
<glyph unicode="Z" horiz-adv-x="1175" d="M10 0v123l963 1220h-897v119h1052v-123l-962 -1220h983v-119h-1139z" />
<glyph unicode="[" horiz-adv-x="493" d="M156 -391v1884h329v-109h-200v-1667h200v-108h-329z" />
<glyph unicode="\" horiz-adv-x="681" d="M-27 1493h105l631 -1524h-111z" />
<glyph unicode="]" horiz-adv-x="493" d="M8 -283h201v1667h-201v109h330v-1884h-330v108z" />
<glyph unicode="^" horiz-adv-x="1228" d="M90 487l471 928h107l471 -928h-117l-410 799l-403 -799h-119z" />
<glyph unicode="_" horiz-adv-x="1024" d="M0 -154h1024v-102h-1024v102z" />
<glyph unicode="`" horiz-adv-x="378" d="M-63 1493h159l215 -289h-104z" />
<glyph unicode="a" horiz-adv-x="1062" d="M66 279q0 197 178 268q88 37 389 71q92 10 123 33q43 31 43 111q0 217 -277 217q-276 0 -282 -246h-129q8 178 129 271q108 83 295 83h4q389 0 389 -339v-562q0 -77 74 -77h2q20 0 40 8v-109q-39 -8 -83 -8q-92 0 -125 51q-27 41 -27 133h-4q-74 -113 -150 -159 q-92 -55 -235 -56q-156 0 -250 76q-104 82 -104 234zM265.5 136.5q70.5 -58.5 164.5 -58.5q154 0 261.5 91t107.5 241v168h-4q-16 -31 -109 -48q-113 -16 -225 -34q-127 -23 -189 -62q-77 -52 -77 -145q0 -94 70.5 -152.5z" />
<glyph unicode="b" horiz-adv-x="1175" d="M123 0v1462h129v-606h4q41 111 145 172q98 59 222 59q229 0 358 -167q117 -152 117 -392t-117 -391q-129 -168 -358 -168q-129 0 -230.5 62.5t-146.5 169.5h-4v-201h-119zM252 528q0 -186 82 -307q98 -143 289 -143q172 0 266 143q80 123 80 307t-80 308 q-94 143 -266 143q-190 0 -289 -143q-82 -121 -82 -308z" />
<glyph unicode="c" horiz-adv-x="1062" d="M70 528q0 238 129 394q136 165 367 165h3q174 0 289 -90q119 -96 139 -272h-129q-55 254 -299 254q-176 0 -278 -141q-92 -127 -92 -310q0 -182 92 -309q102 -141 278 -141q121 0 208 85t100 216h129q-27 -190 -144 -300t-293 -110q-233 0 -370 166q-129 156 -129 393z " />
<glyph unicode="d" horiz-adv-x="1175" d="M78 528q0 240 117 392q128 167 355 167h3q123 0 224.5 -60t142.5 -171h4v606h129v-1462h-119v201h-4q-41 -100 -149.5 -166t-227.5 -66q-229 0 -358 168q-117 152 -117 391zM207 528q0 -184 82 -307q92 -143 264 -143q190 0 289 143q82 121 82 307t-82 308 q-98 143 -289 143q-172 0 -264 -143q-82 -124 -82 -308z" />
<glyph unicode="e" horiz-adv-x="1062" d="M182 913q129 174 365 174q240 0 364 -186q102 -150 102 -374q0 -16 -1 -33h-813q2 -164 82 -279q96 -137 266 -137q262 0 332 270h129q-88 -379 -461 -379q-238 0 -365 166q-112 149 -112 389q0 235 112 389zM199 602h684q-4 156 -92 262q-94 115 -244 115t-246 -117 q-86 -102 -102 -260z" />
<glyph unicode="f" horiz-adv-x="530" d="M12 948v109h181v96q0 152 51 223q59 86 205 86q53 0 108 -8v-111q-57 10 -94 11q-96 0 -125 -60q-16 -35 -16 -145v-92h208v-109h-208v-948h-129v948h-181z" />
<glyph unicode="g" d="M195 930q130 157 349 157h3q113 0 205 -61t131 -152h4v183h129v-971q0 -508 -469 -508q-174 0 -291 76q-135 86 -147 244h129q39 -211 309 -211q340 0 340 399v143h-4q-45 -98 -134.5 -157.5t-201.5 -59.5q-242 0 -365 158q-112 142 -112 381q0 231 125 379zM199 541 q0 -174 86 -289q94 -131 262 -131q160 0 254 129q86 119 86 291q0 176 -78 297q-92 141 -262 141q-172 0 -266 -137q-82 -119 -82 -301z" />
<glyph unicode="h" horiz-adv-x="1099" d="M121 0v1462h129v-588h4q35 94 130 153.5t208 59.5q213 0 305 -108q82 -98 82 -299v-680h-129v659q0 319 -268 320q-152 0 -242 -102.5t-90 -260.5v-616h-129z" />
<glyph unicode="i" horiz-adv-x="378" d="M125 0v1057h129v-1057h-129zM125 1255v207h129v-207h-129z" />
<glyph unicode="j" horiz-adv-x="378" d="M-61 -281q30 -3 51 -3q10 0 18 1q117 0 117 154v1186h129v-1155q0 -293 -225 -293q-14 0 -45 2t-45 2v106zM125 1255v207h129v-207h-129z" />
<glyph unicode="k" horiz-adv-x="1024" d="M123 0v1462h129v-917l586 512h172l-451 -391l481 -666h-161l-418 575l-209 -174v-401h-129z" />
<glyph unicode="l" horiz-adv-x="378" d="M125 0v1462h129v-1462h-129z" />
<glyph unicode="m" horiz-adv-x="1705" d="M123 0v1057h119v-178h6q110 208 344 208h2q109 0 191.5 -53t111.5 -153q94 206 334 206h2q350 0 350 -370v-717h-129v711q0 268 -250 268q-287 0 -286 -381v-598h-130v717q0 262 -221 262q-160 0 -241 -111q-74 -102 -74 -278v-590h-129z" />
<glyph unicode="n" horiz-adv-x="1099" d="M121 0v1057h129v-183h4q35 94 130 153.5t208 59.5q213 0 305 -108q82 -98 82 -299v-680h-129v659q0 319 -268 320q-152 0 -242 -102.5t-90 -260.5v-616h-129z" />
<glyph unicode="o" d="M70 528q0 238 129 394q137 165 370 165t371 -165q129 -156 129 -394t-129 -393q-137 -166 -371 -166q-233 0 -370 166q-129 156 -129 393zM199 528q0 -182 92 -309q102 -141 278 -141t279 141q92 127 92 309t-92 310q-103 141 -279 141t-278 -141q-92 -127 -92 -310z" />
<glyph unicode="p" horiz-adv-x="1175" d="M123 -391v1448h119v-201h4q45 106 146.5 168.5t230.5 62.5q229 0 358 -167q117 -152 117 -392t-117 -391q-129 -168 -358 -168q-123 0 -222 60q-104 61 -145 172h-4v-592h-129zM252 528q0 -186 82 -307q98 -143 289 -143q172 0 266 143q80 123 80 307t-80 308 q-94 143 -266 143q-371 0 -371 -451z" />
<glyph unicode="q" horiz-adv-x="1175" d="M78 528q0 240 117 392q128 167 355 167h3q119 0 227.5 -65.5t149.5 -165.5h4v201h119v-1448h-129v592h-4q-41 -111 -142.5 -171.5t-224.5 -60.5q-229 0 -358 168q-117 152 -117 391zM207 528q0 -184 82 -307q92 -143 264 -143q190 0 289 143q82 121 82 307t-82 308 q-98 143 -289 143q-172 0 -264 -143q-82 -124 -82 -308z" />
<glyph unicode="r" horiz-adv-x="645" d="M123 0v1057h119v-248h4q50 129 154 199q96 64 223 64q11 0 22 -1v-129q-12 1 -23 1q-156 -1 -260 -103q-110 -110 -110 -277v-563h-129z" />
<glyph unicode="s" horiz-adv-x="985" d="M63 342h130q8 -127 93 -195.5t218 -68.5q109 0 190 45q98 55 99 156q0 141 -232 192l-166 37q-143 33 -211 88q-84 70 -84 195q0 150 129 229q107 67 264 67h5q166 0 270 -83q111 -90 117 -256h-129q-4 115 -86 176q-74 55 -191 55q-100 0 -168 -39q-82 -49 -82 -143 q0 -129 220 -179l172 -38q301 -68 301 -293q0 -158 -138 -244q-119 -74 -286 -74q-406 0 -435 373z" />
<glyph unicode="t" horiz-adv-x="606" d="M14 948v109h185v317h129v-317h215v-109h-215v-712q0 -70 16 -97q23 -39 88 -43h17q36 0 94 6v-110q-18 0 -56 -2t-59 -2q-129 0 -179 51t-50 186v723h-185z" />
<glyph unicode="u" horiz-adv-x="1099" d="M121 371v686h129v-688q0 -291 282 -291q156 0 242 131q76 117 76 293v555h129v-1057h-119v190h-4q-49 -104 -147.5 -162.5t-216.5 -58.5q-371 0 -371 402z" />
<glyph unicode="v" horiz-adv-x="948" d="M4 1057h143l332 -928h4l328 928h133l-395 -1057h-137z" />
<glyph unicode="w" horiz-adv-x="1517" d="M16 1057h138l270 -905h4l258 905h145l259 -905h4l270 905h137l-340 -1057h-141l-260 889h-4l-258 -889h-142z" />
<glyph unicode="x" horiz-adv-x="985" d="M2 0l410 549l-379 508h162l301 -402l295 402h161l-381 -506l412 -551h-164l-332 444l-325 -444h-160z" />
<glyph unicode="y" horiz-adv-x="948" d="M4 1057h137l348 -901l326 901h129l-459 -1219q-51 -139 -104 -182q-53 -47 -165 -47h-9q-74 0 -98 10v109q51 -10 88 -11q78 0 120 45q31 33 64 121l45 121z" />
<glyph unicode="z" horiz-adv-x="948" d="M31 0v104l690 844h-643v109h807v-92l-699 -856h727v-109h-882z" />
<glyph unicode="{" horiz-adv-x="681" d="M170 496v108q147 0 147 328v305q0 119 47.5 187.5t133.5 68.5h102v-109h-41q-113 0 -113 -210v-289q0 -143 -61 -244q-39 -66 -82 -88v-4q43 -23 82 -88q61 -100 61 -244v-289q0 -211 113 -211h41v-108h-102q-86 0 -133.5 68.5t-47.5 187.5v303q0 328 -147 328z" />
<glyph unicode="|" horiz-adv-x="454" d="M174 -31v1524h109v-1524h-109z" />
<glyph unicode="}" horiz-adv-x="681" d="M82 -283h41q113 0 113 211v289q0 143 61 244q39 66 82 88v4q-43 23 -82 88q-61 100 -61 244v289q0 211 -113 210h-41v109h102q86 0 133.5 -68.5t47.5 -187.5v-303q0 -328 147 -328v-108q-147 0 -147 -328v-305q0 -119 -47.5 -187.5t-133.5 -68.5h-102v108z" />
<glyph unicode="~" horiz-adv-x="1228" d="M141 461q92 176 256 176q86 0 235.5 -66.5t201.5 -66.5q88 0 180 141l73 -74q-61 -86 -102 -120q-70 -55 -154 -56q-82 0 -223 66.5t-221 66.5q-106 0 -172 -141z" />
<glyph unicode="&#xa1;" horiz-adv-x="493" d="M162 840v217h172v-217h-172zM178 31l31 661h78l30 -661v-422h-139v422z" />
<glyph unicode="&#xa2;" d="M111 528q0 223 114 375q121 162 328 180v183h80v-179q164 -4 274.5 -98t130.5 -264h-129q-53 246 -276 254v-901q113 6 192.5 91t92.5 210h129q-25 -184 -135.5 -294t-278.5 -116v-207h-80v209q-209 20 -328 183q-115 152 -114 374zM240 528q0 -166 77 -288 q86 -137 236 -160v895q-150 -23 -236 -158q-78 -121 -77 -289z" />
<glyph unicode="&#xa3;" d="M88 80q229 180 229 381q0 119 -57 215h-166v65h129q-113 184 -112 330q0 207 145 322q127 100 322 100q225 0 352 -130t123 -355h-129q0 170 -86 270q-92 106 -260 106q-141 0 -234 -77q-104 -88 -104 -244q0 -86 41 -166t79 -156h328v-65h-291q49 -78 49 -199 q0 -193 -225 -373l4 -4q119 61 199 62q84 0 204 -42t181 -42q131 0 235 115l66 -99q-141 -125 -299 -125q-104 0 -217 39q-131 45 -207 45q-68 0 -121 -24q-12 -6 -104 -60z" />
<glyph unicode="&#xa4;" d="M59 279l117 116q-113 135 -113 314q0 176 111 315l-115 115l78 78l115 -115q139 115 319 115q178 0 314 -113l112 113l78 -78l-110 -111q115 -137 114 -319q0 -182 -114 -320l110 -110l-78 -78l-112 112q-131 -113 -314 -112q-182 0 -319 114l-115 -114zM193 709 q0 -164 110.5 -277t267.5 -113q158 0 268.5 113t110.5 277t-110.5 276.5t-268.5 112.5t-268 -112.5t-110 -276.5z" />
<glyph unicode="&#xa5;" d="M12 1462h148l407 -747l412 747h141l-432 -747h223v-92h-268l-12 -21v-149h280v-93h-280v-360h-129v360h-277v93h277v149l-13 21h-264v92h217z" />
<glyph unicode="&#xa6;" horiz-adv-x="454" d="M174 -31v563h109v-563h-109zM174 930v563h109v-563h-109z" />
<glyph unicode="&#xa7;" d="M92 690q0 96 66 176q61 74 157 111q-102 90 -102 223t109 217q100 76 237 76q174 0 276.5 -95t102.5 -268h-129q4 106 -63.5 180t-174.5 74q-96 0 -157 -43q-72 -49 -72 -139q0 -127 182 -237q170 -96 340 -193q183 -129 183 -299q0 -96 -63.5 -173t-160.5 -114 q102 -90 103 -223q0 -133 -109 -217q-100 -76 -237 -76q-174 0 -276.5 95.5t-102.5 267.5h129q-4 -106 63.5 -180t173.5 -74q96 0 158 43q72 49 72 139q0 127 -183 238l-340 192q-182 129 -182 299zM221 694q0 -129 197 -254q164 -96 327 -190q173 71 173 221 q0 135 -199 258q-166 94 -330 186q-168 -70 -168 -221z" />
<glyph unicode="&#xa8;" horiz-adv-x="378" d="M-61 1239v207h139v-207h-139zM301 1239v207h139v-207h-139z" />
<glyph unicode="&#xa9;" horiz-adv-x="1638" d="M57 731q0 322 220.5 542t541.5 220q322 0 542 -220t220 -542t-220 -542t-542 -220t-542 220.5t-220 541.5zM176 731q0 -274 184.5 -463.5t458.5 -189.5t458.5 189.5t184.5 463.5t-184 463.5t-459 189.5q-274 0 -458.5 -189t-184.5 -464zM393 731q0 207 120 338t325 131 q150 0 255.5 -82t123.5 -227h-105q-18 94 -91 155.5t-181 61.5q-160 0 -249 -105.5t-89 -271.5t86 -268q92 -109 252 -109q109 0 182 64q72 57 90 153h105q-18 -145 -124 -227t-255 -82q-205 0 -325 131t-120 338z" />
<glyph unicode="&#xaa;" horiz-adv-x="636" d="M-10 950q0 125 116 172q57 23 252 43q109 12 109 64q0 137 -180 137q-174 0 -176 -143h-97q12 223 287 223q262 0 262 -205v-352q0 -47 51 -47q14 0 27 6v-70q-43 -6 -55 -6q-59 0 -82 31q-16 25 -17 84h-4q-84 -133 -252 -133q-242 0 -241 196zM86 954q0 -51 45 -85.5 t96 -34.5q98 0 169 53t71 141v96h-4q-8 -18 -70 -28q-199 -33 -215 -37q-92 -29 -92 -105z" />
<glyph unicode="&#xab;" horiz-adv-x="872" d="M123 500v127l272 256v-138l-192 -182l192 -182v-137zM453 500v127l272 256v-138l-193 -182l193 -182v-137z" />
<glyph unicode="&#xac;" horiz-adv-x="1228" d="M100 666v108h1030v-547h-108v439h-922z" />
<glyph unicode="&#xad;" horiz-adv-x="757" d="M123 504v119h512v-119h-512z" />
<glyph unicode="&#xae;" horiz-adv-x="1638" d="M57 731q0 322 220 542t542 220t542 -220t220 -542t-220 -542t-542 -220t-542 220.5t-220 541.5zM176 731q0 -274 184.5 -463.5t458.5 -189.5t458.5 189.5t184.5 463.5t-184.5 463.5t-458.5 189.5t-458.5 -189t-184.5 -464zM543 291v880h338q287 0 286 -243 q0 -207 -221 -246l262 -391h-127l-247 391h-183v-391h-108zM651 774h144q129 0 182 21q82 33 82 133q0 152 -209 151h-199v-305z" />
<glyph unicode="&#xaf;" horiz-adv-x="378" d="M-147 1298v93h673v-93h-673z" />
<glyph unicode="&#xb0;" horiz-adv-x="819" d="M115 1151q0 123 86 209t209 86t209 -86t86 -209t-86.5 -209t-208.5 -86q-123 0 -209 86t-86 209zM195 1151q0 -88 63.5 -151.5t151.5 -63.5q90 0 152.5 63.5t62.5 151.5q0 90 -62.5 152.5t-152.5 62.5q-88 0 -151.5 -62.5t-63.5 -152.5z" />
<glyph unicode="&#xb1;" horiz-adv-x="1228" d="M100 0v109h1030v-109h-1030zM102 553v109h459v368h109v-368h460v-109h-460v-369h-109v369h-459z" />
<glyph unicode="&#xb2;" horiz-adv-x="681" d="M31 561q2 119 84 207q53 59 180 137q137 86 184 129q80 74 80 164q0 76 -61.5 122t-149.5 46q-102 0 -155 -72q-50 -63 -48 -161h-96q-4 145 74 229t233 84q135 0 217 -65.5t82 -190.5q0 -162 -235 -305q-80 -47 -160 -97q-96 -68 -119 -147h508v-80h-618z" />
<glyph unicode="&#xb3;" horiz-adv-x="681" d="M16 844h97q-4 -98 57 -159.5t168 -61.5q94 0 164.5 50t70.5 134q0 82 -64.5 127t-160.5 45h-72v80h72q72 0 127 37q63 43 64 114q0 76 -60 119q-55 37 -141 37q-98 0 -152.5 -59.5t-52.5 -151.5h-96q2 131 82 211t219 80q125 0 207 -53q90 -61 90 -174q0 -156 -158 -191 v-4q90 -12 141.5 -68.5t51.5 -142.5q0 -127 -94.5 -198.5t-235.5 -71.5q-154 0 -244 79.5t-80 221.5z" />
<glyph unicode="&#xb4;" horiz-adv-x="378" d="M68 1204l215 289h159l-270 -289h-104z" />
<glyph unicode="&#xb6;" horiz-adv-x="1228" d="M135 1061q0 193 120 297t337 104h471v-1824h-129v1716h-246v-1716h-129v1034q-178 0 -301 114.5t-123 274.5z" />
<glyph unicode="&#xb7;" horiz-adv-x="569" d="M164 649q0 45 37 82t84 37q49 0 85 -37t36 -86q0 -47 -37 -83t-84 -36q-49 0 -85 37t-36 86z" />
<glyph unicode="&#xb8;" horiz-adv-x="378" d="M-12 -379l28 66q70 -29 162 -29q109 0 109 88q0 78 -88 78q-72 0 -105 -17l-33 31l125 162h72l-90 -119q31 6 63 6q174 0 175 -133q0 -86 -74 -135q-63 -41 -152 -41q-102 0 -192 43z" />
<glyph unicode="&#xb9;" horiz-adv-x="681" d="M72 1196v80q129 4 176 24q68 31 86 127h82v-866h-97v635h-247z" />
<glyph unicode="&#xba;" horiz-adv-x="684" d="M6 1100q0 150 86 248t240 98q166 0 260 -100q86 -94 86 -246t-86 -246q-94 -100 -260 -100q-154 0 -240 98t-86 248zM102 1100q0 -106 62 -182q65 -84 178 -84t178 84q61 76 62 182q0 106 -62 182q-66 84 -178 84q-113 0 -178 -84q-61 -76 -62 -182z" />
<glyph unicode="&#xbb;" horiz-adv-x="872" d="M147 244v137l193 182l-193 182v138l273 -256v-127zM477 244v137l193 182l-193 182v138l273 -256v-127z" />
<glyph unicode="&#xbc;" horiz-adv-x="1708" d="M98 1196v80q129 4 176 24q68 31 86 127h82v-866h-96v635h-248zM272 -70l928 1555h96l-925 -1555h-99zM885 205v80l436 581h90v-581h139v-80h-139v-205h-96v205h-430zM979 285h336v442h-4z" />
<glyph unicode="&#xbd;" horiz-adv-x="1708" d="M98 1196v80q129 4 176 24q68 31 86 127h82v-866h-96v635h-248zM272 -70l928 1555h96l-925 -1555h-99zM983 0q2 119 84 207q53 59 180 137q137 86 185 129q80 74 79 164q0 76 -61 122t-150 46q-102 0 -155 -72q-49 -64 -47 -162h-97q-4 145 74 229.5t234 84.5 q135 0 217 -65.5t82 -190.5q0 -162 -236 -305q-80 -47 -160 -97q-96 -68 -118 -147h508v-80h-619z" />
<glyph unicode="&#xbe;" horiz-adv-x="1708" d="M16 844h97q-4 -98 57 -159.5t168 -61.5q94 0 164.5 50t70.5 134q0 82 -64.5 127t-160.5 45h-72v80h72q72 0 127 37q63 43 64 114q0 76 -60 119q-55 37 -141 37q-98 0 -152.5 -59.5t-52.5 -151.5h-96q2 131 82 211t219 80q125 0 207 -53q90 -61 90 -174q0 -156 -158 -191 v-4q90 -12 141.5 -68.5t51.5 -142.5q0 -127 -94.5 -198.5t-235.5 -71.5q-154 0 -244 79.5t-80 221.5zM354 -70l928 1555h96l-925 -1555h-99zM885 205v80l436 581h90v-581h139v-80h-139v-205h-96v205h-430zM979 285h336v442h-4z" />
<glyph unicode="&#xbf;" horiz-adv-x="1099" d="M111 -43q0 174 178 348q143 139 160 170q27 51 30 230h129q4 -174 -51 -273q-39 -68 -184 -205q-133 -125 -133 -264q0 -121 85 -198.5t207 -77.5q162 0 250 106q84 100 80 266h129q-2 -221 -121 -350q-125 -131 -344 -131q-176 0 -293 100q-123 106 -122 279zM457 840 v217h172v-217h-172z" />
<glyph unicode="&#xc0;" horiz-adv-x="1290" d="M-14 0l589 1462h156l574 -1462h-150l-178 455h-666l-176 -455h-149zM354 573h576l-283 750zM394 1868h159l215 -289h-104z" />
<glyph unicode="&#xc1;" horiz-adv-x="1290" d="M-14 0l589 1462h156l574 -1462h-150l-178 455h-666l-176 -455h-149zM354 573h576l-283 750zM525 1579l215 289h159l-270 -289h-104z" />
<glyph unicode="&#xc2;" horiz-adv-x="1290" d="M-14 0l589 1462h156l574 -1462h-150l-178 455h-666l-176 -455h-149zM342 1579l234 289h141l234 -289h-134l-176 209l-180 -209h-119zM354 573h576l-283 750z" />
<glyph unicode="&#xc3;" horiz-adv-x="1290" d="M-14 0l589 1462h156l574 -1462h-150l-178 455h-666l-176 -455h-149zM324 1620q10 80 58 138.5t124 58.5q61 0 152.5 -45t124.5 -45q75 0 106 98h78q-12 -80 -55 -133q-49 -61 -123 -62q-61 0 -155.5 47.5t-121.5 47.5q-109 0 -108 -105h-80zM354 573h576l-283 750z" />
<glyph unicode="&#xc4;" horiz-adv-x="1290" d="M-14 0l589 1462h156l574 -1462h-150l-178 455h-666l-176 -455h-149zM354 573h576l-283 750zM396 1614v207h139v-207h-139zM758 1614v207h139v-207h-139z" />
<glyph unicode="&#xc5;" horiz-adv-x="1290" d="M-14 0l589 1462h156l574 -1462h-150l-178 455h-666l-176 -455h-149zM354 573h576l-283 750zM428 1761q0 90 64.5 155t154.5 65t155 -64.5t65 -155.5q0 -90 -64.5 -154.5t-155.5 -64.5q-90 0 -154.5 64.5t-64.5 154.5zM508 1761q0 -57 41 -98t98 -41q59 0 99.5 41t40.5 98 q0 59 -40 99.5t-100 40.5q-57 0 -98 -40.5t-41 -99.5z" />
<glyph unicode="&#xc6;" horiz-adv-x="1857" d="M-14 0l766 1462h1050v-119h-751v-528h704v-119h-704v-577h759v-119h-899v463h-530l-238 -463h-157zM442 582h469v761h-82z" />
<glyph unicode="&#xc7;" horiz-adv-x="1441" d="M78 731q0 319 172 531q188 231 518 231q219 0 383 -121q178 -133 205 -352h-139q-37 166 -161 260t-288 94q-272 0 -420 -200q-131 -178 -131 -443q0 -264 131 -440q147 -203 420 -203q197 0 326 137q123 129 143 332h139q-29 -270 -191.5 -429t-416.5 -159h-2l-68 -88 q31 6 64 6q174 0 174 -133q0 -86 -74 -135q-63 -41 -151 -41q-102 0 -193 43l29 66q70 -29 162 -29q109 0 108 88q0 78 -88 78q-72 0 -104 -17l-33 31l104 135q-297 25 -465 250q-154 207 -153 508z" />
<glyph unicode="&#xc8;" horiz-adv-x="1214" d="M147 0v1462h1010v-119h-870v-528h815v-119h-815v-577h880v-119h-1020zM355 1868h159l215 -289h-104z" />
<glyph unicode="&#xc9;" horiz-adv-x="1214" d="M147 0v1462h1010v-119h-870v-528h815v-119h-815v-577h880v-119h-1020zM486 1579l215 289h159l-270 -289h-104z" />
<glyph unicode="&#xca;" horiz-adv-x="1214" d="M147 0v1462h1010v-119h-870v-528h815v-119h-815v-577h880v-119h-1020zM303 1579l234 289h141l234 -289h-134l-176 209l-180 -209h-119z" />
<glyph unicode="&#xcb;" horiz-adv-x="1214" d="M147 0v1462h1010v-119h-870v-528h815v-119h-815v-577h880v-119h-1020zM357 1614v207h139v-207h-139zM719 1614v207h139v-207h-139z" />
<glyph unicode="&#xcc;" horiz-adv-x="454" d="M-24 1868h159l215 -289h-104zM158 0v1462h139v-1462h-139z" />
<glyph unicode="&#xcd;" horiz-adv-x="454" d="M107 1579l215 289h159l-270 -289h-104zM158 0v1462h139v-1462h-139z" />
<glyph unicode="&#xce;" horiz-adv-x="454" d="M-76 1579l234 289h141l234 -289h-134l-176 209l-180 -209h-119zM158 0v1462h139v-1462h-139z" />
<glyph unicode="&#xcf;" horiz-adv-x="454" d="M-22 1614v207h139v-207h-139zM158 0v1462h139v-1462h-139zM340 1614v207h139v-207h-139z" />
<glyph unicode="&#xd0;" horiz-adv-x="1402" d="M0 713v92h147v657h506q330 0 501 -185t171 -546q0 -360 -171 -545.5t-501 -185.5h-506v713h-147zM287 119h297q317 0 459.5 143.5t142.5 468.5q0 326 -142.5 469t-459.5 143h-297v-538h483v-92h-483v-594z" />
<glyph unicode="&#xd1;" horiz-adv-x="1441" d="M145 0v1462h156l852 -1237h4v1237h139v-1462h-155l-852 1237h-4v-1237h-140zM399 1620q10 80 58 138.5t124 58.5q61 0 152.5 -45t124.5 -45q75 0 106 98h78q-12 -80 -55 -133q-49 -61 -123 -62q-61 0 -155.5 47.5t-121.5 47.5q-109 0 -108 -105h-80z" />
<glyph unicode="&#xd2;" horiz-adv-x="1517" d="M70 731q0 319 172 531q188 231 518 231q328 0 516 -231q172 -211 172 -531q0 -319 -172 -530q-188 -231 -516 -232q-330 0 -518 232q-172 211 -172 530zM209 731q0 -264 131 -440q147 -203 420 -203q270 0 420 203q129 176 129 440t-129 443q-150 201 -420 200 q-272 0 -420 -200q-131 -179 -131 -443zM506 1868h159l215 -289h-104z" />
<glyph unicode="&#xd3;" horiz-adv-x="1517" d="M70 731q0 319 172 531q188 231 518 231q328 0 516 -231q172 -211 172 -531q0 -319 -172 -530q-188 -231 -516 -232q-330 0 -518 232q-172 211 -172 530zM209 731q0 -264 131 -440q147 -203 420 -203q270 0 420 203q129 176 129 440t-129 443q-150 201 -420 200 q-272 0 -420 -200q-131 -179 -131 -443zM637 1579l215 289h159l-270 -289h-104z" />
<glyph unicode="&#xd4;" horiz-adv-x="1517" d="M70 731q0 319 172 531q188 231 518 231q328 0 516 -231q172 -211 172 -531q0 -319 -172 -530q-188 -231 -516 -232q-330 0 -518 232q-172 211 -172 530zM209 731q0 -264 131 -440q147 -203 420 -203q270 0 420 203q129 176 129 440t-129 443q-150 201 -420 200 q-272 0 -420 -200q-131 -179 -131 -443zM454 1579l234 289h141l234 -289h-134l-176 209l-180 -209h-119z" />
<glyph unicode="&#xd5;" horiz-adv-x="1517" d="M70 731q0 319 172 531q188 231 518 231q328 0 516 -231q172 -211 172 -531q0 -319 -172 -530q-188 -231 -516 -232q-330 0 -518 232q-172 211 -172 530zM209 731q0 -264 131 -440q147 -203 420 -203q270 0 420 203q129 176 129 440t-129 443q-150 201 -420 200 q-272 0 -420 -200q-131 -179 -131 -443zM436 1620q10 80 58 138.5t124 58.5q61 0 152.5 -45t124.5 -45q75 0 106 98h78q-12 -80 -55 -133q-49 -61 -123 -62q-61 0 -155.5 47.5t-121.5 47.5q-109 0 -108 -105h-80z" />
<glyph unicode="&#xd6;" horiz-adv-x="1517" d="M70 731q0 319 172 531q188 231 518 231q328 0 516 -231q172 -211 172 -531q0 -319 -172 -530q-188 -231 -516 -232q-330 0 -518 232q-172 211 -172 530zM209 731q0 -264 131 -440q147 -203 420 -203q270 0 420 203q129 176 129 440t-129 443q-150 201 -420 200 q-272 0 -420 -200q-131 -179 -131 -443zM508 1614v207h139v-207h-139zM870 1614v207h139v-207h-139z" />
<glyph unicode="&#xd7;" horiz-adv-x="1228" d="M152 127l385 387l-385 387l75 76l387 -387l387 387l76 -76l-387 -387l387 -387l-76 -76l-387 385l-387 -385z" />
<glyph unicode="&#xd8;" horiz-adv-x="1517" d="M70 731q0 319 172 531q188 231 518 231q287 0 471 -180l145 160l54 -48l-150 -165q168 -207 168 -529q0 -319 -172 -530q-188 -231 -516 -232q-291 0 -473 183l-156 -177l-55 52l162 180q-168 211 -168 524zM209 731q0 -254 119 -424l815 907q-145 160 -383 160 q-272 0 -420 -200q-131 -178 -131 -443zM375 250q145 -162 385 -162q270 0 420 203q129 176 129 440q0 258 -121 426z" />
<glyph unicode="&#xd9;" horiz-adv-x="1402" d="M133 526v936h139v-905q0 -469 428 -469q430 0 430 469v905h140v-936q0 -246 -131 -391q-150 -166 -439 -166q-287 0 -436 166q-131 147 -131 391zM449 1868h159l215 -289h-104z" />
<glyph unicode="&#xda;" horiz-adv-x="1402" d="M133 526v936h139v-905q0 -469 428 -469q430 0 430 469v905h140v-936q0 -246 -131 -391q-150 -166 -439 -166q-287 0 -436 166q-131 147 -131 391zM580 1579l215 289h159l-270 -289h-104z" />
<glyph unicode="&#xdb;" horiz-adv-x="1402" d="M133 526v936h139v-905q0 -469 428 -469q430 0 430 469v905h140v-936q0 -246 -131 -391q-150 -166 -439 -166q-287 0 -436 166q-131 147 -131 391zM397 1579l234 289h141l234 -289h-134l-176 209l-180 -209h-119z" />
<glyph unicode="&#xdc;" horiz-adv-x="1402" d="M133 526v936h139v-905q0 -469 428 -469q430 0 430 469v905h140v-936q0 -246 -131 -391q-150 -166 -439 -166q-287 0 -436 166q-131 147 -131 391zM451 1614v207h139v-207h-139zM813 1614v207h139v-207h-139z" />
<glyph unicode="&#xdd;" horiz-adv-x="1251" d="M-20 1462h165l482 -741l479 741h166l-578 -860v-602h-139v602zM504 1579l215 289h159l-270 -289h-104z" />
<glyph unicode="&#xde;" horiz-adv-x="1290" d="M147 0v1462h140v-239h510q199 0 316.5 -111t117.5 -307q0 -197 -118 -307.5t-316 -110.5h-510v-387h-140zM287 506h479q150 0 238 76.5t88 222.5q0 145 -91 225q-86 74 -235 74h-479v-598z" />
<glyph unicode="&#xdf;" horiz-adv-x="1099" d="M125 0v1096q0 197 113 301q106 96 294 96q172 0 283 -92q119 -100 119 -268q0 -115 -60 -197q-63 -88 -172 -111v-4q143 -12 228 -125q78 -106 78 -254q0 -219 -129 -340q-121 -113 -326 -118q-55 -2 -102 4v112q41 -8 96 -8q139 -2 229 76q102 86 103 252 q0 199 -119 274q-96 59 -309 60v108q354 0 354 266q0 111 -79 183.5t-191 72.5q-281 0 -281 -299v-1085h-129z" />
<glyph unicode="&#xe0;" horiz-adv-x="1062" d="M66 279q0 197 178 268q88 37 389 71q92 10 123 33q43 31 43 111q0 217 -277 217q-276 0 -282 -246h-129q8 178 129 271q109 84 299 83q389 0 389 -339v-562q0 -78 76 -77q20 0 40 8v-109q-39 -8 -83 -8q-92 0 -125 51q-27 41 -27 133h-4q-74 -113 -150 -159 q-92 -55 -235 -56q-156 0 -250 76q-104 82 -104 234zM195 287q0 -92 70.5 -150.5t164.5 -58.5q154 0 261.5 91t107.5 241v168h-4q-16 -31 -109 -48q-113 -16 -225 -34q-127 -23 -189 -62q-78 -53 -77 -147zM279 1493h159l215 -289h-104z" />
<glyph unicode="&#xe1;" horiz-adv-x="1062" d="M66 279q0 197 178 268q88 37 389 71q92 10 123 33q43 31 43 111q0 217 -277 217q-276 0 -282 -246h-129q8 178 129 271q109 84 299 83q389 0 389 -339v-562q0 -78 76 -77q20 0 40 8v-109q-39 -8 -83 -8q-92 0 -125 51q-27 41 -27 133h-4q-74 -113 -150 -159 q-92 -55 -235 -56q-156 0 -250 76q-104 82 -104 234zM195 287q0 -92 70.5 -150.5t164.5 -58.5q154 0 261.5 91t107.5 241v168h-4q-16 -31 -109 -48q-113 -16 -225 -34q-127 -23 -189 -62q-78 -53 -77 -147zM410 1204l215 289h159l-270 -289h-104z" />
<glyph unicode="&#xe2;" horiz-adv-x="1062" d="M66 279q0 197 178 268q88 37 389 71q92 10 123 33q43 31 43 111q0 217 -277 217q-276 0 -282 -246h-129q8 178 129 271q109 84 299 83q389 0 389 -339v-562q0 -78 76 -77q20 0 40 8v-109q-39 -8 -83 -8q-92 0 -125 51q-27 41 -27 133h-4q-74 -113 -150 -159 q-92 -55 -235 -56q-156 0 -250 76q-104 82 -104 234zM195 287q0 -92 70.5 -150.5t164.5 -58.5q154 0 261.5 91t107.5 241v168h-4q-16 -31 -109 -48q-113 -16 -225 -34q-127 -23 -189 -62q-78 -53 -77 -147zM227 1204l234 289h141l234 -289h-134l-176 209l-180 -209h-119z " />
<glyph unicode="&#xe3;" horiz-adv-x="1062" d="M66 279q0 197 178 268q88 37 389 71q92 10 123 33q43 31 43 111q0 217 -277 217q-276 0 -282 -246h-129q8 178 129 271q109 84 299 83q389 0 389 -339v-562q0 -78 76 -77q20 0 40 8v-109q-39 -8 -83 -8q-92 0 -125 51q-27 41 -27 133h-4q-74 -113 -150 -159 q-92 -55 -235 -56q-156 0 -250 76q-104 82 -104 234zM195 287q0 -92 70.5 -150.5t164.5 -58.5q154 0 261.5 91t107.5 241v168h-4q-16 -31 -109 -48q-113 -16 -225 -34q-127 -23 -189 -62q-78 -53 -77 -147zM209 1245q10 80 58 138.5t124 58.5q61 0 152.5 -45t124.5 -45 q75 0 106 98h78q-12 -80 -55 -133q-49 -61 -123 -62q-61 0 -155.5 47.5t-121.5 47.5q-109 0 -108 -105h-80z" />
<glyph unicode="&#xe4;" horiz-adv-x="1062" d="M66 279q0 197 178 268q88 37 389 71q92 10 123 33q43 31 43 111q0 217 -277 217q-276 0 -282 -246h-129q8 178 129 271q109 84 299 83q389 0 389 -339v-562q0 -78 76 -77q20 0 40 8v-109q-39 -8 -83 -8q-92 0 -125 51q-27 41 -27 133h-4q-74 -113 -150 -159 q-92 -55 -235 -56q-156 0 -250 76q-104 82 -104 234zM195 287q0 -92 70.5 -150.5t164.5 -58.5q154 0 261.5 91t107.5 241v168h-4q-16 -31 -109 -48q-113 -16 -225 -34q-127 -23 -189 -62q-78 -53 -77 -147zM281 1239v207h139v-207h-139zM643 1239v207h139v-207h-139z" />
<glyph unicode="&#xe5;" horiz-adv-x="1062" d="M66 279q0 197 178 268q88 37 389 71q92 10 123 33q43 31 43 111q0 217 -277 217q-276 0 -282 -246h-129q8 178 129 271q109 84 299 83q389 0 389 -339v-562q0 -78 76 -77q20 0 40 8v-109q-39 -8 -83 -8q-92 0 -125 51q-27 41 -27 133h-4q-74 -113 -150 -159 q-92 -55 -235 -56q-156 0 -250 76q-104 82 -104 234zM195 287q0 -92 70.5 -150.5t164.5 -58.5q154 0 261.5 91t107.5 241v168h-4q-16 -31 -109 -48q-113 -16 -225 -34q-127 -23 -189 -62q-78 -53 -77 -147zM313 1386q0 90 64.5 155t154.5 65t155 -64.5t65 -155.5 q0 -90 -64.5 -154.5t-155.5 -64.5q-90 0 -154.5 64.5t-64.5 154.5zM393 1386q0 -57 41 -98t98 -41q59 0 99.5 41t40.5 98q0 59 -40 99.5t-100 40.5q-57 0 -98 -40.5t-41 -99.5z" />
<glyph unicode="&#xe6;" horiz-adv-x="1781" d="M66 279q0 197 178 268q88 37 389 71q92 10 123 33q43 31 43 111q0 217 -277 217q-276 0 -282 -246h-129q8 178 129 271q109 84 299 83q322 0 352 -219h4q41 106 149 166q98 53 222 53q242 0 358 -182q98 -151 98 -411h-794q-12 -178 73 -293q92 -123 271 -123 q254 0 313 264h129q-41 -178 -159.5 -275.5t-301.5 -97.5q-291 0 -387 267h-4q-23 -123 -164 -199q-125 -68 -278 -68q-156 0 -250 76q-104 82 -104 234zM195 287q0 -92 70.5 -150.5t164.5 -58.5q154 0 261.5 91t107.5 241v168h-4q-16 -31 -109 -48q-113 -16 -225 -34 q-127 -23 -189 -62q-78 -53 -77 -147zM928 602h665q0 152 -90 262q-96 115 -243 115q-156 0 -248 -115q-88 -106 -84 -262z" />
<glyph unicode="&#xe7;" horiz-adv-x="1062" d="M70 528q0 238 129 394q137 166 370 165q174 0 289 -90q119 -96 139 -272h-129q-55 254 -299 254q-176 0 -278 -141q-92 -127 -92 -310q0 -182 92 -309q102 -141 278 -141q121 0 208.5 85t99.5 216h129q-27 -188 -140.5 -297t-287.5 -113l-68 -88q31 6 63 6 q174 0 175 -133q0 -86 -74 -135q-63 -41 -152 -41q-102 0 -192 43l28 66q70 -29 162 -29q109 0 109 88q0 78 -88 78q-72 0 -105 -17l-33 31l105 135q-207 23 -326 183q-113 152 -112 372z" />
<glyph unicode="&#xe8;" horiz-adv-x="1062" d="M70 528q0 231 112 385q129 174 365 174q240 0 364 -186q109 -161 101 -407h-813q2 -164 82 -279q96 -137 266 -137q262 0 332 270h129q-88 -379 -461 -379q-238 0 -365 166q-113 150 -112 393zM199 602h684q-4 156 -92 262q-94 115 -244 115t-246 -117 q-86 -102 -102 -260zM279 1493h159l215 -289h-104z" />
<glyph unicode="&#xe9;" horiz-adv-x="1062" d="M70 528q0 231 112 385q129 174 365 174q240 0 364 -186q109 -161 101 -407h-813q2 -164 82 -279q96 -137 266 -137q262 0 332 270h129q-88 -379 -461 -379q-238 0 -365 166q-113 150 -112 393zM199 602h684q-4 156 -92 262q-94 115 -244 115t-246 -117 q-86 -102 -102 -260zM410 1204l215 289h159l-270 -289h-104z" />
<glyph unicode="&#xea;" horiz-adv-x="1062" d="M70 528q0 231 112 385q129 174 365 174q240 0 364 -186q109 -161 101 -407h-813q2 -164 82 -279q96 -137 266 -137q262 0 332 270h129q-88 -379 -461 -379q-238 0 -365 166q-113 150 -112 393zM199 602h684q-4 156 -92 262q-94 115 -244 115t-246 -117 q-86 -102 -102 -260zM227 1204l234 289h141l234 -289h-134l-176 209l-180 -209h-119z" />
<glyph unicode="&#xeb;" horiz-adv-x="1062" d="M70 528q0 231 112 385q129 174 365 174q240 0 364 -186q109 -161 101 -407h-813q2 -164 82 -279q96 -137 266 -137q262 0 332 270h129q-88 -379 -461 -379q-238 0 -365 166q-113 150 -112 393zM199 602h684q-4 156 -92 262q-94 115 -244 115t-246 -117 q-86 -102 -102 -260zM281 1239v207h139v-207h-139zM643 1239v207h139v-207h-139z" />
<glyph unicode="&#xec;" horiz-adv-x="378" d="M-63 1493h159l215 -289h-104zM125 0v1057h129v-1057h-129z" />
<glyph unicode="&#xed;" horiz-adv-x="378" d="M68 1204l215 289h159l-270 -289h-104zM125 0v1057h129v-1057h-129z" />
<glyph unicode="&#xee;" horiz-adv-x="378" d="M-115 1204l234 289h141l234 -289h-134l-176 209l-180 -209h-119zM125 0v1057h129v-1057h-129z" />
<glyph unicode="&#xef;" horiz-adv-x="378" d="M-61 1239v207h139v-207h-139zM125 0v1057h129v-1057h-129zM301 1239v207h139v-207h-139z" />
<glyph unicode="&#xf0;" d="M70 510q0 223 127 371q133 156 358 155q197 0 272 -82h4q-94 176 -272 322l-215 -121l-68 66l205 114q-104 70 -190 113l74 72q125 -63 213 -131l233 131l68 -66l-224 -125q401 -330 402 -801q0 -244 -123 -395q-133 -164 -379 -164q-238 0 -367 156q-119 145 -118 385z M199 508q0 -182 86 -299q96 -131 276 -131q176 0 275 123q92 115 92 311q0 172 -84 285q-97 131 -279 131q-186 0 -282 -125q-84 -111 -84 -295z" />
<glyph unicode="&#xf1;" horiz-adv-x="1099" d="M121 0v1057h129v-183h4q35 94 130 153.5t208 59.5q213 0 305 -108q82 -98 82 -299v-680h-129v659q0 319 -268 320q-152 0 -242 -102.5t-90 -260.5v-616h-129zM227 1245q10 80 58 138.5t124 58.5q61 0 152.5 -45t124.5 -45q75 0 106 98h78q-12 -80 -55 -133 q-49 -61 -123 -62q-61 0 -155.5 47.5t-121.5 47.5q-109 0 -108 -105h-80z" />
<glyph unicode="&#xf2;" d="M70 528q0 238 129 394q137 165 370 165t371 -165q129 -156 129 -394t-129 -393q-137 -166 -371 -166q-233 0 -370 166q-129 156 -129 393zM199 528q0 -182 92 -309q102 -141 278 -141t279 141q92 127 92 309t-92 310q-103 141 -279 141t-278 -141q-92 -127 -92 -310z M318 1493h159l215 -289h-104z" />
<glyph unicode="&#xf3;" d="M70 528q0 238 129 394q137 165 370 165t371 -165q129 -156 129 -394t-129 -393q-137 -166 -371 -166q-233 0 -370 166q-129 156 -129 393zM199 528q0 -182 92 -309q102 -141 278 -141t279 141q92 127 92 309t-92 310q-103 141 -279 141t-278 -141q-92 -127 -92 -310z M449 1204l215 289h159l-270 -289h-104z" />
<glyph unicode="&#xf4;" d="M70 528q0 238 129 394q137 165 370 165t371 -165q129 -156 129 -394t-129 -393q-137 -166 -371 -166q-233 0 -370 166q-129 156 -129 393zM199 528q0 -182 92 -309q102 -141 278 -141t279 141q92 127 92 309t-92 310q-103 141 -279 141t-278 -141q-92 -127 -92 -310z M266 1204l234 289h141l234 -289h-134l-176 209l-180 -209h-119z" />
<glyph unicode="&#xf5;" d="M70 528q0 238 129 394q137 165 370 165t371 -165q129 -156 129 -394t-129 -393q-137 -166 -371 -166q-233 0 -370 166q-129 156 -129 393zM199 528q0 -182 92 -309q102 -141 278 -141t279 141q92 127 92 309t-92 310q-103 141 -279 141t-278 -141q-92 -127 -92 -310z M248 1245q10 80 58 138.5t124 58.5q61 0 152.5 -45t124.5 -45q75 0 106 98h78q-12 -80 -55 -133q-49 -61 -123 -62q-61 0 -155.5 47.5t-121.5 47.5q-109 0 -108 -105h-80z" />
<glyph unicode="&#xf6;" d="M70 528q0 238 129 394q137 165 370 165t371 -165q129 -156 129 -394t-129 -393q-137 -166 -371 -166q-233 0 -370 166q-129 156 -129 393zM199 528q0 -182 92 -309q102 -141 278 -141t279 141q92 127 92 309t-92 310q-103 141 -279 141t-278 -141q-92 -127 -92 -310z M320 1239v207h139v-207h-139zM682 1239v207h139v-207h-139z" />
<glyph unicode="&#xf7;" horiz-adv-x="1228" d="M100 461v108h1030v-108h-1030zM500 102q0 47 33.5 81t80.5 34t81 -33.5t34 -81.5q0 -43 -33.5 -78.5t-79.5 -35.5q-47 0 -81.5 33.5t-34.5 80.5zM500 928q0 47 33.5 80.5t80.5 33.5t81 -33.5t34 -80.5q0 -43 -33.5 -79t-79.5 -36q-47 0 -81.5 34t-34.5 81z" />
<glyph unicode="&#xf8;" d="M59 18l125 138q-115 150 -114 372q0 238 129 394q137 166 370 165q215 0 349 -139l106 115l45 -41l-111 -121q111 -154 111 -373q0 -238 -129 -393q-137 -166 -371 -166q-215 0 -344 140l-121 -132zM199 528q-1 -157 73 -276l559 604q-98 123 -262 123q-176 0 -278 -141 q-92 -127 -92 -310zM309 199q96 -121 260 -121q176 0 279 141q92 127 92 309q0 158 -72 275z" />
<glyph unicode="&#xf9;" horiz-adv-x="1099" d="M121 371v686h129v-688q0 -291 282 -291q156 0 242 131q76 117 76 293v555h129v-1057h-119v190h-4q-49 -104 -147.5 -162.5t-216.5 -58.5q-371 0 -371 402zM297 1493h159l215 -289h-104z" />
<glyph unicode="&#xfa;" horiz-adv-x="1099" d="M121 371v686h129v-688q0 -291 282 -291q156 0 242 131q76 117 76 293v555h129v-1057h-119v190h-4q-49 -104 -147.5 -162.5t-216.5 -58.5q-371 0 -371 402zM428 1204l215 289h159l-270 -289h-104z" />
<glyph unicode="&#xfb;" horiz-adv-x="1099" d="M121 371v686h129v-688q0 -291 282 -291q156 0 242 131q76 117 76 293v555h129v-1057h-119v190h-4q-49 -104 -147.5 -162.5t-216.5 -58.5q-371 0 -371 402zM245 1204l234 289h141l234 -289h-134l-176 209l-180 -209h-119z" />
<glyph unicode="&#xfc;" horiz-adv-x="1099" d="M121 371v686h129v-688q0 -291 282 -291q156 0 242 131q76 117 76 293v555h129v-1057h-119v190h-4q-49 -104 -147.5 -162.5t-216.5 -58.5q-371 0 -371 402zM299 1239v207h139v-207h-139zM661 1239v207h139v-207h-139z" />
<glyph unicode="&#xfd;" horiz-adv-x="948" d="M4 1057h137l348 -901l326 901h129l-459 -1219q-51 -139 -104 -182q-55 -49 -174 -47q-74 0 -98 10v109q51 -10 88 -11q78 0 120 45q31 33 64 121l45 121zM353 1204l215 289h159l-270 -289h-104z" />
<glyph unicode="&#xfe;" horiz-adv-x="1175" d="M123 -391v1853h129v-606h4q41 111 145 172q98 59 222 59q229 0 358 -167q117 -152 117 -392t-117 -391q-129 -168 -358 -168q-123 0 -222 60q-104 61 -145 172h-4v-592h-129zM252 528q0 -186 82 -307q98 -143 289 -143q172 0 266 143q80 123 80 307t-80 308 q-94 143 -266 143q-190 0 -289 -143q-82 -121 -82 -308z" />
<glyph unicode="&#xff;" horiz-adv-x="948" d="M4 1057h137l348 -901l326 901h129l-459 -1219q-51 -139 -104 -182q-55 -49 -174 -47q-74 0 -98 10v109q51 -10 88 -11q78 0 120 45q31 33 64 121l45 121zM224 1239v207h139v-207h-139zM586 1239v207h139v-207h-139z" />
<glyph unicode="&#x152;" horiz-adv-x="2199" d="M76 731q0 319 182 535q195 227 510 227q264 0 397 -152v121h971v-119h-831v-528h753v-119h-753v-577h837v-119h-977v143q-70 -84 -182 -129q-104 -45 -215 -45q-315 0 -510 228q-182 215 -182 534zM215 731q0 -272 143 -450q152 -193 410 -193q231 0 360 162 q37 46 37 112v680q0 94 -10 136q-33 88 -160 145q-111 51 -227 51q-258 0 -410 -192q-143 -178 -143 -451z" />
<glyph unicode="&#x153;" horiz-adv-x="1820" d="M74 528q0 236 114 390q127 170 357 169q295 0 377 -260h4q43 117 147.5 188.5t241.5 71.5q453 0 452 -593h-786q0 -170 80 -285q88 -131 250 -131q249 0 325 262h129q-43 -176 -164.5 -273.5t-302.5 -97.5q-135 0 -237 70q-109 72 -139 199h-4q-76 -268 -379 -269 q-233 0 -357 168q-109 150 -108 391zM203 504q0 -176 78 -293q90 -133 260 -133q311 0 311 459q0 442 -309 442q-182 0 -271 -154q-70 -123 -69 -321zM981 602h657q0 158 -84 262q-90 115 -243 115q-156 0 -246 -113q-84 -104 -84 -264z" />
<glyph unicode="&#x178;" horiz-adv-x="1251" d="M-20 1462h165l482 -741l479 741h166l-578 -860v-602h-139v602zM375 1614v207h139v-207h-139zM737 1614v207h139v-207h-139z" />
<glyph unicode="&#x2c6;" horiz-adv-x="378" d="M-115 1204l234 289h141l234 -289h-134l-176 209l-180 -209h-119z" />
<glyph unicode="&#x2dc;" horiz-adv-x="378" d="M-133 1245q10 80 58 138.5t124 58.5q61 0 152.5 -45t124.5 -45q75 0 106 98h78q-12 -80 -55 -133q-49 -61 -123 -62q-61 0 -155.5 47.5t-121.5 47.5q-109 0 -108 -105h-80z" />
<glyph unicode="&#x2000;" horiz-adv-x="990" />
<glyph unicode="&#x2001;" horiz-adv-x="1981" />
<glyph unicode="&#x2002;" horiz-adv-x="990" />
<glyph unicode="&#x2003;" horiz-adv-x="1981" />
<glyph unicode="&#x2004;" horiz-adv-x="660" />
<glyph unicode="&#x2005;" horiz-adv-x="495" />
<glyph unicode="&#x2006;" horiz-adv-x="330" />
<glyph unicode="&#x2007;" horiz-adv-x="330" />
<glyph unicode="&#x2008;" horiz-adv-x="247" />
<glyph unicode="&#x2009;" horiz-adv-x="396" />
<glyph unicode="&#x200a;" horiz-adv-x="110" />
<glyph unicode="&#x2010;" horiz-adv-x="757" d="M123 504v119h512v-119h-512z" />
<glyph unicode="&#x2011;" horiz-adv-x="757" d="M123 504v119h512v-119h-512z" />
<glyph unicode="&#x2012;" horiz-adv-x="757" d="M123 504v119h512v-119h-512z" />
<glyph unicode="&#x2013;" horiz-adv-x="1024" d="M0 504v119h1024v-119h-1024z" />
<glyph unicode="&#x2014;" horiz-adv-x="2048" d="M0 504v119h2048v-119h-2048z" />
<glyph unicode="&#x2018;" horiz-adv-x="569" d="M195 965v219q0 96 45 170q49 84 137 108v-88q-49 -16 -76 -80q-25 -55 -20 -112h86v-217h-172z" />
<glyph unicode="&#x2019;" horiz-adv-x="569" d="M193 965v88q49 16 75 80q25 55 21 112h-86v217h172v-219q0 -96 -45 -170q-49 -84 -137 -108z" />
<glyph unicode="&#x201a;" horiz-adv-x="569" d="M193 -193q49 16 75 80q25 55 21 113h-86v217h172v-219q0 -96 -45 -170q-49 -84 -137 -109v88z" />
<glyph unicode="&#x201c;" horiz-adv-x="757" d="M131 965v219q0 96 45 170q49 84 137 108v-88q-49 -16 -75 -80q-25 -55 -21 -112h86v-217h-172zM446 965v219q0 96 46 170q49 84 137 108v-88q-49 -16 -76 -80q-25 -55 -21 -112h86v-217h-172z" />
<glyph unicode="&#x201d;" horiz-adv-x="757" d="M129 965v88q49 16 76 80q25 55 20 112h-86v217h172v-219q0 -96 -45 -170q-49 -84 -137 -108zM444 965v88q49 16 76 80q25 55 21 112h-86v217h172v-219q0 -96 -45 -170q-49 -84 -138 -108z" />
<glyph unicode="&#x201e;" horiz-adv-x="757" d="M129 -193q49 16 76 80q25 55 20 113h-86v217h172v-219q0 -96 -45 -170q-49 -84 -137 -109v88zM444 -193q49 16 76 80q25 55 21 113h-86v217h172v-219q0 -96 -45 -170q-49 -84 -138 -109v88z" />
<glyph unicode="&#x2022;" horiz-adv-x="1024" d="M147 731q0 152 106.5 258.5t258.5 106.5t259.5 -106.5t107.5 -258.5t-107.5 -259t-259.5 -107t-258.5 107t-106.5 259z" />
<glyph unicode="&#x2026;" horiz-adv-x="2048" d="M256 0v217h172v-217h-172zM938 0v217h172v-217h-172zM1620 0v217h172v-217h-172z" />
<glyph unicode="&#x202f;" horiz-adv-x="396" />
<glyph unicode="&#x2039;" horiz-adv-x="530" d="M109 500v127l272 256v-138l-193 -182l193 -182v-137z" />
<glyph unicode="&#x203a;" horiz-adv-x="530" d="M150 244v137l192 182l-192 182v138l272 -256v-127z" />
<glyph unicode="&#x205f;" horiz-adv-x="495" />
<glyph unicode="&#x2122;" horiz-adv-x="2027" d="M168 1370v92h657v-92h-274v-752h-109v752h-274zM975 618v844h174l272 -684l265 684h174v-844h-109v746h-4l-299 -746h-62l-299 746h-4v-746h-108z" />
<glyph unicode="&#xe000;" horiz-adv-x="1054" d="M0 0v1055h1055v-1055h-1055z" />
</font>
</defs>
</svg>
