<?xml version="1.0" standalone="no"?>
<!DOCTYPE svg PUBLIC "-//W3C//DTD SVG 1.1//EN" "http://www.w3.org/Graphics/SVG/1.1/DTD/svg11.dtd" >
<svg xmlns="http://www.w3.org/2000/svg" xmlns:xlink="http://www.w3.org/1999/xlink" version="1.1">
<metadata>
Created by FontForge 20170731 at Wed Jul 22 23:34:39 2020
 By Aleksey,,,
(c) 2015 MCKL. All Rights Reserved.
</metadata>
<defs>
<font id="HoneywellSans-Bold" horiz-adv-x="1280" >
  <font-face 
    font-family="Honeywell Sans"
    font-weight="700"
    font-stretch="normal"
    units-per-em="2048"
    panose-1="2 1 8 3 4 1 1 6 2 3"
    ascent="1585"
    descent="-463"
    x-height="1006"
    cap-height="1434"
    bbox="-217 -629 2953 1952"
    underline-thickness="102"
    underline-position="-307"
    unicode-range="U+0020-FB02"
  />
<missing-glyph horiz-adv-x="1871" 
d="M225 0v1434h1422v-1434h-1422zM512 1303l426 -492l426 492h-852zM846 711l-467 532v-1065zM1028 711l465 -531v1061zM934 612l-416 -481h836z" />
    <glyph glyph-name="fi" unicode="fi" horiz-adv-x="1335" 
d="M899 1311q0 67 37.5 101t107.5 34t108 -34t38 -101t-38 -101t-108 -34t-107.5 34t-37.5 101zM223 0v831h-178v175h178v104q0 190 89.5 279.5t252.5 89.5q118 0 191 -37l-39 -172q-57 26 -119 26q-74 0 -111.5 -44t-37.5 -150v-96h280v-175h-280v-831h-226zM928 1006h231
v-1006h-231v1006z" />
    <glyph glyph-name="fl" unicode="fl" horiz-adv-x="1335" 
d="M223 0v831h-178v175h178v104q0 369 344 369q107 0 187 -39l-39 -172q-57 26 -117 26q-75 0 -112 -43t-37 -149v-96h280v-175h-280v-831h-226zM1176 0q-126 0 -192 59.5t-66 194.5v1180h231v-1162q0 -49 23.5 -71.5t76.5 -22.5h84v-178h-157z" />
    <glyph glyph-name=".notdef" horiz-adv-x="1871" 
d="M225 0v1434h1422v-1434h-1422zM512 1303l426 -492l426 492h-852zM846 711l-467 532v-1065zM1028 711l465 -531v1061zM934 612l-416 -481h836z" />
    <glyph glyph-name=".null" horiz-adv-x="0" 
 />
    <glyph glyph-name="nonmarkingreturn" horiz-adv-x="682" 
 />
    <glyph glyph-name="space" unicode=" " horiz-adv-x="481" 
 />
    <glyph glyph-name="exclam" unicode="!" horiz-adv-x="487" 
d="M367 1434l-35 -1018h-178l-33 1018h246zM102 123q0 68 36.5 102.5t105.5 34.5q68 0 105.5 -34.5t37.5 -102.5q0 -64 -38 -99.5t-105 -35.5q-68 0 -105 35.5t-37 99.5z" />
    <glyph glyph-name="quotedbl" unicode="&#x22;" horiz-adv-x="698" 
d="M410 981l-17 479h205l-25 -479h-163zM297 981h-166l-22 479h202z" />
    <glyph glyph-name="numbersign" unicode="#" horiz-adv-x="1517" 
d="M643 883l-94 -299h344l92 299h-342zM186 883l50 168h227l119 383h229l-119 -383h344l119 383h229l-118 -383h223l-47 -168h-228l-92 -299h240l-49 -168h-242l-127 -416h-231l127 416h-340l-127 -416h-232l129 416h-211l50 168h210l93 299h-226z" />
    <glyph glyph-name="dollar" unicode="$" horiz-adv-x="1214" 
d="M346 1049q0 -75 47 -125.5t150 -79.5v377q-197 -17 -197 -172zM901 406q0 76 -46.5 119t-162.5 75v-387q209 23 209 193zM543 -127v158q-313 23 -455 260l160 112q62 -90 130.5 -135t164.5 -55v422q-408 98 -408 403q0 158 103.5 254t304.5 111v166h149v-168
q271 -24 393 -230l-165 -110q-44 70 -97.5 108t-130.5 50v-412q231 -55 328.5 -144t97.5 -241q0 -178 -110 -277t-316 -114v-158h-149z" />
    <glyph glyph-name="percent" unicode="%" horiz-adv-x="2160" 
d="M1346 418q0 226 88 333t276 107q189 0 277 -107t88 -333t-88.5 -333.5t-276.5 -107.5q-189 0 -276.5 106.5t-87.5 334.5zM1894 418q0 161 -45.5 227t-138.5 66q-94 0 -139 -66.5t-45 -228.5q0 -161 45.5 -227t138.5 -66q94 0 139 66.5t45 228.5zM80 1018q0 226 88 333
t276 107q189 0 277 -107t88 -333t-88 -333t-277 -107t-276.5 106t-87.5 334zM629 1018q0 161 -45.5 227t-139.5 66t-139 -66.5t-45 -228.5q0 -161 45.5 -227t138.5 -66q94 0 139.5 66.5t45.5 228.5zM1526 1434l-699 -1434h-211l701 1434h209z" />
    <glyph glyph-name="ampersand" unicode="&#x26;" horiz-adv-x="1466" 
d="M1155 981h205q0 -426 -164 -686q164 -111 254 -166l-107 -160q-243 154 -278 178q-192 -174 -494 -174q-109 0 -199 23t-158 68.5t-106 120.5t-38 173q0 76 21 137.5t64.5 111t86.5 83.5t110 76q-147 199 -147 362q0 160 102.5 246t298.5 86q357 0 357 -282
q0 -134 -79 -233t-247 -208q133 -142 395 -331q129 215 123 575zM408 1122q0 -117 110 -256q137 89 191.5 148t54.5 135q0 143 -168 143q-93 0 -140.5 -44.5t-47.5 -125.5zM586 145q186 0 315 117q-278 203 -432 371q-92 -61 -138 -118t-46 -142q0 -105 78.5 -166.5
t222.5 -61.5z" />
    <glyph glyph-name="quotesingle" unicode="'" horiz-adv-x="411" 
d="M129 981l-20 479h202l-18 -479h-164z" />
    <glyph glyph-name="parenleft" unicode="(" horiz-adv-x="720" 
d="M649 -31l-16 -178q-280 25 -414.5 235t-134.5 613q0 401 134.5 611t412.5 235l18 -178q-122 -17 -199 -85t-119 -211.5t-42 -371.5q0 -229 42 -373t119 -212t199 -85z" />
    <glyph glyph-name="parenright" unicode=")" horiz-adv-x="720" 
d="M72 -31l16 -178q280 25 414.5 235t134.5 613q0 401 -134.5 611t-412.5 235l-18 -178q122 -17 199 -85t119 -211.5t42 -371.5q0 -229 -42 -373t-119 -212t-199 -85z" />
    <glyph glyph-name="asterisk" unicode="*" horiz-adv-x="870" 
d="M266 696l-143 115l172 207l-244 63l47 172l244 -82l-14 289h198l-16 -289l248 82l47 -172l-244 -63l172 -207l-145 -115l-162 224z" />
    <glyph glyph-name="plus" unicode="+" horiz-adv-x="1038" 
d="M608 225h-176v328h-330v162h330v332h176v-332h328v-162h-328v-328z" />
    <glyph glyph-name="comma" unicode="," horiz-adv-x="491" 
d="M147 -281l-45 99q61 20 99 65.5t47 110.5q-68 -6 -107 32t-39 99q0 66 37.5 100.5t102.5 34.5q147 0 147 -186q0 -134 -62 -229.5t-180 -125.5z" />
    <glyph glyph-name="hyphen" unicode="-" horiz-adv-x="917" 
d="M819 625v-187h-719v187h719z" />
    <glyph glyph-name="period" unicode="." horiz-adv-x="491" 
d="M102 123q0 68 38.5 102.5t107.5 34.5q67 0 104 -34.5t37 -102.5q0 -64 -37.5 -99.5t-103.5 -35.5q-68 0 -107 35.5t-39 99.5z" />
    <glyph glyph-name="slash" unicode="/" horiz-adv-x="1075" 
d="M1067 1434l-809 -1434h-250l807 1434h252z" />
    <glyph glyph-name="zero" unicode="0" 
d="M63 717q0 388 140 565.5t434 177.5q297 0 437 -177.5t140 -565.5q0 -383 -141.5 -563.5t-435.5 -180.5t-434 178.5t-140 565.5zM987 719q0 154 -22.5 261.5t-68 171.5t-108.5 92t-151 28q-87 0 -149 -28t-107.5 -91.5t-67.5 -172t-22 -265.5t22 -265.5t67.5 -171.5
t107.5 -90.5t149 -27.5q118 0 192.5 49.5t116 174.5t41.5 335z" />
    <glyph glyph-name="one" unicode="1" 
d="M172 0v203h346v948l-182 -123l-94 186l356 224h147v-1235h363v-203h-936z" />
    <glyph glyph-name="two" unicode="2" 
d="M121 0v197l471 434q152 139 216 230.5t64 189.5q0 110 -67 164.5t-193 54.5q-129 0 -209.5 -56t-140.5 -178l-162 119q83 160 211.5 232.5t323.5 72.5q224 0 346.5 -99t122.5 -290q0 -139 -79 -266t-271 -309l-322 -303l737 4v-197h-1048z" />
    <glyph glyph-name="three" unicode="3" 
d="M633 -27q-186 0 -313.5 62.5t-204.5 195.5l161 119q57 -99 141 -145.5t206 -46.5q152 0 232.5 65t80.5 195q0 111 -65.5 170t-198.5 59h-189v189h185q106 0 168.5 58.5t62.5 160.5q0 219 -276 219q-113 0 -187 -46.5t-133 -152.5l-164 109q78 144 200 210t308 66
q228 0 354.5 -98.5t126.5 -288.5q0 -105 -49.5 -188.5t-142.5 -134.5q111 -37 170 -120t59 -208q0 -204 -135 -326.5t-397 -122.5z" />
    <glyph glyph-name="four" unicode="4" 
d="M43 350v162l483 922h226l-465 -883h524v557h227v-557h197v-201h-197v-350h-227v350h-768z" />
    <glyph glyph-name="five" unicode="5" 
d="M420 1239l-39 -393q129 72 305 72q104 0 190 -26.5t153 -79.5t104.5 -140.5t37.5 -202.5q0 -228 -143.5 -362t-409.5 -134q-361 0 -509 250l161 125q117 -194 344 -194q155 0 241.5 83.5t86.5 227.5q0 138 -81.5 207t-227.5 69q-192 0 -328 -114l-139 69l70 738h866v-195
h-682z" />
    <glyph glyph-name="six" unicode="6" 
d="M680 -27q-278 0 -433 182t-155 558q0 378 151.5 562.5t442.5 184.5q356 0 479 -235l-159 -125q-95 176 -318 176q-86 0 -151 -28.5t-116 -92.5t-77.5 -177.5t-26.5 -272.5v-50q43 112 151 178t249 66q222 0 346.5 -115.5t124.5 -330.5q0 -219 -130.5 -349.5
t-377.5 -130.5zM367 432q0 -125 80.5 -201.5t218.5 -76.5q136 0 215.5 72t79.5 212q0 138 -73.5 212.5t-221.5 74.5q-134 0 -216.5 -80t-82.5 -213z" />
    <glyph glyph-name="seven" unicode="7" 
d="M399 0q0 346 125 682t340 551l-721 -4v205h994v-185q-228 -167 -360 -507t-134 -742h-244z" />
    <glyph glyph-name="eight" unicode="8" 
d="M639 -27q-254 0 -394.5 111.5t-140.5 310.5q0 141 72 229.5t195 120.5q-101 39 -158 122t-57 202q0 194 123.5 292.5t359.5 98.5q237 0 361 -98t124 -291q0 -120 -57 -203.5t-158 -122.5q121 -32 193 -120.5t72 -229.5q0 -199 -139.5 -310.5t-395.5 -111.5zM909 1063
q0 109 -70 166t-200 57t-199 -56.5t-69 -166.5q0 -106 69 -166.5t199 -60.5q131 0 200.5 61t69.5 166zM946 401q0 118 -81.5 182t-223.5 64q-143 0 -226 -64t-83 -182q0 -123 80 -187t227 -64t227 64t80 187z" />
    <glyph glyph-name="nine" unicode="9" 
d="M913 999q0 125 -80.5 202t-218.5 77q-135 0 -215 -75t-80 -218q0 -138 74 -212.5t223 -74.5q133 0 215 82.5t82 218.5zM594 -27q-355 0 -481 232l157 125q98 -172 324 -172q68 0 122.5 17t101.5 58t78.5 105.5t49 162.5t17.5 226v49q-41 -116 -148.5 -184t-247.5 -68
q-223 0 -348 119.5t-125 337.5q0 220 130.5 349.5t377.5 129.5q136 0 242.5 -43t184.5 -131.5t119.5 -231t41.5 -333.5q0 -378 -152 -563t-444 -185z" />
    <glyph glyph-name="colon" unicode=":" horiz-adv-x="491" 
d="M102 123q0 68 38.5 102.5t107.5 34.5q67 0 104 -34.5t37 -102.5q0 -64 -37.5 -99.5t-103.5 -35.5q-68 0 -107 35.5t-39 99.5zM102 866q0 68 38.5 103t107.5 35q67 0 104 -35t37 -103q0 -64 -37.5 -99.5t-103.5 -35.5q-68 0 -107 35.5t-39 99.5z" />
    <glyph glyph-name="semicolon" unicode=";" horiz-adv-x="491" 
d="M147 -281l-45 99q61 20 99 65.5t47 110.5q-68 -6 -107 32t-39 99q0 66 37.5 100.5t102.5 34.5q147 0 147 -186q0 -134 -62 -229.5t-180 -125.5zM104 866q0 68 38.5 103t107.5 35q67 0 104 -35t37 -103q0 -64 -37.5 -99.5t-103.5 -35.5q-68 0 -107 35.5t-39 99.5z" />
    <glyph glyph-name="less" unicode="&#x3c;" horiz-adv-x="1011" 
d="M741 1085l99 -131l-445 -319l449 -318l-105 -139l-573 406v96z" />
    <glyph glyph-name="equal" unicode="=" horiz-adv-x="1038" 
d="M936 864v-162h-834v162h834zM936 565v-162h-834v162h834z" />
    <glyph glyph-name="greater" unicode="&#x3e;" horiz-adv-x="1011" 
d="M272 178l-98 131l447 320l-451 319l104 137l574 -405v-94z" />
    <glyph glyph-name="question" unicode="?" horiz-adv-x="1046" 
d="M391 416l-4 332h100q301 0 301 276q0 123 -77 188.5t-222 65.5q-116 0 -193.5 -49t-135.5 -170l-154 106q73 154 198.5 226.5t311.5 72.5q230 0 362 -113t132 -313q0 -193 -106.5 -303t-303.5 -127l-4 -192h-205zM348 123q0 68 37.5 102.5t106.5 34.5q67 0 104 -34.5
t37 -102.5q0 -64 -37.5 -99.5t-103.5 -35.5q-68 0 -106 35.5t-38 99.5z" />
    <glyph glyph-name="at" unicode="@" horiz-adv-x="1673" 
d="M1399 -6q-195 -205 -543 -205q-334 0 -524.5 192.5t-190.5 514.5q0 320 190.5 511t524.5 191q321 0 497.5 -176t176.5 -473q0 -181 -85 -284t-241 -103q-167 0 -205 127q-68 -142 -249 -142q-106 0 -171 54t-65 153q0 105 77.5 164.5t233.5 59.5h156q-3 91 -45 126
t-129 35q-133 0 -197 -84l-71 90q88 121 288 121q308 0 308 -293v-188q0 -66 25.5 -97.5t84.5 -31.5q86 0 137.5 74.5t51.5 216.5q0 276 -156.5 419.5t-421.5 143.5q-282 0 -449 -158t-167 -456q0 -201 78.5 -341.5t216 -208t323.5 -67.5q313 0 481 180zM786 260
q87 0 139.5 56t53.5 153v6h-152q-85 0 -125 -26.5t-40 -86.5q0 -102 124 -102z" />
    <glyph glyph-name="A" unicode="A" horiz-adv-x="1325" 
d="M655 1208l-245 -749h495zM1057 0l-90 268h-619l-88 -268h-242l496 1434h295l496 -1434h-248z" />
    <glyph glyph-name="B" unicode="B" horiz-adv-x="1429" 
d="M213 0v1434h641q218 0 321 -99.5t103 -275.5q0 -113 -54 -195t-149 -119q118 -26 179 -120t61 -215q0 -202 -120.5 -306t-360.5 -104h-621zM829 1245h-385v-422h377q112 0 167.5 59.5t55.5 153.5q0 105 -56.5 157t-158.5 52zM831 633h-387v-447h379q256 0 256 232
q0 215 -248 215z" />
    <glyph glyph-name="C" unicode="C" horiz-adv-x="1439" 
d="M803 -27q-335 0 -497.5 178.5t-162.5 567.5q0 390 163.5 565.5t500.5 175.5q205 0 337 -68.5t204 -222.5l-191 -112q-54 115 -135.5 161t-214.5 46q-106 0 -181 -25.5t-131.5 -86t-84 -168t-27.5 -265.5q0 -126 18.5 -221t52.5 -158t87.5 -102t117.5 -55.5t148 -16.5
q133 0 225 53t152 174l186 -108q-84 -161 -223 -236.5t-344 -75.5z" />
    <glyph glyph-name="D" unicode="D" horiz-adv-x="1552" 
d="M772 0h-559v1434h567q324 0 478.5 -170.5t154.5 -538.5q0 -365 -160 -545t-481 -180zM453 199h305q99 0 173 26.5t130 85.5t84.5 161.5t28.5 246.5q0 275 -99.5 395.5t-296.5 120.5h-325v-1036z" />
    <glyph glyph-name="E" unicode="E" horiz-adv-x="1378" 
d="M213 0v1434h1059v-197h-826v-416h721v-198h-721v-426h846v-197h-1079z" />
    <glyph glyph-name="F" unicode="F" horiz-adv-x="1267" 
d="M213 0v1434h1026v-199h-786v-426h698v-205h-698v-604h-240z" />
    <glyph glyph-name="G" unicode="G" horiz-adv-x="1527" 
d="M766 -27q-303 0 -463 185t-160 561q0 389 164 565t500 176q202 0 332.5 -66.5t201.5 -211.5l-190 -115q-55 105 -136 151t-208 46q-107 0 -182 -25t-131.5 -85t-83.5 -168t-27 -267q0 -157 27.5 -265t83 -171t130.5 -90t179 -27q53 0 102 10.5t96.5 36t82.5 65t58 101.5
t25 141v39h-356v182h575v-741h-184l-14 193q-59 -103 -170.5 -161.5t-251.5 -58.5z" />
    <glyph glyph-name="H" unicode="H" horiz-adv-x="1642" 
d="M1192 0v616h-739v-616h-240v1434h240v-611h739v611h240v-1434h-240z" />
    <glyph glyph-name="I" unicode="I" horiz-adv-x="663" 
d="M213 0v1434h240v-1434h-240z" />
    <glyph glyph-name="J" unicode="J" horiz-adv-x="1069" 
d="M367 -27q-205 0 -347 111l103 174q104 -88 252 -88q278 0 278 352v912h240v-904q0 -153 -38.5 -263.5t-111 -173.5t-165 -91.5t-211.5 -28.5z" />
    <glyph glyph-name="K" unicode="K" horiz-adv-x="1372" 
d="M213 0v1434h240l-2 -750l610 750h282l-534 -639l555 -795h-287l-430 621l-194 -232v-389h-240z" />
    <glyph glyph-name="L" unicode="L" horiz-adv-x="1306" 
d="M453 201h798v-201h-1038v1434h240v-1233z" />
    <glyph glyph-name="M" unicode="M" horiz-adv-x="1970" 
d="M893 0l-467 1038l10 -1038h-223v1434h256l518 -1162l512 1162h260v-1434h-229l10 1047l-467 -1047h-180z" />
    <glyph glyph-name="N" unicode="N" horiz-adv-x="1622" 
d="M1184 0l-750 1069l6 -1069h-227v1434h213l762 -1088l-6 1088h229v-1434h-227z" />
    <glyph glyph-name="O" unicode="O" horiz-adv-x="1609" 
d="M805 -27q-342 0 -502 179.5t-160 566.5q0 385 162.5 563t499.5 178q348 0 505.5 -176.5t157.5 -564.5q0 -385 -163.5 -565.5t-499.5 -180.5zM805 1266q-108 0 -183.5 -26.5t-130.5 -88.5t-81.5 -169.5t-26.5 -264.5q0 -154 26.5 -261t81.5 -170t131 -90.5t183 -27.5
t183 27t131 90t81.5 171t26.5 265q0 153 -26.5 259t-81.5 168.5t-131 90t-183 27.5z" />
    <glyph glyph-name="P" unicode="P" horiz-adv-x="1398" 
d="M213 0v1434h608q245 0 371.5 -123t126.5 -348q0 -239 -135.5 -365.5t-388.5 -126.5h-342v-471h-240zM803 1231h-350v-559h350q131 0 203.5 73.5t72.5 215.5q0 128 -69 199t-207 71z" />
    <glyph glyph-name="Q" unicode="Q" horiz-adv-x="1603" 
d="M1194 61l172 -247h-242l-125 178q-93 -19 -194 -19q-342 0 -502 179.5t-160 566.5q0 385 162.5 563t499.5 178q348 0 505.5 -176.5t157.5 -564.5q0 -491 -274 -658zM805 1268q-107 0 -183 -27t-131 -89.5t-81.5 -170.5t-26.5 -266q0 -154 26.5 -261t81.5 -170t131 -90.5
t183 -27.5q49 0 72 2l-177 254h244l127 -184q158 118 158 481q0 154 -27 261t-82 170t-131.5 90.5t-183.5 27.5z" />
    <glyph glyph-name="R" unicode="R" horiz-adv-x="1413" 
d="M809 1233h-358v-518h354q128 0 198 67.5t70 198.5q0 120 -65.5 186t-198.5 66zM213 0v1434h616q239 0 361.5 -116t122.5 -329q0 -327 -269 -430l289 -559h-262l-264 516h-356v-516h-238z" />
    <glyph glyph-name="S" unicode="S" horiz-adv-x="1294" 
d="M1149 1200l-176 -117q-57 101 -134.5 147t-203.5 46q-148 0 -219.5 -58.5t-71.5 -150.5q0 -80 57.5 -136.5t196.5 -86.5l129 -29q238 -54 346.5 -153t108.5 -259q0 -202 -146 -316t-411 -114q-394 0 -559 277l174 121q73 -118 162 -167.5t229 -49.5q319 0 319 225
q0 88 -57.5 136t-210.5 83l-131 31q-428 100 -428 418q0 188 137.5 300.5t372.5 112.5q191 0 316 -62.5t200 -197.5z" />
    <glyph glyph-name="T" unicode="T" horiz-adv-x="1206" 
d="M27 1434h1155v-203h-459v-1231h-240v1231h-456v203z" />
    <glyph glyph-name="U" unicode="U" horiz-adv-x="1554" 
d="M1139 559v875h239v-863q0 -297 -156.5 -447.5t-443.5 -150.5q-291 0 -446.5 150.5t-155.5 447.5v863h240v-875q0 -199 95 -294t267 -95t266.5 95t94.5 294z" />
    <glyph glyph-name="V" unicode="V" horiz-adv-x="1314" 
d="M14 1434h252l393 -1196l398 1196h243l-497 -1434h-291z" />
    <glyph glyph-name="W" unicode="W" horiz-adv-x="1908" 
d="M846 1430h223l297 -1092l297 1096h233l-415 -1434h-232l-297 1094l-295 -1094h-229l-414 1434h244l291 -1100z" />
    <glyph glyph-name="X" unicode="X" horiz-adv-x="1345" 
d="M1040 0l-376 557l-377 -557h-262l505 731l-475 703h279l350 -535l346 535h262l-479 -699l510 -735h-283z" />
    <glyph glyph-name="Y" unicode="Y" horiz-adv-x="1304" 
d="M532 559l-514 875h263l378 -672l375 672h252l-514 -879v-555h-240v559z" />
    <glyph glyph-name="Z" unicode="Z" horiz-adv-x="1200" 
d="M41 0v164l821 1075l-776 -4v199h1065v-164l-823 -1075l831 4v-199h-1118z" />
    <glyph glyph-name="bracketleft" unicode="[" horiz-adv-x="708" 
d="M141 -250v1716h490v-170h-281v-1376h287v-170h-496z" />
    <glyph glyph-name="backslash" unicode="\" horiz-adv-x="1085" 
d="M815 0l-807 1434h246l807 -1434h-246z" />
    <glyph glyph-name="bracketright" unicode="]" horiz-adv-x="708" 
d="M567 -250v1716h-489v-170h280v-1376h-286v-170h495z" />
    <glyph glyph-name="asciicircum" unicode="^" horiz-adv-x="931" 
d="M356 1434h222l303 -658v-4h-215l-201 463l-207 -463h-207v4z" />
    <glyph glyph-name="underscore" unicode="_" horiz-adv-x="983" 
d="M993 0v-176h-1003v176h1003z" />
    <glyph glyph-name="grave" unicode="`" horiz-adv-x="1228" 
d="M547 1174l-246 239v12h274l160 -243v-8h-188z" />
    <glyph glyph-name="a" unicode="a" horiz-adv-x="1179" 
d="M514 139q126 0 202 82.5t77 229.5v10h-226q-127 0 -184 -42t-57 -132q0 -148 188 -148zM453 -25q-156 0 -250 78.5t-94 220.5q0 155 110 246.5t334 91.5h240q-4 133 -65 186.5t-185 53.5q-189 0 -291 -127l-107 135q126 170 426 170q103 0 182 -21.5t140.5 -69t94 -130.5
t32.5 -199v-610h-197l-18 168q-48 -92 -137.5 -142.5t-214.5 -50.5z" />
    <glyph glyph-name="b" unicode="b" horiz-adv-x="1271" 
d="M403 1434v-588q103 184 349 184q200 0 307.5 -132t107.5 -390q0 -256 -116.5 -395.5t-333.5 -139.5q-236 0 -338 181l-14 -154h-193v1434h231zM401 498q0 -176 73.5 -261t199.5 -85q135 0 200.5 84.5t65.5 263.5q0 181 -66 266.5t-196 85.5q-128 0 -202.5 -87t-74.5 -267
z" />
    <glyph glyph-name="c" unicode="c" horiz-adv-x="1095" 
d="M596 -27q-492 0 -492 529q0 528 498 528q299 0 420 -223l-162 -111q-74 152 -256 152q-143 0 -207.5 -78t-64.5 -270q0 -184 65 -265t205 -81q100 0 163 36.5t103 124.5l166 -92q-116 -250 -438 -250z" />
    <glyph glyph-name="d" unicode="d" horiz-adv-x="1271" 
d="M870 504q0 176 -75 262t-201 86q-133 0 -197.5 -85t-64.5 -267q0 -177 65 -261.5t197 -84.5q127 0 201.5 86.5t74.5 263.5zM895 0l-12 172q-100 -199 -355 -199q-202 0 -313 136t-111 391q0 257 117 393.5t328 136.5q212 0 319 -156v560h232v-1434h-205z" />
    <glyph glyph-name="e" unicode="e" horiz-adv-x="1136" 
d="M596 -27q-236 0 -364 131.5t-128 395.5q0 256 127 393t365 137q114 0 200.5 -37t139.5 -104.5t79.5 -155.5t26.5 -196q0 -45 -6 -101h-708q9 -154 78 -222.5t202 -68.5q103 0 167.5 34.5t105.5 123.5l153 -88q-115 -242 -438 -242zM590 858q-118 0 -184 -64t-76 -204h493
q-12 268 -233 268z" />
    <glyph glyph-name="f" unicode="f" horiz-adv-x="753" 
d="M45 1006h178v104q0 369 344 369q118 0 191 -37l-39 -172q-57 26 -119 26q-76 0 -113.5 -44t-37.5 -150v-96h280v-175h-280v-831h-226v831h-178v175z" />
    <glyph glyph-name="g" unicode="g" horiz-adv-x="1267" 
d="M866 522q0 167 -75.5 249.5t-200.5 82.5q-131 0 -195.5 -81.5t-64.5 -252.5q0 -172 65 -254t195 -82q128 0 202 83.5t74 254.5zM1096 1006v-965q0 -124 -39 -218.5t-110 -152.5t-166 -87t-212 -29q-331 0 -444 231l147 115q48 -91 119 -130.5t172 -39.5q142 0 222.5 70.5
t80.5 219.5v168q-99 -182 -338 -182q-200 0 -312 131t-112 381t113 381t320 131q247 0 346 -182l20 158h193z" />
    <glyph glyph-name="h" unicode="h" horiz-adv-x="1302" 
d="M403 1434v-619q53 108 151.5 161.5t219.5 53.5q186 0 277.5 -103t91.5 -298v-629h-232v559q0 145 -55.5 208.5t-165.5 63.5q-131 0 -207.5 -86.5t-79.5 -246.5v-498h-231v1434h231z" />
    <glyph glyph-name="i" unicode="i" horiz-adv-x="581" 
d="M145 1311q0 67 38 101t108 34t107.5 -34t37.5 -101t-37.5 -101t-107.5 -34t-108 34t-38 101zM176 1006h232v-1006h-232v1006z" />
    <glyph glyph-name="j" unicode="j" horiz-adv-x="581" 
d="M145 1311q0 67 38 101t108 34t107.5 -34t37.5 -101t-37.5 -101t-107.5 -34t-108 34t-38 101zM176 -57v1063h232v-1086q0 -184 -91.5 -275t-253.5 -91q-99 0 -180 32l37 174q55 -22 115 -22q72 0 106.5 45t34.5 160z" />
    <glyph glyph-name="k" unicode="k" horiz-adv-x="1118" 
d="M172 0v1434h229l-4 -938l441 510h264l-402 -449l406 -557h-264l-291 403l-150 -159v-244h-229z" />
    <glyph glyph-name="l" unicode="l" horiz-adv-x="602" 
d="M424 0q-126 0 -192 59.5t-66 194.5v1180h231v-1162q0 -49 24 -71.5t77 -22.5h84v-178h-158z" />
    <glyph glyph-name="m" unicode="m" horiz-adv-x="1921" 
d="M172 0v1006h195l22 -185q53 105 145.5 157t200.5 52q127 0 204 -65t105 -174q49 120 149 179.5t228 59.5q340 0 340 -395v-635h-231v569q0 138 -47 199t-142 61q-118 0 -187.5 -80t-72.5 -233v-516h-231v563q0 141 -49 203.5t-148 62.5q-113 0 -180 -80.5t-70 -234.5
v-514h-231z" />
    <glyph glyph-name="n" unicode="n" horiz-adv-x="1302" 
d="M172 1006h197l22 -187q55 107 154 159t225 52q373 0 373 -401v-629h-232v563q0 143 -55 205.5t-166 62.5q-130 0 -207 -86.5t-80 -246.5v-498h-231v1006z" />
    <glyph glyph-name="o" unicode="o" horiz-adv-x="1214" 
d="M104 504q0 526 504 526q255 0 378.5 -127t123.5 -399q0 -531 -502 -531q-250 0 -377 130t-127 401zM885 502q0 189 -66 269.5t-211 80.5q-148 0 -213 -80t-65 -270q0 -188 66.5 -269t211.5 -81q144 0 210.5 81.5t66.5 268.5z" />
    <glyph glyph-name="p" unicode="p" horiz-adv-x="1271" 
d="M401 500q0 -176 73 -262t198 -86q135 0 201.5 86t66.5 264q0 180 -65.5 265t-196.5 85q-127 0 -202 -86.5t-75 -265.5zM172 1006h195l22 -181q52 100 145 152.5t216 52.5q203 0 310 -133.5t107 -386.5q0 -257 -116 -397t-336 -140q-209 0 -312 148v-504h-231v1389z" />
    <glyph glyph-name="q" unicode="q" horiz-adv-x="1271" 
d="M1100 -381h-232v528q-106 -174 -340 -174q-202 0 -313 134.5t-111 390.5q0 259 117 395.5t330 136.5q236 0 334 -182l20 158h195v-1387zM870 504q0 178 -74.5 263t-201.5 85q-132 0 -197 -84t-65 -266q0 -178 65.5 -263t196.5 -85q128 0 202 86.5t74 263.5z" />
    <glyph glyph-name="r" unicode="r" horiz-adv-x="802" 
d="M172 0v1006h195l22 -209q52 118 149.5 176.5t225.5 52.5v-221q-175 17 -266.5 -76t-94.5 -278v-451h-231z" />
    <glyph glyph-name="s" unicode="s" horiz-adv-x="1046" 
d="M514 141q103 0 153 33.5t50 93.5q0 49 -36.5 76.5t-135.5 48.5l-88 19q-334 69 -334 313q0 136 102 220.5t295 84.5q135 0 227.5 -40.5t161.5 -125.5l-137 -135q-54 67 -112.5 98t-145.5 31q-180 0 -180 -117q0 -46 37.5 -78t126.5 -51l112 -24q170 -37 246 -111.5
t76 -185.5q0 -141 -106.5 -229.5t-315.5 -88.5q-312 0 -438 203l143 121q52 -82 124 -119t175 -37z" />
    <glyph glyph-name="t" unicode="t" horiz-adv-x="778" 
d="M39 1006h168v290h225v-290h283v-175h-283v-481q0 -110 40.5 -151t119.5 -41q60 0 121 22l35 -166q-98 -41 -201 -41q-161 0 -250.5 87.5t-89.5 275.5v495h-168v175z" />
    <glyph glyph-name="u" unicode="u" horiz-adv-x="1294" 
d="M928 0l-19 174q-55 -100 -151 -150.5t-211 -50.5q-194 0 -290.5 107.5t-96.5 302.5v623h231v-574q0 -270 223 -270q126 0 200 85.5t77 244.5v514h231v-1006h-194z" />
    <glyph glyph-name="v" unicode="v" horiz-adv-x="1075" 
d="M14 1006h242l287 -777l282 777h236l-399 -1006h-246z" />
    <glyph glyph-name="w" unicode="w" horiz-adv-x="1540" 
d="M670 999h211l219 -735l213 742h215l-318 -1006h-225l-215 741l-211 -741h-223l-322 1006h222l217 -740z" />
    <glyph glyph-name="x" unicode="x" horiz-adv-x="1075" 
d="M37 1006h264l246 -349l241 349h252l-370 -496l393 -510h-264l-269 362l-266 -362h-252l396 514z" />
    <glyph glyph-name="y" unicode="y" horiz-adv-x="1075" 
d="M383 -115l35 103l-408 1018h242l287 -775l284 775h240l-479 -1196q-57 -140 -151 -197t-230 -57q-97 0 -183 30l31 178q76 -26 137 -26q141 0 195 147z" />
    <glyph glyph-name="z" unicode="z" horiz-adv-x="1015" 
d="M76 0v152l573 675h-563v179h836v-158l-576 -672h592v-176h-862z" />
    <glyph glyph-name="braceleft" unicode="{" horiz-adv-x="735" 
d="M631 -211q-352 25 -352 307q0 46 9 127.5t9 120.5q0 109 -53.5 159t-163.5 50h-64v170h64q110 0 163.5 50t53.5 159q0 39 -9 120.5t-9 127.5q0 282 352 307l20 -178q-86 -8 -129 -48.5t-43 -123.5q0 -41 9.5 -120t9.5 -120q0 -187 -176 -258q176 -74 176 -260
q0 -41 -9.5 -119.5t-9.5 -118.5q0 -84 43 -125t129 -49z" />
    <glyph glyph-name="bar" unicode="|" horiz-adv-x="622" 
d="M207 -133v1702h209v-1702h-209z" />
    <glyph glyph-name="braceright" unicode="}" horiz-adv-x="735" 
d="M100 -211q353 26 353 307q0 46 -9.5 127.5t-9.5 120.5q0 109 53.5 159t163.5 50h64v170h-64q-110 0 -163.5 50t-53.5 159q0 39 9.5 120.5t9.5 127.5q0 281 -353 307l-20 -178q86 -8 129 -48.5t43 -123.5q0 -41 -9.5 -120t-9.5 -120q0 -187 177 -258q-177 -74 -177 -260
q0 -41 9.5 -119.5t9.5 -118.5q0 -84 -43 -125t-129 -49z" />
    <glyph glyph-name="asciitilde" unicode="~" horiz-adv-x="1112" 
d="M883 856l180 -25q-9 -141 -86 -215.5t-201 -74.5q-94 0 -244 71q-118 58 -180 58q-50 0 -82.5 -32t-36.5 -95l-180 26q9 143 86.5 217t204.5 74q43 0 90.5 -12t75.5 -24t78 -36q116 -55 176 -55q52 0 83.5 30.5t35.5 92.5z" />
    <glyph glyph-name="uni00A0" unicode="&#xa0;" horiz-adv-x="360" 
 />
    <glyph glyph-name="exclamdown" unicode="&#xa1;" horiz-adv-x="487" 
d="M121 -408l35 1018h178l33 -1018h-246zM385 903q0 -137 -141 -137q-68 0 -106 34.5t-38 102.5q0 64 38.5 99.5t105.5 35.5t104 -35t37 -100z" />
    <glyph glyph-name="cent" unicode="&#xa2;" horiz-adv-x="1124" 
d="M528 -127v152q-200 21 -302.5 142t-102.5 359q0 460 405 502v156h154v-154q120 -12 202 -65.5t134 -149.5l-154 -102q-58 114 -182 135v-647q69 9 115 44t80 105l161 -86q-100 -214 -356 -239v-152h-154zM340 524q0 -150 45.5 -225t142.5 -94v641q-99 -19 -143.5 -93.5
t-44.5 -228.5z" />
    <glyph glyph-name="sterling" unicode="&#xa3;" horiz-adv-x="1206" 
d="M68 0v184h73q62 0 82 51.5t17 165.5l-9 207h-163v164h159l-6 221q-7 237 118.5 352t348.5 115q155 0 257 -62.5t167 -191.5l-168 -114q-43 90 -104 135t-150 45q-126 0 -184.5 -71t-54.5 -220l8 -209h362v-164h-354l4 -215q4 -154 -41 -209h340q91 0 155.5 28.5
t121.5 94.5l114 -135q-71 -93 -162.5 -132.5t-226.5 -39.5h-704z" />
    <glyph glyph-name="yen" unicode="&#xa5;" horiz-adv-x="1304" 
d="M1163 590v-150h-389v-440h-242v440h-389v150h373l-65 106h-308v150h222l-347 588h263l378 -672l375 672h252l-344 -588h221v-150h-309l-61 -106h370z" />
    <glyph glyph-name="brokenbar" unicode="&#xa6;" horiz-adv-x="622" 
d="M207 791v778h209v-778h-209zM207 -133v778h209v-778h-209z" />
    <glyph glyph-name="section" unicode="&#xa7;" horiz-adv-x="1062" 
d="M756 680q2 54 -34 91t-126 58l-53 13q-84 19 -147 -9.5t-66 -111.5q-2 -50 36.5 -92.5t122.5 -59.5q1 0 28.5 -5t29.5 -5q95 -17 151 16t58 105zM526 -53q-144 0 -245.5 42.5t-163.5 141.5l139 109q47 -72 110 -104t158 -32q201 0 201 134q0 55 -41 87.5t-143 55.5
l-84 18q-318 75 -318 312q0 76 37.5 137t120.5 88q-129 80 -129 227q0 61 19.5 112.5t61 94t115 66.5t171.5 24q124 0 205 -35t145 -110l-127 -123q-50 57 -100.5 82.5t-125.5 25.5q-172 0 -172 -131q0 -47 38.5 -86.5t121.5 -58.5l109 -25q173 -39 249 -111.5t76 -191.5
q0 -169 -161 -225q137 -74 137 -227q0 -59 -20 -109t-64 -94t-125.5 -69t-194.5 -25z" />
    <glyph glyph-name="dieresis" unicode="&#xa8;" horiz-adv-x="1228" 
d="M678 1311q0 64 36 96.5t103 32.5t103 -32.5t36 -96.5t-36 -97.5t-103 -33.5t-103 33.5t-36 97.5zM295 1311q0 63 36.5 96t102.5 33q67 0 103 -32.5t36 -96.5t-36 -97.5t-103 -33.5q-65 0 -102 33.5t-37 97.5z" />
    <glyph glyph-name="copyright" unicode="&#xa9;" horiz-adv-x="1703" 
d="M141 717q0 321 189.5 511.5t523.5 190.5q331 0 520 -191t189 -511t-189 -512.5t-520 -192.5q-334 0 -523.5 192t-189.5 513zM240 717q0 -151 44.5 -268.5t126 -193t193.5 -114.5t250 -39q280 0 446 158t166 457t-166 456.5t-446 157.5q-282 0 -448 -157.5t-166 -456.5z
M862 350q-362 0 -362 373q0 379 364 379q218 0 307 -160l-122 -84q-53 109 -185 109q-102 0 -150 -58t-48 -186q0 -125 48 -180.5t150 -55.5q73 0 117.5 25t73.5 84l125 -68q-82 -178 -318 -178z" />
    <glyph glyph-name="ordfeminine" unicode="&#xaa;" horiz-adv-x="843" 
d="M375 836q87 0 138.5 55t51.5 151v9h-153q-86 0 -127 -28.5t-41 -88.5q0 -47 33 -72.5t98 -25.5zM324 707q-109 0 -176.5 58t-67.5 163q0 107 82 169t244 62h159q-3 91 -45.5 127.5t-128.5 36.5q-132 0 -205 -90l-80 104q91 123 308 123q323 0 323 -301v-430h-149l-13 113
q-72 -135 -251 -135z" />
    <glyph glyph-name="guillemotleft" unicode="&#xab;" horiz-adv-x="1331" 
d="M969 0l-410 504v6l397 496h248l-401 -494l418 -512h-252zM498 0l-396 500v6l394 500h245l-397 -498l406 -508h-252z" />
    <glyph glyph-name="logicalnot" unicode="&#xac;" horiz-adv-x="452" 
d="M82 1311q0 -60 42 -102t103 -42t102.5 42t41.5 102t-41.5 102.5t-102.5 42.5t-103 -42.5t-42 -102.5zM301 1311q0 -32 -21.5 -54t-52.5 -22t-53 22.5t-22 53.5q0 32 22 55t53 23t52.5 -23t21.5 -55z" />
    <glyph glyph-name="uni00AD" unicode="&#xad;" horiz-adv-x="839" 
d="M741 625v-187h-641v187h641z" />
    <glyph glyph-name="registered" unicode="&#xae;" horiz-adv-x="968" 
d="M94 1075q0 176 103.5 280.5t287.5 104.5q183 0 287.5 -105t104.5 -280t-105 -281t-287 -106q-183 0 -287 105.5t-104 281.5zM160 1075q0 -159 88.5 -245.5t236.5 -86.5q147 0 235.5 86.5t88.5 245.5q0 157 -89 243.5t-235 86.5q-148 0 -236.5 -86t-88.5 -244zM496 1204
h-82v-123h71q76 0 76 64q0 59 -65 59zM332 893v381h170q69 0 106 -33.5t37 -93.5q0 -88 -72 -121l72 -133h-92l-61 119h-78v-119h-82z" />
    <glyph glyph-name="macron" unicode="&#xaf;" horiz-adv-x="1228" 
d="M889 1364v-141h-547v141h547z" />
    <glyph glyph-name="degree" unicode="&#xb0;" horiz-adv-x="958" 
d="M481 717q-177 0 -276 100.5t-99 269.5q0 171 98.5 272t276.5 101q175 0 275 -101t100 -272q0 -168 -100 -269t-275 -101zM481 1321q-100 0 -158.5 -60.5t-58.5 -173.5t58 -172t159 -59q98 0 156.5 59.5t58.5 171.5q0 113 -58.5 173.5t-156.5 60.5z" />
    <glyph glyph-name="plusminus" unicode="&#xb1;" horiz-adv-x="1038" 
d="M608 287h-176v297h-330v161h330v302h176v-302h328v-161h-328v-297zM936 162v-162h-834v162h834z" />
    <glyph glyph-name="twosuperior" unicode="&#xb2;" horiz-adv-x="768" 
d="M63 602v139l277 242q80 72 113.5 119t33.5 98q0 109 -133 109q-70 0 -112.5 -28t-75.5 -93l-123 88q51 98 131.5 141t200.5 43q136 0 216.5 -59.5t80.5 -179.5q0 -83 -47 -156.5t-154 -169.5l-156 -141l390 6v-158h-642z" />
    <glyph glyph-name="threesuperior" unicode="&#xb3;" horiz-adv-x="770" 
d="M369 580q-117 0 -196 37.5t-128 119.5l125 90q33 -55 77.5 -78.5t108.5 -23.5q77 0 118.5 30.5t41.5 90.5q0 112 -143 112h-101v138h101q57 0 89 28t32 80q0 107 -140 107q-62 0 -100 -23.5t-70 -81.5l-125 80q49 91 124.5 132.5t189.5 41.5q144 0 222.5 -61t78.5 -176
q0 -125 -113 -189q131 -53 131 -190q0 -122 -83 -193t-240 -71z" />
    <glyph glyph-name="acute" unicode="&#xb4;" horiz-adv-x="1228" 
d="M918 1413l-246 -239h-187v8l160 243h273v-12z" />
    <glyph glyph-name="paragraph" unicode="&#xb6;" horiz-adv-x="1368" 
d="M367 961q0 -142 72 -216t202 -77h39v569h-41q-134 -3 -203 -75.5t-69 -200.5zM1026 1237h-139v-571h139v571zM1233 1434v-1434h-207v471h-139v-471h-207v473h-8q-250 3 -386 129t-136 361q0 222 129.5 346t375.5 125h578z" />
    <glyph glyph-name="periodcentered" unicode="&#xb7;" horiz-adv-x="491" 
d="M102 690q0 68 38.5 102.5t107.5 34.5q67 0 104 -34.5t37 -102.5q0 -64 -37.5 -99.5t-103.5 -35.5q-68 0 -107 35.5t-39 99.5z" />
    <glyph glyph-name="cedilla" unicode="&#xb8;" horiz-adv-x="1228" 
d="M610 0h140l-35 -117h4q80 -2 135 -49t55 -129q0 -96 -73 -148.5t-181 -52.5q-181 0 -260 129l97 93q32 -50 66.5 -73.5t88.5 -23.5q48 0 77.5 20t29.5 58t-29 60t-80 22q-15 0 -47 -4l-39 31z" />
    <glyph glyph-name="onesuperior" unicode="&#xb9;" horiz-adv-x="491" 
d="M369 602h-183v627l-98 -62l-68 140l232 135h117v-840z" />
    <glyph glyph-name="ordmasculine" unicode="&#xba;" horiz-adv-x="872" 
d="M78 1085q0 189 94 282t268 93q181 0 271 -90.5t90 -284.5q0 -189 -92 -283.5t-269 -94.5q-362 0 -362 378zM631 1085q0 126 -47 183t-146 57q-98 0 -143 -57t-45 -183q0 -130 45.5 -186.5t142.5 -56.5q99 0 146 57t47 186z" />
    <glyph glyph-name="guillemotright" unicode="&#xbb;" horiz-adv-x="1331" 
d="M362 1006l410 -504v-6l-397 -496h-248l401 494l-417 512h251zM834 1006l395 -500v-6l-393 -500h-246l397 498l-405 508h252z" />
    <glyph glyph-name="onequarter" unicode="&#xbc;" horiz-adv-x="1792" 
d="M369 600h-183v627l-98 -62l-68 140l232 135h117v-840zM1200 1434l-698 -1434h-211l700 1434h209zM1010 186v123l260 527h178l-252 -496h279v317h167v-317h109v-154h-109v-186h-167v186h-465z" />
    <glyph glyph-name="onehalf" unicode="&#xbd;" horiz-adv-x="1761" 
d="M1055 0v139l276 242q81 73 114.5 119.5t33.5 97.5q0 109 -133 109q-71 0 -113.5 -28.5t-75.5 -92.5l-123 88q51 98 131.5 141t200.5 43q135 0 216 -60t81 -180q0 -83 -46.5 -155.5t-154.5 -169.5l-155 -141l389 6v-158h-641zM369 600h-183v627l-98 -62l-68 140l232 135
h117v-840zM1200 1434l-698 -1434h-211l700 1434h209z" />
    <glyph glyph-name="threequarters" unicode="&#xbe;" horiz-adv-x="1986" 
d="M369 578q-117 0 -196 37.5t-128 119.5l125 90q33 -55 77.5 -78.5t108.5 -23.5q77 0 118.5 30.5t41.5 90.5q0 112 -143 112h-101v138h101q57 0 89 28t32 80q0 107 -140 107q-62 0 -100 -23.5t-70 -81.5l-125 80q49 91 124.5 132.5t189.5 41.5q144 0 222.5 -61t78.5 -176
q0 -125 -113 -189q131 -53 131 -190q0 -122 -83 -193t-240 -71zM1438 1434l-699 -1434h-211l701 1434h209zM1204 186v123l260 527h178l-251 -496h278v317h168v-317h109v-154h-109v-186h-168v186h-465z" />
    <glyph glyph-name="questiondown" unicode="&#xbf;" horiz-adv-x="1046" 
d="M643 610l4 -331h-100q-301 0 -301 -277q0 -123 77 -188.5t222 -65.5q116 0 193.5 49t135.5 170l154 -106q-73 -154 -198.5 -226.5t-311.5 -72.5q-230 0 -361.5 113t-131.5 313q0 193 106 303t303 127l4 192h205zM686 903q0 -68 -37 -102.5t-106 -34.5q-67 0 -104.5 34.5
t-37.5 102.5q0 64 38 99.5t104 35.5q68 0 105.5 -35.5t37.5 -99.5z" />
    <glyph glyph-name="Agrave" unicode="&#xc0;" horiz-adv-x="1325" 
d="M655 1208l-245 -749h495zM1057 0l-90 268h-619l-88 -268h-242l496 1434h295l496 -1434h-248zM592 1606l-246 239v13h275l159 -244v-8h-188z" />
    <glyph glyph-name="Aacute" unicode="&#xc1;" horiz-adv-x="1325" 
d="M655 1208l-245 -749h495zM1057 0l-90 268h-619l-88 -268h-242l496 1434h295l496 -1434h-248zM993 1843l-245 -239h-187v8l160 243h272v-12z" />
    <glyph glyph-name="Acircumflex" unicode="&#xc2;" horiz-adv-x="1325" 
d="M655 1208l-245 -749h495zM1057 0l-90 268h-619l-88 -268h-242l496 1434h295l496 -1434h-248zM668 1737l-136 -133h-215v6l250 245h207l254 -245v-6h-227z" />
    <glyph glyph-name="Atilde" unicode="&#xc3;" horiz-adv-x="1325" 
d="M655 1208l-245 -749h495zM1057 0l-90 268h-619l-88 -268h-242l496 1434h295l496 -1434h-248zM852 1843h156q5 -61 -10.5 -106t-45 -69.5t-63.5 -36t-72 -11.5q-51 0 -103.5 20t-96.5 40t-74 20q-60 0 -60 -74h-155q-4 61 11.5 106t44 69.5t61.5 36t71 11.5
q53 0 106.5 -20t98 -40t74.5 -20q34 0 45.5 19.5t11.5 54.5z" />
    <glyph glyph-name="Adieresis" unicode="&#xc4;" horiz-adv-x="1325" 
d="M655 1208l-245 -749h495zM1057 0l-90 268h-619l-88 -268h-242l496 1434h295l496 -1434h-248zM719 1741q0 64 36 96.5t103 32.5t103 -32.5t36 -96.5t-36 -97.5t-103 -33.5t-103 33.5t-36 97.5zM336 1741q0 63 36.5 96t102.5 33q67 0 103 -32.5t36 -96.5t-36 -97.5
t-103 -33.5q-65 0 -102 33.5t-37 97.5z" />
    <glyph glyph-name="Aring" unicode="&#xc5;" horiz-adv-x="1325" 
d="M655 1208l-245 -749h495zM1057 0l-90 268h-619l-88 -268h-242l496 1434h295l496 -1434h-248zM457 1751q0 92 59.5 146.5t153.5 54.5q92 0 150.5 -54.5t58.5 -146.5t-58.5 -145.5t-152.5 -53.5q-93 0 -152 53.5t-59 145.5zM571 1751q0 -44 27 -73t70 -29q42 0 70 29t28 73
q0 45 -27.5 73.5t-68.5 28.5q-44 0 -71.5 -28t-27.5 -74z" />
    <glyph glyph-name="AE" unicode="&#xc6;" horiz-adv-x="1957" 
d="M668 1210l-254 -751h491zM1049 0l-86 268h-615l-90 -268h-240l510 1434h1323v-197h-954l135 -416h713v-198h-647l139 -426h635v-197h-823z" />
    <glyph glyph-name="Ccedilla" unicode="&#xc7;" horiz-adv-x="1439" 
d="M788 -496q-181 0 -260 129l97 93q32 -50 66.5 -73.5t88.5 -23.5q48 0 77.5 20t29.5 58t-29 60t-80 22q-15 0 -47 -4l-39 31l45 159q-301 15 -447.5 194t-146.5 550q0 390 163.5 565.5t500.5 175.5q205 0 337 -68.5t204 -222.5l-191 -112q-54 115 -135.5 161t-214.5 46
q-106 0 -181 -25.5t-131.5 -86t-84 -168t-27.5 -265.5q0 -126 18.5 -221t52.5 -158t87.5 -102t117.5 -55.5t148 -16.5q133 0 225 53t152 174l186 -108q-148 -286 -496 -310l-26 -92h4q80 -2 135 -49t55 -129q0 -96 -73 -148.5t-181 -52.5z" />
    <glyph glyph-name="Egrave" unicode="&#xc8;" horiz-adv-x="1378" 
d="M213 0v1434h1059v-197h-826v-416h721v-198h-721v-426h846v-197h-1079zM686 1606l-246 239v13h275l159 -244v-8h-188z" />
    <glyph glyph-name="Eacute" unicode="&#xc9;" horiz-adv-x="1378" 
d="M1090 1843l-246 -239h-187v8l160 243h273v-12zM213 0v1434h1059v-197h-826v-416h721v-198h-721v-426h846v-197h-1079z" />
    <glyph glyph-name="Ecircumflex" unicode="&#xca;" horiz-adv-x="1378" 
d="M762 1737l-135 -133h-215v6l250 245h206l254 -245v-6h-227zM213 0v1434h1059v-197h-826v-416h721v-198h-721v-426h846v-197h-1079z" />
    <glyph glyph-name="Edieresis" unicode="&#xcb;" horiz-adv-x="1378" 
d="M815 1741q0 64 36 96.5t103 32.5t103.5 -32.5t36.5 -96.5t-36.5 -97.5t-103.5 -33.5t-103 33.5t-36 97.5zM432 1741q0 63 36.5 96t102.5 33q67 0 103.5 -32.5t36.5 -96.5t-36.5 -97.5t-103.5 -33.5q-65 0 -102 33.5t-37 97.5zM213 0v1434h1059v-197h-826v-416h721v-198
h-721v-426h846v-197h-1079z" />
    <glyph glyph-name="Igrave" unicode="&#xcc;" horiz-adv-x="663" 
d="M213 0v1434h240v-1434h-240zM254 1606l-246 239v13h275l159 -244v-8h-188z" />
    <glyph glyph-name="Iacute" unicode="&#xcd;" horiz-adv-x="663" 
d="M213 0v1434h240v-1434h-240zM657 1843l-245 -239h-187v8l160 243h272v-12z" />
    <glyph glyph-name="Icircumflex" unicode="&#xce;" horiz-adv-x="663" 
d="M213 0v1434h240v-1434h-240zM330 1737l-135 -133h-215v6l249 245h207l254 -245v-6h-227z" />
    <glyph glyph-name="Idieresis" unicode="&#xcf;" horiz-adv-x="663" 
d="M213 0v1434h240v-1434h-240zM383 1741q0 64 36 96.5t103 32.5t103.5 -32.5t36.5 -96.5t-36.5 -97.5t-103.5 -33.5t-103 33.5t-36 97.5zM0 1741q0 63 36.5 96t102.5 33q67 0 103.5 -32.5t36.5 -96.5t-36.5 -97.5t-103.5 -33.5q-65 0 -102 33.5t-37 97.5z" />
    <glyph glyph-name="Eth" unicode="&#xd0;" horiz-adv-x="1591" 
d="M809 0h-559v635h-160v184h160v615h569q323 0 477 -170.5t154 -538.5q0 -365 -160 -545t-481 -180zM489 199h308q98 0 171.5 26.5t129 85.5t84 161.5t28.5 246.5q0 276 -98.5 396t-296.5 120h-326v-416h297v-184h-297v-436z" />
    <glyph glyph-name="Ntilde" unicode="&#xd1;" horiz-adv-x="1622" 
d="M1184 0l-750 1069l6 -1069h-227v1434h213l762 -1088l-6 1088h229v-1434h-227zM991 1843h156q5 -61 -10.5 -106t-45 -69.5t-63.5 -36t-72 -11.5q-51 0 -103.5 20t-96.5 40t-74 20q-59 0 -59 -74h-156q-4 61 11.5 106t44 69.5t61.5 36t71 11.5q53 0 106.5 -20t98 -40
t74.5 -20q34 0 45.5 19.5t11.5 54.5z" />
    <glyph glyph-name="Ograve" unicode="&#xd2;" horiz-adv-x="1609" 
d="M805 -27q-342 0 -502 179.5t-160 566.5q0 385 162.5 563t499.5 178q348 0 505.5 -176.5t157.5 -564.5q0 -385 -163.5 -565.5t-499.5 -180.5zM805 1266q-108 0 -183.5 -26.5t-130.5 -88.5t-81.5 -169.5t-26.5 -264.5q0 -154 26.5 -261t81.5 -170t131 -90.5t183 -27.5
t183 27t131 90t81.5 171t26.5 265q0 153 -26.5 259t-81.5 168.5t-131 90t-183 27.5zM727 1608l-246 239v13h275l159 -244v-8h-188z" />
    <glyph glyph-name="Oacute" unicode="&#xd3;" horiz-adv-x="1609" 
d="M1128 1843l-245 -239h-187v8l160 243h272v-12zM805 -27q-342 0 -502 179.5t-160 566.5q0 385 162.5 563t499.5 178q348 0 505.5 -176.5t157.5 -564.5q0 -385 -163.5 -565.5t-499.5 -180.5zM805 1266q-108 0 -183.5 -26.5t-130.5 -88.5t-81.5 -169.5t-26.5 -264.5
q0 -154 26.5 -261t81.5 -170t131 -90.5t183 -27.5t183 27t131 90t81.5 171t26.5 265q0 153 -26.5 259t-81.5 168.5t-131 90t-183 27.5z" />
    <glyph glyph-name="Ocircumflex" unicode="&#xd4;" horiz-adv-x="1609" 
d="M803 1737l-135 -133h-215v6l249 245h207l254 -245v-6h-227zM805 -27q-342 0 -502 179.5t-160 566.5q0 385 162.5 563t499.5 178q348 0 505.5 -176.5t157.5 -564.5q0 -385 -163.5 -565.5t-499.5 -180.5zM805 1266q-108 0 -183.5 -26.5t-130.5 -88.5t-81.5 -169.5
t-26.5 -264.5q0 -154 26.5 -261t81.5 -170t131 -90.5t183 -27.5t183 27t131 90t81.5 171t26.5 265q0 153 -26.5 259t-81.5 168.5t-131 90t-183 27.5z" />
    <glyph glyph-name="Otilde" unicode="&#xd5;" horiz-adv-x="1609" 
d="M805 -27q-342 0 -502 179.5t-160 566.5q0 385 162.5 563t499.5 178q348 0 505.5 -176.5t157.5 -564.5q0 -385 -163.5 -565.5t-499.5 -180.5zM805 1266q-108 0 -183.5 -26.5t-130.5 -88.5t-81.5 -169.5t-26.5 -264.5q0 -154 26.5 -261t81.5 -170t131 -90.5t183 -27.5
t183 27t131 90t81.5 171t26.5 265q0 153 -26.5 259t-81.5 168.5t-131 90t-183 27.5zM985 1843h156q5 -61 -10.5 -106t-45 -69.5t-63.5 -36t-72 -11.5q-51 0 -103.5 20t-96.5 40t-74 20q-60 0 -60 -74h-155q-4 61 11.5 106t44 69.5t61.5 36t71 11.5q53 0 106.5 -20t98 -40
t74.5 -20q34 0 45.5 19.5t11.5 54.5z" />
    <glyph glyph-name="Odieresis" unicode="&#xd6;" horiz-adv-x="1609" 
d="M856 1741q0 64 36 96.5t103 32.5t103.5 -32.5t36.5 -96.5t-36.5 -97.5t-103.5 -33.5t-103 33.5t-36 97.5zM473 1741q0 63 36.5 96t102.5 33q67 0 103.5 -32.5t36.5 -96.5t-36.5 -97.5t-103.5 -33.5q-65 0 -102 33.5t-37 97.5zM805 -27q-342 0 -502 179.5t-160 566.5
q0 385 162.5 563t499.5 178q348 0 505.5 -176.5t157.5 -564.5q0 -385 -163.5 -565.5t-499.5 -180.5zM805 1266q-108 0 -183.5 -26.5t-130.5 -88.5t-81.5 -169.5t-26.5 -264.5q0 -154 26.5 -261t81.5 -170t131 -90.5t183 -27.5t183 27t131 90t81.5 171t26.5 265
q0 153 -26.5 259t-81.5 168.5t-131 90t-183 27.5z" />
    <glyph glyph-name="multiply" unicode="&#xd7;" horiz-adv-x="1017" 
d="M252 276l-113 113l252 250l-254 258l119 119l256 -256l254 254l111 -111l-254 -254l258 -258l-121 -119l-258 256z" />
    <glyph glyph-name="Oslash" unicode="&#xd8;" horiz-adv-x="1630" 
d="M297 0h-209l182 209q-116 175 -116 510q0 384 162.5 562.5t498.5 178.5q287 0 445 -125l86 99h208l-188 -215q113 -180 113 -500q0 -386 -163 -566t-499 -180q-282 0 -438 121zM1112 1165q-101 101 -297 101q-108 0 -183.5 -26.5t-130.5 -88.5t-81.5 -169.5t-26.5 -264.5
q0 -205 47 -316zM524 260q95 -92 291 -92q107 0 183 27t131 89.5t81.5 170.5t26.5 266q0 198 -43 303z" />
    <glyph glyph-name="Ugrave" unicode="&#xd9;" horiz-adv-x="1554" 
d="M1139 559v875h239v-863q0 -297 -156.5 -447.5t-443.5 -150.5q-291 0 -446.5 150.5t-155.5 447.5v863h240v-875q0 -199 95 -294t267 -95t266.5 95t94.5 294zM705 1608l-246 239v13h274l160 -244v-8h-188z" />
    <glyph glyph-name="Uacute" unicode="&#xda;" horiz-adv-x="1554" 
d="M1104 1843l-246 -239h-186v8l159 243h273v-12zM1139 559v875h239v-863q0 -297 -156.5 -447.5t-443.5 -150.5q-291 0 -446.5 150.5t-155.5 447.5v863h240v-875q0 -199 95 -294t267 -95t266.5 95t94.5 294z" />
    <glyph glyph-name="Ucircumflex" unicode="&#xdb;" horiz-adv-x="1554" 
d="M778 1737l-135 -133h-215v6l250 245h207l254 -245v-6h-228zM1139 559v875h239v-863q0 -297 -156.5 -447.5t-443.5 -150.5q-291 0 -446.5 150.5t-155.5 447.5v863h240v-875q0 -199 95 -294t267 -95t266.5 95t94.5 294z" />
    <glyph glyph-name="Udieresis" unicode="&#xdc;" horiz-adv-x="1554" 
d="M831 1741q0 64 36.5 96.5t103.5 32.5t103 -32.5t36 -96.5t-36 -97.5t-103 -33.5t-103.5 33.5t-36.5 97.5zM449 1741q0 63 36.5 96t102.5 33q67 0 103 -32.5t36 -96.5t-36 -97.5t-103 -33.5q-65 0 -102 33.5t-37 97.5zM1139 559v875h239v-863q0 -297 -156.5 -447.5
t-443.5 -150.5q-291 0 -446.5 150.5t-155.5 447.5v863h240v-875q0 -199 95 -294t267 -95t266.5 95t94.5 294z" />
    <glyph glyph-name="Yacute" unicode="&#xdd;" horiz-adv-x="1304" 
d="M532 559l-514 875h263l378 -672l375 672h252l-514 -879v-555h-240v559zM979 1843l-246 -239h-186v8l160 243h272v-12z" />
    <glyph glyph-name="Thorn" unicode="&#xde;" horiz-adv-x="1366" 
d="M213 0v1434h240v-250h362q233 0 352 -117t119 -328q0 -225 -132 -344t-368 -119h-333v-276h-240zM795 979h-342v-502h342q122 0 188 64t66 190q0 118 -63 183t-191 65z" />
    <glyph glyph-name="germandbls" unicode="&#xdf;" horiz-adv-x="1302" 
d="M713 676h-105v178h99q103 0 152.5 59t49.5 156q0 215 -247 215q-132 0 -200.5 -77t-68.5 -224v-983h-229v995q0 225 130 349t365 124q230 0 352 -103t122 -282q0 -100 -40 -175.5t-110 -121.5q118 -37 178 -131t60 -227q0 -201 -124 -320.5t-333 -119.5q-121 0 -209 35
l33 174q76 -29 137 -29q130 0 200 65.5t70 194.5q0 248 -282 248z" />
    <glyph glyph-name="agrave" unicode="&#xe0;" horiz-adv-x="1179" 
d="M514 139q126 0 202 82.5t77 229.5v10h-226q-127 0 -184 -42t-57 -132q0 -148 188 -148zM453 -25q-156 0 -250 78.5t-94 220.5q0 155 110 246.5t334 91.5h240q-4 133 -65 186.5t-185 53.5q-189 0 -291 -127l-107 135q126 170 426 170q103 0 182 -21.5t140.5 -69t94 -130.5
t32.5 -199v-610h-197l-18 168q-48 -92 -137.5 -142.5t-214.5 -50.5zM489 1174l-245 239v12h274l160 -243v-8h-189z" />
    <glyph glyph-name="aacute" unicode="&#xe1;" horiz-adv-x="1179" 
d="M514 139q126 0 202 82.5t77 229.5v10h-226q-127 0 -184 -42t-57 -132q0 -148 188 -148zM453 -25q-156 0 -250 78.5t-94 220.5q0 155 110 246.5t334 91.5h240q-4 133 -65 186.5t-185 53.5q-189 0 -291 -127l-107 135q126 170 426 170q103 0 182 -21.5t140.5 -69t94 -130.5
t32.5 -199v-610h-197l-18 168q-48 -92 -137.5 -142.5t-214.5 -50.5zM891 1413l-246 -239h-186v8l159 243h273v-12z" />
    <glyph glyph-name="acircumflex" unicode="&#xe2;" horiz-adv-x="1179" 
d="M514 139q126 0 202 82.5t77 229.5v10h-226q-127 0 -184 -42t-57 -132q0 -148 188 -148zM453 -25q-156 0 -250 78.5t-94 220.5q0 155 110 246.5t334 91.5h240q-4 133 -65 186.5t-185 53.5q-189 0 -291 -127l-107 135q126 170 426 170q103 0 182 -21.5t140.5 -69t94 -130.5
t32.5 -199v-610h-197l-18 168q-48 -92 -137.5 -142.5t-214.5 -50.5zM565 1307l-135 -133h-215v6l250 245h207l254 -245v-6h-228z" />
    <glyph glyph-name="atilde" unicode="&#xe3;" horiz-adv-x="1179" 
d="M514 139q126 0 202 82.5t77 229.5v10h-226q-127 0 -184 -42t-57 -132q0 -148 188 -148zM453 -25q-156 0 -250 78.5t-94 220.5q0 155 110 246.5t334 91.5h240q-4 133 -65 186.5t-185 53.5q-189 0 -291 -127l-107 135q126 170 426 170q103 0 182 -21.5t140.5 -69t94 -130.5
t32.5 -199v-610h-197l-18 168q-48 -92 -137.5 -142.5t-214.5 -50.5zM750 1413h155q5 -61 -10 -106t-44.5 -69.5t-63.5 -36t-72 -11.5q-51 0 -103.5 20t-97 40t-74.5 20q-59 0 -59 -74h-156q-4 61 11.5 106t44.5 69.5t62 36t71 11.5q53 0 106 -20t97.5 -40t74.5 -20
q58 0 58 74z" />
    <glyph glyph-name="adieresis" unicode="&#xe4;" horiz-adv-x="1179" 
d="M514 139q126 0 202 82.5t77 229.5v10h-226q-127 0 -184 -42t-57 -132q0 -148 188 -148zM453 -25q-156 0 -250 78.5t-94 220.5q0 155 110 246.5t334 91.5h240q-4 133 -65 186.5t-185 53.5q-189 0 -291 -127l-107 135q126 170 426 170q103 0 182 -21.5t140.5 -69t94 -130.5
t32.5 -199v-610h-197l-18 168q-48 -92 -137.5 -142.5t-214.5 -50.5zM616 1311q0 64 36.5 96.5t103.5 32.5t103 -32.5t36 -96.5t-36 -97.5t-103 -33.5t-103.5 33.5t-36.5 97.5zM233 1311q0 63 37 96t103 33q67 0 103 -32.5t36 -96.5t-36 -97.5t-103 -33.5q-66 0 -103 33.5
t-37 97.5z" />
    <glyph glyph-name="aring" unicode="&#xe5;" horiz-adv-x="1179" 
d="M514 139q126 0 202 82.5t77 229.5v10h-226q-127 0 -184 -42t-57 -132q0 -148 188 -148zM453 -25q-156 0 -250 78.5t-94 220.5q0 155 110 246.5t334 91.5h240q-4 133 -65 186.5t-185 53.5q-189 0 -291 -127l-107 135q126 170 426 170q103 0 182 -21.5t140.5 -69t94 -130.5
t32.5 -199v-610h-197l-18 168q-48 -92 -137.5 -142.5t-214.5 -50.5zM354 1321q0 92 59.5 146.5t153.5 54.5q92 0 150.5 -54.5t58.5 -146.5t-58.5 -145.5t-152.5 -53.5q-93 0 -152 53.5t-59 145.5zM469 1321q0 -45 27 -73.5t69 -28.5t70.5 29t28.5 73q0 45 -28 73.5t-69 28.5
q-44 0 -71 -28t-27 -74z" />
    <glyph glyph-name="ae" unicode="&#xe6;" horiz-adv-x="1828" 
d="M461 -25q-159 0 -255.5 78.5t-96.5 220.5q0 152 110 241t334 89h240q-3 139 -63.5 193.5t-186.5 54.5q-192 0 -291 -127l-107 135q126 170 424 170q256 0 353 -156q122 156 366 156q112 0 198 -37t139 -103t79.5 -152t26.5 -189q0 -57 -7 -98h-708q6 -162 76 -234
t206 -72q103 0 167 34.5t104 123.5l155 -88q-120 -242 -438 -242q-292 0 -405 215q-56 -101 -162 -157t-258 -56zM1280 858q-235 0 -260 -254h491q-7 134 -64.5 194t-166.5 60zM514 139q125 0 202 83.5t77 228.5h-226q-127 0 -184 -41t-57 -131q0 -140 188 -140z" />
    <glyph glyph-name="ccedilla" unicode="&#xe7;" horiz-adv-x="1095" 
d="M584 -496q-181 0 -260 129l96 93q32 -50 66.5 -73.5t88.5 -23.5q48 0 77.5 20t29.5 58t-29 60t-80 22q-15 0 -47 -4l-39 31l45 159q-428 32 -428 527q0 528 498 528q299 0 420 -223l-162 -111q-74 152 -256 152q-143 0 -207.5 -78t-64.5 -270q0 -184 65 -265t205 -81
q100 0 163 36.5t103 124.5l166 -92q-102 -222 -362 -246l-29 -94h4q80 -2 135.5 -49t55.5 -129q0 -96 -73 -148.5t-181 -52.5z" />
    <glyph glyph-name="egrave" unicode="&#xe8;" horiz-adv-x="1136" 
d="M596 -27q-236 0 -364 131.5t-128 395.5q0 256 127 393t365 137q114 0 200.5 -37t139.5 -104.5t79.5 -155.5t26.5 -196q0 -45 -6 -101h-708q9 -154 78 -222.5t202 -68.5q103 0 167.5 34.5t105.5 123.5l153 -88q-115 -242 -438 -242zM590 858q-118 0 -184 -64t-76 -204h493
q-12 268 -233 268zM508 1174l-246 239v12h275l159 -243v-8h-188z" />
    <glyph glyph-name="eacute" unicode="&#xe9;" horiz-adv-x="1136" 
d="M909 1413l-245 -239h-187v8l160 243h272v-12zM596 -27q-236 0 -364 131.5t-128 395.5q0 256 127 393t365 137q114 0 200.5 -37t139.5 -104.5t79.5 -155.5t26.5 -196q0 -45 -6 -101h-708q9 -154 78 -222.5t202 -68.5q103 0 167.5 34.5t105.5 123.5l153 -88
q-115 -242 -438 -242zM590 858q-118 0 -184 -64t-76 -204h493q-12 268 -233 268z" />
    <glyph glyph-name="ecircumflex" unicode="&#xea;" horiz-adv-x="1136" 
d="M584 1307l-135 -133h-216v6l250 245h207l254 -245v-6h-227zM596 -27q-236 0 -364 131.5t-128 395.5q0 256 127 393t365 137q114 0 200.5 -37t139.5 -104.5t79.5 -155.5t26.5 -196q0 -45 -6 -101h-708q9 -154 78 -222.5t202 -68.5q103 0 167.5 34.5t105.5 123.5l153 -88
q-115 -242 -438 -242zM590 858q-118 0 -184 -64t-76 -204h493q-12 268 -233 268z" />
    <glyph glyph-name="edieresis" unicode="&#xeb;" horiz-adv-x="1136" 
d="M633 1311q0 64 36 96.5t103 32.5t103 -32.5t36 -96.5t-36 -97.5t-103 -33.5t-103 33.5t-36 97.5zM250 1311q0 63 36.5 96t102.5 33q67 0 103 -32.5t36 -96.5t-36 -97.5t-103 -33.5q-65 0 -102 33.5t-37 97.5zM596 -27q-236 0 -364 131.5t-128 395.5q0 256 127 393
t365 137q114 0 200.5 -37t139.5 -104.5t79.5 -155.5t26.5 -196q0 -45 -6 -101h-708q9 -154 78 -222.5t202 -68.5q103 0 167.5 34.5t105.5 123.5l153 -88q-115 -242 -438 -242zM590 858q-118 0 -184 -64t-76 -204h493q-12 268 -233 268z" />
    <glyph glyph-name="igrave" unicode="&#xec;" horiz-adv-x="581" 
d="M176 1006h232v-1006h-232v1006zM215 1174l-246 239v12h275l159 -243v-8h-188z" />
    <glyph glyph-name="iacute" unicode="&#xed;" horiz-adv-x="581" 
d="M616 1413l-245 -239h-187v8l160 243h272v-12zM176 1006h232v-1006h-232v1006z" />
    <glyph glyph-name="icircumflex" unicode="&#xee;" horiz-adv-x="581" 
d="M289 1307l-135 -133h-215v6l249 245h207l254 -245v-6h-227zM176 1006h232v-1006h-232v1006z" />
    <glyph glyph-name="idieresis" unicode="&#xef;" horiz-adv-x="581" 
d="M342 1311q0 64 36 96.5t103 32.5t103.5 -32.5t36.5 -96.5t-36.5 -97.5t-103.5 -33.5t-103 33.5t-36 97.5zM-41 1311q0 63 36.5 96t102.5 33q67 0 103.5 -32.5t36.5 -96.5t-36.5 -97.5t-103.5 -33.5q-65 0 -102 33.5t-37 97.5zM176 1006h232v-1006h-232v1006z" />
    <glyph glyph-name="eth" unicode="&#xf0;" horiz-adv-x="1222" 
d="M983 1483l70 -101l-156 -98q215 -246 215 -741v-35q0 -274 -125.5 -404.5t-376.5 -130.5q-250 0 -378 128t-128 395q0 264 128 392t366 128q162 0 260 -88q-38 145 -129 250l-166 -107l-67 100l139 91q-104 73 -252 110l63 152q219 -44 361 -156zM887 494
q0 185 -66.5 266.5t-210.5 81.5q-146 0 -213 -81t-67 -267q0 -183 68 -263.5t212 -80.5q143 0 210 80.5t67 263.5z" />
    <glyph glyph-name="ntilde" unicode="&#xf1;" horiz-adv-x="1302" 
d="M172 1006h197l22 -187q55 107 154 159t225 52q373 0 373 -401v-629h-232v563q0 143 -55 205.5t-166 62.5q-130 0 -207 -86.5t-80 -246.5v-498h-231v1006zM870 1413h156q5 -61 -10 -106t-44.5 -69.5t-63.5 -36t-72 -11.5q-51 0 -103.5 20t-97 40t-74.5 20q-59 0 -59 -74
h-156q-4 61 11.5 106t44.5 69.5t62 36t71 11.5q53 0 106 -20t97.5 -40t74.5 -20q34 0 45.5 19.5t11.5 54.5z" />
    <glyph glyph-name="ograve" unicode="&#xf2;" horiz-adv-x="1214" 
d="M104 504q0 526 504 526q255 0 378.5 -127t123.5 -399q0 -531 -502 -531q-250 0 -377 130t-127 401zM885 502q0 189 -66 269.5t-211 80.5q-148 0 -213 -80t-65 -270q0 -188 66.5 -269t211.5 -81q144 0 210.5 81.5t66.5 268.5zM532 1174l-245 239v12h274l160 -243v-8h-189z
" />
    <glyph glyph-name="oacute" unicode="&#xf3;" horiz-adv-x="1214" 
d="M934 1413l-246 -239h-186v8l160 243h272v-12zM104 504q0 526 504 526q255 0 378.5 -127t123.5 -399q0 -531 -502 -531q-250 0 -377 130t-127 401zM885 502q0 189 -66 269.5t-211 80.5q-148 0 -213 -80t-65 -270q0 -188 66.5 -269t211.5 -81q144 0 210.5 81.5t66.5 268.5z
" />
    <glyph glyph-name="ocircumflex" unicode="&#xf4;" horiz-adv-x="1214" 
d="M604 1307l-135 -133h-215v6l250 245h207l254 -245v-6h-228zM104 504q0 526 504 526q255 0 378.5 -127t123.5 -399q0 -531 -502 -531q-250 0 -377 130t-127 401zM885 502q0 189 -66 269.5t-211 80.5q-148 0 -213 -80t-65 -270q0 -188 66.5 -269t211.5 -81
q144 0 210.5 81.5t66.5 268.5z" />
    <glyph glyph-name="otilde" unicode="&#xf5;" horiz-adv-x="1214" 
d="M104 504q0 526 504 526q255 0 378.5 -127t123.5 -399q0 -531 -502 -531q-250 0 -377 130t-127 401zM885 502q0 189 -66 269.5t-211 80.5q-148 0 -213 -80t-65 -270q0 -188 66.5 -269t211.5 -81q144 0 210.5 81.5t66.5 268.5zM788 1413h156q5 -61 -10 -106t-44.5 -69.5
t-63.5 -36t-72 -11.5q-51 0 -103.5 20t-97 40t-74.5 20q-59 0 -59 -74h-156q-4 61 11.5 106t44.5 69.5t62 36t71 11.5q53 0 106 -20t97.5 -40t74.5 -20q34 0 45.5 19.5t11.5 54.5z" />
    <glyph glyph-name="odieresis" unicode="&#xf6;" horiz-adv-x="1214" 
d="M657 1311q0 64 36.5 96.5t103.5 32.5t103 -32.5t36 -96.5t-36 -97.5t-103 -33.5t-103.5 33.5t-36.5 97.5zM274 1311q0 63 37 96t103 33q67 0 103 -32.5t36 -96.5t-36 -97.5t-103 -33.5q-66 0 -103 33.5t-37 97.5zM104 504q0 526 504 526q255 0 378.5 -127t123.5 -399
q0 -531 -502 -531q-250 0 -377 130t-127 401zM885 502q0 189 -66 269.5t-211 80.5q-148 0 -213 -80t-65 -270q0 -188 66.5 -269t211.5 -81q144 0 210.5 81.5t66.5 268.5z" />
    <glyph glyph-name="divide" unicode="&#xf7;" horiz-adv-x="1038" 
d="M385 983q0 61 35.5 95t97.5 34t98.5 -34t36.5 -95q0 -60 -36.5 -94.5t-98.5 -34.5t-97.5 34.5t-35.5 94.5zM936 715v-162h-834v162h834zM385 291q0 62 35.5 95.5t97.5 33.5q63 0 99 -33.5t36 -95.5q0 -60 -36.5 -94.5t-98.5 -34.5t-97.5 34.5t-35.5 94.5z" />
    <glyph glyph-name="oslash" unicode="&#xf8;" horiz-adv-x="1234" 
d="M1204 1006l-162 -168q78 -125 78 -334q0 -531 -502 -531q-202 0 -327 93l-64 -66h-188l158 164q-82 122 -82 340q0 526 503 526q210 0 334 -92l66 68h186zM358 328l453 467q-64 61 -193 61q-149 0 -214.5 -81t-65.5 -273q0 -99 20 -174zM897 502q0 100 -18 168l-451 -465
q64 -58 190 -58q145 0 212 83t67 272z" />
    <glyph glyph-name="ugrave" unicode="&#xf9;" horiz-adv-x="1294" 
d="M928 0l-19 174q-55 -100 -151 -150.5t-211 -50.5q-194 0 -290.5 107.5t-96.5 302.5v623h231v-574q0 -270 223 -270q126 0 200 85.5t77 244.5v514h231v-1006h-194zM563 1174l-246 239v12h275l160 -243v-8h-189z" />
    <glyph glyph-name="uacute" unicode="&#xfa;" horiz-adv-x="1294" 
d="M965 1413l-246 -239h-187v8l160 243h273v-12zM928 0l-19 174q-55 -100 -151 -150.5t-211 -50.5q-194 0 -290.5 107.5t-96.5 302.5v623h231v-574q0 -270 223 -270q126 0 200 85.5t77 244.5v514h231v-1006h-194z" />
    <glyph glyph-name="ucircumflex" unicode="&#xfb;" horiz-adv-x="1294" 
d="M637 1307l-135 -133h-215v6l250 245h206l254 -245v-6h-227zM928 0l-19 174q-55 -100 -151 -150.5t-211 -50.5q-194 0 -290.5 107.5t-96.5 302.5v623h231v-574q0 -270 223 -270q126 0 200 85.5t77 244.5v514h231v-1006h-194z" />
    <glyph glyph-name="udieresis" unicode="&#xfc;" horiz-adv-x="1294" 
d="M690 1311q0 64 36 96.5t103 32.5t103.5 -32.5t36.5 -96.5t-36.5 -97.5t-103.5 -33.5t-103 33.5t-36 97.5zM307 1311q0 63 36.5 96t102.5 33q67 0 103.5 -32.5t36.5 -96.5t-36.5 -97.5t-103.5 -33.5q-65 0 -102 33.5t-37 97.5zM928 0l-19 174q-55 -100 -151 -150.5
t-211 -50.5q-194 0 -290.5 107.5t-96.5 302.5v623h231v-574q0 -270 223 -270q126 0 200 85.5t77 244.5v514h231v-1006h-194z" />
    <glyph glyph-name="yacute" unicode="&#xfd;" horiz-adv-x="1075" 
d="M383 -115l35 103l-408 1018h242l287 -775l284 775h240l-479 -1196q-57 -140 -151 -197t-230 -57q-97 0 -183 30l31 178q76 -26 137 -26q141 0 195 147zM862 1413l-246 -239h-186v8l160 243h272v-12z" />
    <glyph glyph-name="thorn" unicode="&#xfe;" horiz-adv-x="1273" 
d="M401 500q0 -176 73 -262t198 -86q135 0 201.5 86t66.5 264q0 180 -65.5 265t-196.5 85q-127 0 -202 -86.5t-75 -265.5zM403 1434v-586q50 90 140 136t207 46q203 0 310 -133.5t107 -386.5q0 -257 -116 -397t-336 -140q-212 0 -312 152v-508h-231v1817h231z" />
    <glyph glyph-name="ydieresis" unicode="&#xff;" horiz-adv-x="1075" 
d="M383 -115l35 103l-408 1018h242l287 -775l284 775h240l-479 -1196q-57 -140 -151 -197t-230 -57q-97 0 -183 30l31 178q76 -26 137 -26q141 0 195 147zM588 1311q0 64 36 96.5t103 32.5t103 -32.5t36 -96.5t-36 -97.5t-103 -33.5t-103 33.5t-36 97.5zM205 1311
q0 63 36.5 96t102.5 33q67 0 103 -32.5t36 -96.5t-36 -97.5t-103 -33.5q-65 0 -102 33.5t-37 97.5z" />
    <glyph glyph-name="Amacron" unicode="&#x100;" horiz-adv-x="1325" 
d="M655 1208l-245 -749h495zM1057 0l-90 268h-619l-88 -268h-242l496 1434h295l496 -1434h-248zM942 1794v-141h-547v141h547z" />
    <glyph glyph-name="amacron" unicode="&#x101;" horiz-adv-x="1179" 
d="M514 139q126 0 202 82.5t77 229.5v10h-226q-127 0 -184 -42t-57 -132q0 -148 188 -148zM453 -25q-156 0 -250 78.5t-94 220.5q0 155 110 246.5t334 91.5h240q-4 133 -65 186.5t-185 53.5q-189 0 -291 -127l-107 135q126 170 426 170q103 0 182 -21.5t140.5 -69t94 -130.5
t32.5 -199v-610h-197l-18 168q-48 -92 -137.5 -142.5t-214.5 -50.5zM840 1364v-141h-547v141h547z" />
    <glyph glyph-name="Abreve" unicode="&#x102;" horiz-adv-x="1325" 
d="M655 1208l-245 -749h495zM1057 0l-90 268h-619l-88 -268h-242l496 1434h295l496 -1434h-248zM821 1855h160q0 -145 -78.5 -204.5t-234.5 -59.5q-157 0 -235.5 59.5t-78.5 204.5h158q0 -75 37 -105t117 -30q81 0 118 30t37 105z" />
    <glyph glyph-name="abreve" unicode="&#x103;" horiz-adv-x="1179" 
d="M514 139q126 0 202 82.5t77 229.5v10h-226q-127 0 -184 -42t-57 -132q0 -148 188 -148zM453 -25q-156 0 -250 78.5t-94 220.5q0 155 110 246.5t334 91.5h240q-4 133 -65 186.5t-185 53.5q-189 0 -291 -127l-107 135q126 170 426 170q103 0 182 -21.5t140.5 -69t94 -130.5
t32.5 -199v-610h-197l-18 168q-48 -92 -137.5 -142.5t-214.5 -50.5zM719 1425h160q0 -145 -79 -204.5t-235 -59.5q-157 0 -235 59t-78 205h158q0 -75 36.5 -105t116.5 -30q81 0 118.5 30t37.5 105z" />
    <glyph glyph-name="Aogonek" unicode="&#x104;" horiz-adv-x="1325" 
d="M1038 43l-71 225h-619l-88 -268h-242l496 1434h295l496 -1434h-88q-90 -7 -142.5 -66t-52.5 -133q0 -102 123 -102q80 0 137 35l33 -131q-79 -49 -187 -49q-52 0 -96.5 11t-82.5 35.5t-59.5 69.5t-21.5 107q0 93 47.5 161t122.5 105zM655 1208l-245 -749h495z" />
    <glyph glyph-name="aogonek" unicode="&#x105;" horiz-adv-x="1179" 
d="M1108 -397q-82 -49 -188 -49q-52 0 -96 11t-81.5 35.5t-59 69.5t-21.5 107q0 88 43 155.5t114 106.5l-14 129q-48 -92 -137.5 -142.5t-214.5 -50.5q-156 0 -250 78.5t-94 220.5q0 155 110 246.5t334 91.5h240q-4 133 -65 186.5t-185 53.5q-189 0 -291 -127l-107 135
q126 170 426 170q103 0 182 -21.5t140.5 -69t94 -130.5t32.5 -199v-610h-12q-91 -7 -142 -65.5t-51 -133.5q0 -102 123 -102q78 0 135 35zM514 139q126 0 202 82.5t77 229.5v10h-226q-127 0 -184 -42t-57 -132q0 -148 188 -148z" />
    <glyph glyph-name="Cacute" unicode="&#x106;" horiz-adv-x="1439" 
d="M1133 1845l-246 -239h-187v8l160 244h273v-13zM803 -27q-335 0 -497.5 178.5t-162.5 567.5q0 390 163.5 565.5t500.5 175.5q205 0 337 -68.5t204 -222.5l-191 -112q-54 115 -135.5 161t-214.5 46q-106 0 -181 -25.5t-131.5 -86t-84 -168t-27.5 -265.5q0 -126 18.5 -221
t52.5 -158t87.5 -102t117.5 -55.5t148 -16.5q133 0 225 53t152 174l186 -108q-84 -161 -223 -236.5t-344 -75.5z" />
    <glyph glyph-name="cacute" unicode="&#x107;" horiz-adv-x="1095" 
d="M926 1413l-246 -239h-186v8l159 243h273v-12zM596 -27q-492 0 -492 529q0 528 498 528q299 0 420 -223l-162 -111q-74 152 -256 152q-143 0 -207.5 -78t-64.5 -270q0 -184 65 -265t205 -81q100 0 163 36.5t103 124.5l166 -92q-116 -250 -438 -250z" />
    <glyph glyph-name="Ccircumflex" unicode="&#x108;" horiz-adv-x="1439" 
d="M809 1739l-135 -133h-215v6l250 246h206l254 -246v-6h-227zM803 -27q-335 0 -497.5 178.5t-162.5 567.5q0 390 163.5 565.5t500.5 175.5q205 0 337 -68.5t204 -222.5l-191 -112q-54 115 -135.5 161t-214.5 46q-106 0 -181 -25.5t-131.5 -86t-84 -168t-27.5 -265.5
q0 -126 18.5 -221t52.5 -158t87.5 -102t117.5 -55.5t148 -16.5q133 0 225 53t152 174l186 -108q-84 -161 -223 -236.5t-344 -75.5z" />
    <glyph glyph-name="ccircumflex" unicode="&#x109;" horiz-adv-x="1095" 
d="M600 1307l-135 -133h-215v6l250 245h207l254 -245v-6h-228zM596 -27q-492 0 -492 529q0 528 498 528q299 0 420 -223l-162 -111q-74 152 -256 152q-143 0 -207.5 -78t-64.5 -270q0 -184 65 -265t205 -81q100 0 163 36.5t103 124.5l166 -92q-116 -250 -438 -250z" />
    <glyph glyph-name="Cdotaccent" unicode="&#x10a;" horiz-adv-x="1439" 
d="M803 -27q-335 0 -497.5 178.5t-162.5 567.5q0 390 163.5 565.5t500.5 175.5q205 0 337 -68.5t204 -222.5l-191 -112q-54 115 -135.5 161t-214.5 46q-106 0 -181 -25.5t-131.5 -86t-84 -168t-27.5 -265.5q0 -126 18.5 -221t52.5 -158t87.5 -102t117.5 -55.5t148 -16.5
q133 0 225 53t152 174l186 -108q-84 -161 -223 -236.5t-344 -75.5zM666 1743q0 63 38 96t107 33q67 0 104 -32.5t37 -96.5t-37 -97.5t-104 -33.5q-68 0 -106.5 33.5t-38.5 97.5z" />
    <glyph glyph-name="cdotaccent" unicode="&#x10b;" horiz-adv-x="1095" 
d="M596 -27q-492 0 -492 529q0 528 498 528q299 0 420 -223l-162 -111q-74 152 -256 152q-143 0 -207.5 -78t-64.5 -270q0 -184 65 -265t205 -81q100 0 163 36.5t103 124.5l166 -92q-116 -250 -438 -250zM461 1311q0 63 38 96t107 33q67 0 104.5 -33t37.5 -96
q0 -64 -37.5 -97.5t-104.5 -33.5q-68 0 -106.5 33.5t-38.5 97.5z" />
    <glyph glyph-name="Ccaron" unicode="&#x10c;" horiz-adv-x="1439" 
d="M811 1729l139 129h215v-5l-254 -247h-206l-250 247v5h223zM803 -27q-335 0 -497.5 178.5t-162.5 567.5q0 390 163.5 565.5t500.5 175.5q205 0 337 -68.5t204 -222.5l-191 -112q-54 115 -135.5 161t-214.5 46q-106 0 -181 -25.5t-131.5 -86t-84 -168t-27.5 -265.5
q0 -126 18.5 -221t52.5 -158t87.5 -102t117.5 -55.5t148 -16.5q133 0 225 53t152 174l186 -108q-84 -161 -223 -236.5t-344 -75.5z" />
    <glyph glyph-name="ccaron" unicode="&#x10d;" horiz-adv-x="1095" 
d="M604 1296l139 129h215v-4l-253 -247h-207l-250 247v4h223zM596 -27q-492 0 -492 529q0 528 498 528q299 0 420 -223l-162 -111q-74 152 -256 152q-143 0 -207.5 -78t-64.5 -270q0 -184 65 -265t205 -81q100 0 163 36.5t103 124.5l166 -92q-116 -250 -438 -250z" />
    <glyph glyph-name="Dcaron" unicode="&#x10e;" horiz-adv-x="1552" 
d="M801 1726l139 129h215v-4l-254 -247h-207l-250 247v4h224zM772 0h-559v1434h567q324 0 478.5 -170.5t154.5 -538.5q0 -365 -160 -545t-481 -180zM453 199h305q99 0 173 26.5t130 85.5t84.5 161.5t28.5 246.5q0 275 -99.5 395.5t-296.5 120.5h-325v-1036z" />
    <glyph glyph-name="dcaron" unicode="&#x10f;" horiz-adv-x="1423" 
d="M1415 952h-153l14 482h205zM870 504q0 176 -75 262t-201 86q-133 0 -197.5 -85t-64.5 -267q0 -177 65 -261.5t197 -84.5q127 0 201.5 86.5t74.5 263.5zM895 0l-12 172q-100 -199 -355 -199q-202 0 -313 136t-111 391q0 257 117 393.5t328 136.5q212 0 319 -156v560h232
v-1434h-205z" />
    <glyph glyph-name="Dcroat" unicode="&#x110;" horiz-adv-x="1591" 
d="M809 0h-559v635h-160v184h160v615h569q323 0 477 -170.5t154 -538.5q0 -365 -160 -545t-481 -180zM489 199h308q98 0 171.5 26.5t129 85.5t84 161.5t28.5 246.5q0 276 -98.5 396t-296.5 120h-326v-416h297v-184h-297v-436z" />
    <glyph glyph-name="dcroat" unicode="&#x111;" horiz-adv-x="1302" 
d="M870 504q0 175 -74.5 261.5t-199.5 86.5q-133 0 -198.5 -86.5t-65.5 -265.5q0 -176 65.5 -261t196.5 -85q126 0 201 87t75 263zM1249 1270v-137h-149v-1133h-205l-12 174q-50 -97 -140.5 -149t-214.5 -52q-202 0 -313 135.5t-111 389.5q0 257 116.5 392.5t328.5 135.5
q216 0 319 -154v261h-303v137h303v164h232v-164h149z" />
    <glyph glyph-name="Emacron" unicode="&#x112;" horiz-adv-x="1378" 
d="M213 0v1434h1059v-197h-826v-416h721v-198h-721v-426h846v-197h-1079zM1036 1794v-141h-547v141h547z" />
    <glyph glyph-name="emacron" unicode="&#x113;" horiz-adv-x="1136" 
d="M596 -27q-236 0 -364 131.5t-128 395.5q0 256 127 393t365 137q114 0 200.5 -37t139.5 -104.5t79.5 -155.5t26.5 -196q0 -45 -6 -101h-708q9 -154 78 -222.5t202 -68.5q103 0 167.5 34.5t105.5 123.5l153 -88q-115 -242 -438 -242zM590 858q-118 0 -184 -64t-76 -204h493
q-12 268 -233 268zM858 1364v-141h-547v141h547z" />
    <glyph glyph-name="Ebreve" unicode="&#x114;" horiz-adv-x="1378" 
d="M213 0v1434h1059v-197h-826v-416h721v-198h-721v-426h846v-197h-1079zM918 1855h159q0 -145 -78.5 -204.5t-234.5 -59.5q-157 0 -235 59t-78 205h157q0 -75 37 -105t117 -30q81 0 118.5 30t37.5 105z" />
    <glyph glyph-name="ebreve" unicode="&#x115;" horiz-adv-x="1136" 
d="M596 -27q-236 0 -364 131.5t-128 395.5q0 256 127 393t365 137q114 0 200.5 -37t139.5 -104.5t79.5 -155.5t26.5 -196q0 -45 -6 -101h-708q9 -154 78 -222.5t202 -68.5q103 0 167.5 34.5t105.5 123.5l153 -88q-115 -242 -438 -242zM590 858q-118 0 -184 -64t-76 -204h493
q-12 268 -233 268zM737 1425h160q0 -145 -78.5 -204.5t-234.5 -59.5q-157 0 -235.5 59.5t-78.5 204.5h158q0 -75 37 -105t117 -30q81 0 118 30t37 105z" />
    <glyph glyph-name="Edotaccent" unicode="&#x116;" horiz-adv-x="1378" 
d="M213 0v1434h1059v-197h-826v-416h721v-198h-721v-426h846v-197h-1079zM623 1741q0 63 38 96t107 33q67 0 104 -32.5t37 -96.5t-37 -97.5t-104 -33.5q-68 0 -106.5 33.5t-38.5 97.5z" />
    <glyph glyph-name="edotaccent" unicode="&#x117;" horiz-adv-x="1136" 
d="M596 -27q-236 0 -364 131.5t-128 395.5q0 256 127 393t365 137q114 0 200.5 -37t139.5 -104.5t79.5 -155.5t26.5 -196q0 -45 -6 -101h-708q9 -154 78 -222.5t202 -68.5q103 0 167.5 34.5t105.5 123.5l153 -88q-115 -242 -438 -242zM590 858q-118 0 -184 -64t-76 -204h493
q-12 268 -233 268zM442 1311q0 63 38.5 96t107.5 33q67 0 104 -32.5t37 -96.5t-37 -97.5t-104 -33.5q-69 0 -107.5 33.5t-38.5 97.5z" />
    <glyph glyph-name="Eogonek" unicode="&#x118;" horiz-adv-x="1378" 
d="M213 0v1434h1059v-195h-826v-418h721v-198h-721v-428h846v-195q-104 -7 -159.5 -65.5t-55.5 -133.5q0 -102 123 -102q80 0 137 35l33 -131q-79 -49 -186 -49q-52 0 -96 11t-81.5 35.5t-59 69.5t-21.5 107q0 141 102 223h-815z" />
    <glyph glyph-name="eogonek" unicode="&#x119;" horiz-adv-x="1136" 
d="M463 -223q0 117 76 200q-210 14 -322.5 144t-112.5 379q0 256 127 393t365 137q114 0 200.5 -37t139.5 -104.5t79.5 -155.5t26.5 -196q0 -45 -6 -101h-710q10 -155 80 -223t202 -68q103 0 167.5 34.5t105.5 123.5l153 -88q-83 -173 -274 -221q-66 -21 -104 -74.5
t-38 -116.5q0 -57 31 -80.5t92 -23.5q79 0 136 35l32 -131q-79 -49 -186 -49q-52 0 -96.5 11t-82.5 35.5t-59.5 69.5t-21.5 107zM590 858q-119 0 -184.5 -63.5t-77.5 -204.5h495q-11 268 -233 268z" />
    <glyph glyph-name="Ecaron" unicode="&#x11a;" horiz-adv-x="1378" 
d="M766 1726l139 129h215v-4l-254 -247h-207l-249 247v4h223zM213 0v1434h1059v-197h-826v-416h721v-198h-721v-426h846v-197h-1079z" />
    <glyph glyph-name="ecaron" unicode="&#x11b;" horiz-adv-x="1136" 
d="M588 1296l139 129h215v-4l-254 -247h-207l-250 247v4h224zM596 -27q-236 0 -364 131.5t-128 395.5q0 256 127 393t365 137q114 0 200.5 -37t139.5 -104.5t79.5 -155.5t26.5 -196q0 -45 -6 -101h-708q9 -154 78 -222.5t202 -68.5q103 0 167.5 34.5t105.5 123.5l153 -88
q-115 -242 -438 -242zM590 858q-118 0 -184 -64t-76 -204h493q-12 268 -233 268z" />
    <glyph glyph-name="Gcircumflex" unicode="&#x11c;" horiz-adv-x="1527" 
d="M803 1737l-135 -133h-215v6l249 245h207l254 -245v-6h-227zM766 -27q-303 0 -463 185t-160 561q0 389 164 565t500 176q202 0 332.5 -66.5t201.5 -211.5l-190 -115q-55 105 -136 151t-208 46q-107 0 -182 -25t-131.5 -85t-83.5 -168t-27 -267q0 -157 27.5 -265t83 -171
t130.5 -90t179 -27q53 0 102 10.5t96.5 36t82.5 65t58 101.5t25 141v39h-356v182h575v-741h-184l-14 193q-59 -103 -170.5 -161.5t-251.5 -58.5z" />
    <glyph glyph-name="gcircumflex" unicode="&#x11d;" horiz-adv-x="1267" 
d="M580 1307l-136 -133h-215v6l250 245h207l254 -245v-6h-227zM866 522q0 167 -75.5 249.5t-200.5 82.5q-131 0 -195.5 -81.5t-64.5 -252.5q0 -172 65 -254t195 -82q128 0 202 83.5t74 254.5zM1096 1006v-965q0 -124 -39 -218.5t-110 -152.5t-166 -87t-212 -29
q-331 0 -444 231l147 115q48 -91 119 -130.5t172 -39.5q142 0 222.5 70.5t80.5 219.5v168q-99 -182 -338 -182q-200 0 -312 131t-112 381t113 381t320 131q247 0 346 -182l20 158h193z" />
    <glyph glyph-name="Gbreve" unicode="&#x11e;" horiz-adv-x="1527" 
d="M766 -27q-303 0 -463 185t-160 561q0 389 164 565t500 176q202 0 332.5 -66.5t201.5 -211.5l-190 -115q-55 105 -136 151t-208 46q-107 0 -182 -25t-131.5 -85t-83.5 -168t-27 -267q0 -157 27.5 -265t83 -171t130.5 -90t179 -27q53 0 102 10.5t96.5 36t82.5 65t58 101.5
t25 141v39h-356v182h575v-741h-184l-14 193q-59 -103 -170.5 -161.5t-251.5 -58.5zM954 1855h160q0 -145 -78.5 -204.5t-234.5 -59.5q-157 0 -235.5 59.5t-78.5 204.5h158q0 -75 37 -105t117 -30q81 0 118 30t37 105z" />
    <glyph glyph-name="gbreve" unicode="&#x11f;" horiz-adv-x="1267" 
d="M866 522q0 167 -75.5 249.5t-200.5 82.5q-131 0 -195.5 -81.5t-64.5 -252.5q0 -172 65 -254t195 -82q128 0 202 83.5t74 254.5zM1096 1006v-965q0 -124 -39 -218.5t-110 -152.5t-166 -87t-212 -29q-331 0 -444 231l147 115q48 -91 119 -130.5t172 -39.5q142 0 222.5 70.5
t80.5 219.5v168q-99 -182 -338 -182q-200 0 -312 131t-112 381t113 381t320 131q247 0 346 -182l20 158h193zM731 1425h160q0 -145 -78.5 -204.5t-234.5 -59.5q-157 0 -235.5 59.5t-78.5 204.5h158q0 -75 36.5 -105t116.5 -30q81 0 118.5 30t37.5 105z" />
    <glyph glyph-name="Gdotaccent" unicode="&#x120;" horiz-adv-x="1527" 
d="M766 -27q-303 0 -463 185t-160 561q0 389 164 565t500 176q202 0 332.5 -66.5t201.5 -211.5l-190 -115q-55 105 -136 151t-208 46q-107 0 -182 -25t-131.5 -85t-83.5 -168t-27 -267q0 -157 27.5 -265t83 -171t130.5 -90t179 -27q53 0 102 10.5t96.5 36t82.5 65t58 101.5
t25 141v39h-356v182h575v-741h-184l-14 193q-59 -103 -170.5 -161.5t-251.5 -58.5zM659 1741q0 63 38.5 96t107.5 33q67 0 104 -32.5t37 -96.5t-37 -97.5t-104 -33.5q-69 0 -107.5 33.5t-38.5 97.5z" />
    <glyph glyph-name="gdotaccent" unicode="&#x121;" horiz-adv-x="1267" 
d="M866 522q0 167 -75.5 249.5t-200.5 82.5q-131 0 -195.5 -81.5t-64.5 -252.5q0 -172 65 -254t195 -82q128 0 202 83.5t74 254.5zM1096 1006v-965q0 -124 -39 -218.5t-110 -152.5t-166 -87t-212 -29q-331 0 -444 231l147 115q48 -91 119 -130.5t172 -39.5q142 0 222.5 70.5
t80.5 219.5v168q-99 -182 -338 -182q-200 0 -312 131t-112 381t113 381t320 131q247 0 346 -182l20 158h193zM436 1311q0 63 38.5 96t107.5 33q67 0 104 -32.5t37 -96.5t-37 -97.5t-104 -33.5q-69 0 -107.5 33.5t-38.5 97.5z" />
    <glyph glyph-name="Gcommaaccent" unicode="&#x122;" horiz-adv-x="1527" 
d="M696 -629l-43 94q61 17 98 59t46 101q-72 -1 -110 31t-38 94t35.5 93.5t99.5 31.5q146 0 146 -178q0 -122 -61.5 -211t-172.5 -115zM766 -27q-303 0 -463 185t-160 561q0 389 164 565t500 176q202 0 332.5 -66.5t201.5 -211.5l-190 -115q-55 105 -136 151t-208 46
q-107 0 -182 -25t-131.5 -85t-83.5 -168t-27 -267q0 -157 27.5 -265t83 -171t130.5 -90t179 -27q53 0 102 10.5t96.5 36t82.5 65t58 101.5t25 141v39h-356v182h575v-741h-184l-14 193q-59 -103 -170.5 -161.5t-251.5 -58.5z" />
    <glyph glyph-name="gcommaaccent" unicode="&#x123;" horiz-adv-x="1267" 
d="M672 1657l43 -94q-61 -17 -98 -59t-46 -101q72 1 110 -31t38 -94t-35.5 -93.5t-99.5 -31.5q-146 0 -146 178q0 122 61.5 211t172.5 115zM866 522q0 167 -75.5 249.5t-200.5 82.5q-131 0 -195.5 -81.5t-64.5 -252.5q0 -172 65 -254t195 -82q128 0 202 83.5t74 254.5z
M1096 1006v-965q0 -124 -39 -218.5t-110 -152.5t-166 -87t-212 -29q-331 0 -444 231l147 115q48 -91 119 -130.5t172 -39.5q142 0 222.5 70.5t80.5 219.5v168q-99 -182 -338 -182q-200 0 -312 131t-112 381t113 381t320 131q247 0 346 -182l20 158h193z" />
    <glyph glyph-name="Hcircumflex" unicode="&#x124;" horiz-adv-x="1642" 
d="M821 1739l-135 -133h-215v6l250 246h207l254 -246v-6h-228zM1192 0v616h-739v-616h-240v1434h240v-611h739v611h240v-1434h-240z" />
    <glyph glyph-name="hcircumflex" unicode="&#x125;" horiz-adv-x="1302" 
d="M295 1679l-135 -133h-215v6l250 246h206l254 -246v-6h-227zM403 1434v-619q53 108 151.5 161.5t219.5 53.5q186 0 277.5 -103t91.5 -298v-629h-232v559q0 145 -55.5 208.5t-165.5 63.5q-131 0 -207.5 -86.5t-79.5 -246.5v-498h-231v1434h231z" />
    <glyph glyph-name="Hbar" unicode="&#x126;" horiz-adv-x="1683" 
d="M473 823h739v189h-739v-189zM1212 0v616h-739v-616h-240v1012h-143v143h143v279h240v-279h739v279h240v-279h141v-143h-141v-1012h-240z" />
    <glyph glyph-name="hbar" unicode="&#x127;" horiz-adv-x="1331" 
d="M53 1133v137h148v164h231v-164h303v-137h-303v-324q53 111 151 165t220 54q183 0 275.5 -101.5t92.5 -301.5v-625h-231v553q0 144 -55.5 208t-163.5 64q-132 0 -209 -86t-80 -247v-492h-231v1133h-148z" />
    <glyph glyph-name="Itilde" unicode="&#x128;" horiz-adv-x="663" 
d="M213 0v1434h240v-1434h-240zM516 1843h156q5 -61 -10.5 -106t-45 -69.5t-63.5 -36t-72 -11.5q-51 0 -103.5 20t-96.5 40t-74 20q-60 0 -60 -74h-155q-4 61 11.5 106t44 69.5t61.5 36t71 11.5q53 0 106.5 -20t98 -40t74.5 -20q34 0 45.5 19.5t11.5 54.5z" />
    <glyph glyph-name="itilde" unicode="&#x129;" horiz-adv-x="581" 
d="M176 1006h232v-1006h-232v1006zM473 1413h156q5 -61 -10.5 -106t-45 -69.5t-63.5 -36t-72 -11.5q-51 0 -103.5 20t-96.5 40t-74 20q-60 0 -60 -74h-155q-4 61 11.5 106t44 69.5t61.5 36t71 11.5q53 0 106.5 -20t98 -40t74.5 -20q34 0 45.5 19.5t11.5 54.5z" />
    <glyph glyph-name="Imacron" unicode="&#x12a;" horiz-adv-x="663" 
d="M213 0v1434h240v-1434h-240zM606 1794v-141h-547v141h547z" />
    <glyph glyph-name="imacron" unicode="&#x12b;" horiz-adv-x="581" 
d="M176 1006h232v-1006h-232v1006zM565 1364v-141h-547v141h547z" />
    <glyph glyph-name="Ibreve" unicode="&#x12c;" horiz-adv-x="663" 
d="M213 0v1434h240v-1434h-240zM485 1855h160q0 -145 -78.5 -204.5t-234.5 -59.5q-157 0 -235.5 59.5t-78.5 204.5h158q0 -75 37 -105t117 -30q81 0 118 30t37 105z" />
    <glyph glyph-name="ibreve" unicode="&#x12d;" horiz-adv-x="581" 
d="M176 1006h232v-1006h-232v1006zM444 1425h160q0 -145 -78.5 -204.5t-234.5 -59.5q-157 0 -235.5 59.5t-78.5 204.5h158q0 -75 37 -105t117 -30q81 0 118 30t37 105z" />
    <glyph glyph-name="Iogonek" unicode="&#x12e;" horiz-adv-x="663" 
d="M250 -446q-52 0 -96 11t-81.5 35.5t-59 69.5t-21.5 107q0 109 63 184t158 105v1368h240v-1434h-115q-90 -7 -141.5 -66t-51.5 -133q0 -102 123 -102q78 0 135 35l35 -131q-82 -49 -188 -49z" />
    <glyph glyph-name="iogonek" unicode="&#x12f;" horiz-adv-x="581" 
d="M145 1313q0 66 38 99.5t108 33.5q145 0 145 -133q0 -67 -37.5 -101t-107.5 -34t-108 34t-38 101zM215 -446q-52 0 -95.5 11t-81.5 35.5t-59.5 69.5t-21.5 107q0 108 62.5 183.5t156.5 105.5v940h232v-1006h-105q-90 -7 -141 -65.5t-51 -133.5q0 -102 122 -102
q79 0 136 35l34 -131q-79 -49 -188 -49z" />
    <glyph glyph-name="Idotaccent" unicode="&#x130;" horiz-adv-x="663" 
d="M213 0v1434h240v-1434h-240zM190 1741q0 63 38.5 96t107.5 33q67 0 104 -32.5t37 -96.5t-37 -97.5t-104 -33.5q-69 0 -107.5 33.5t-38.5 97.5z" />
    <glyph glyph-name="dotlessi" unicode="&#x131;" horiz-adv-x="581" 
d="M176 1006h232v-1006h-232v1006z" />
    <glyph glyph-name="IJ" unicode="&#x132;" horiz-adv-x="1740" 
d="M213 0v1434h240v-1434h-240zM1038 -27q-204 0 -346 111l103 174q104 -88 252 -88q278 0 278 352v912h240v-904q0 -557 -527 -557z" />
    <glyph glyph-name="ij" unicode="&#x133;" horiz-adv-x="1163" 
d="M145 1311q0 67 38 101t108 34t107.5 -34t37.5 -101t-37.5 -101t-107.5 -34t-108 34t-38 101zM176 1006h232v-1006h-232v1006zM727 1311q0 67 37.5 101t107.5 34t108 -34t38 -101t-38 -101t-108 -34t-107.5 34t-37.5 101zM758 -57v1063h231v-1086q0 -184 -91 -275
t-253 -91q-99 0 -180 32l37 174q55 -22 114 -22q72 0 107 45.5t35 159.5z" />
    <glyph glyph-name="Jcircumflex" unicode="&#x134;" horiz-adv-x="1069" 
d="M776 1737l-135 -133h-215v6l250 245h207l254 -245v-6h-228zM367 -27q-205 0 -347 111l103 174q104 -88 252 -88q278 0 278 352v912h240v-904q0 -153 -38.5 -263.5t-111 -173.5t-165 -91.5t-211.5 -28.5z" />
    <glyph glyph-name="jcircumflex" unicode="&#x135;" horiz-adv-x="581" 
d="M176 -57v1063h232v-1086q0 -184 -91.5 -275t-253.5 -91q-99 0 -180 32l37 174q55 -22 115 -22q72 0 106.5 45t34.5 160zM289 1307l-135 -133h-215v6l249 245h207l254 -245v-6h-227z" />
    <glyph glyph-name="Kcommaaccent" unicode="&#x136;" horiz-adv-x="1372" 
d="M645 -629l-43 94q61 17 97.5 59t45.5 101q-72 -1 -109.5 31t-37.5 94t35.5 93.5t99.5 31.5q146 0 146 -178q0 -122 -61.5 -211t-172.5 -115zM213 0v1434h240l-2 -750l610 750h282l-534 -639l555 -795h-287l-430 621l-194 -232v-389h-240z" />
    <glyph glyph-name="kcommaaccent" unicode="&#x137;" horiz-adv-x="1118" 
d="M510 -629l-43 94q61 17 97.5 59t45.5 101q-72 -1 -109.5 31t-37.5 94t35.5 93.5t99.5 31.5q145 0 145 -178q0 -122 -61 -211t-172 -115zM172 0v1434h229l-4 -938l441 510h264l-402 -449l406 -557h-264l-291 403l-150 -159v-244h-229z" />
    <glyph glyph-name="kgreenlandic" unicode="&#x138;" horiz-adv-x="1118" 
d="M172 0v1006h229l-2 -510l439 510h264l-402 -449l406 -557h-264l-289 403l-152 -159v-244h-229z" />
    <glyph glyph-name="Lacute" unicode="&#x139;" horiz-adv-x="1306" 
d="M655 1843l-245 -239h-187v8l160 243h272v-12zM453 201h798v-201h-1038v1434h240v-1233z" />
    <glyph glyph-name="lacute" unicode="&#x13a;" horiz-adv-x="602" 
d="M600 1845l-246 -239h-186v8l160 244h272v-13zM424 0q-126 0 -192 59.5t-66 194.5v1180h231v-1162q0 -49 24 -71.5t77 -22.5h84v-178h-158z" />
    <glyph glyph-name="Lcommaaccent" unicode="&#x13b;" horiz-adv-x="1306" 
d="M645 -629l-43 94q61 17 97.5 59t45.5 101q-72 -1 -109.5 31t-37.5 94t35.5 93.5t99.5 31.5q146 0 146 -178q0 -122 -61.5 -211t-172.5 -115zM453 201h798v-201h-1038v1434h240v-1233z" />
    <glyph glyph-name="lcommaaccent" unicode="&#x13c;" horiz-adv-x="602" 
d="M424 0q-126 0 -192 59.5t-66 194.5v1180h231v-1162q0 -49 24 -71.5t77 -22.5h84v-178h-158zM281 -629l-43 94q61 17 97.5 59t45.5 101q-72 -1 -110 31t-38 94t36 93.5t100 31.5q145 0 145 -178q0 -122 -61 -211t-172 -115z" />
    <glyph glyph-name="Lcaron" unicode="&#x13d;" horiz-adv-x="1306" 
d="M967 954h-154l14 482h205zM453 201h798v-201h-1038v1434h240v-1233z" />
    <glyph glyph-name="lcaron" unicode="&#x13e;" horiz-adv-x="727" 
d="M721 952h-154l15 482h204zM424 0q-126 0 -192 59.5t-66 194.5v1180h231v-1162q0 -49 24 -71.5t77 -22.5h84v-178h-158z" />
    <glyph glyph-name="Ldot" unicode="&#x13f;" horiz-adv-x="1306" 
d="M453 201h798v-201h-1038v1434h240v-1233zM811 737q0 63 38 96t107 33q67 0 104.5 -33t37.5 -96q0 -64 -37.5 -97.5t-104.5 -33.5q-68 0 -106.5 33.5t-38.5 97.5z" />
    <glyph glyph-name="ldot" unicode="&#x140;" horiz-adv-x="794" 
d="M424 0q-126 0 -192 59.5t-66 194.5v1180h231v-1162q0 -49 24 -71.5t77 -22.5h84v-178h-158zM532 625q0 63 38.5 96t107.5 33q67 0 104 -32.5t37 -96.5t-37 -97.5t-104 -33.5q-69 0 -107.5 33.5t-38.5 97.5z" />
    <glyph glyph-name="Lslash" unicode="&#x141;" horiz-adv-x="1345" 
d="M492 201h798v-201h-1038v489l-203 -122v200l203 123v744h240v-609l354 211v-202l-354 -211v-422z" />
    <glyph glyph-name="lslash" unicode="&#x142;" horiz-adv-x="643" 
d="M623 0h-158q-126 0 -192 59.5t-66 194.5v254l-187 -139v200l187 142v723h231v-560l203 154v-203l-203 -151v-402q0 -49 24 -71.5t77 -22.5h84v-178z" />
    <glyph glyph-name="Nacute" unicode="&#x143;" horiz-adv-x="1622" 
d="M1135 1843l-246 -239h-187v8l160 243h273v-12zM1184 0l-750 1069l6 -1069h-227v1434h213l762 -1088l-6 1088h229v-1434h-227z" />
    <glyph glyph-name="nacute" unicode="&#x144;" horiz-adv-x="1302" 
d="M1014 1413l-246 -239h-186v8l159 243h273v-12zM172 1006h197l22 -187q55 107 154 159t225 52q373 0 373 -401v-629h-232v563q0 143 -55 205.5t-166 62.5q-130 0 -207 -86.5t-80 -246.5v-498h-231v1006z" />
    <glyph glyph-name="Ncommaaccent" unicode="&#x145;" horiz-adv-x="1622" 
d="M725 -629l-43 94q61 17 97.5 59t45.5 101q-72 -1 -109.5 31t-37.5 94t35.5 93.5t99.5 31.5q145 0 145 -178q0 -122 -61 -211t-172 -115zM1184 0l-750 1069l6 -1069h-227v1434h213l762 -1088l-6 1088h229v-1434h-227z" />
    <glyph glyph-name="ncommaaccent" unicode="&#x146;" horiz-adv-x="1302" 
d="M580 -629l-43 94q61 17 97.5 59t45.5 101q-72 -1 -110 31t-38 94t36 93.5t100 31.5q145 0 145 -178q0 -122 -61 -211t-172 -115zM172 1006h197l22 -187q55 107 154 159t225 52q373 0 373 -401v-629h-232v563q0 143 -55 205.5t-166 62.5q-130 0 -207 -86.5t-80 -246.5
v-498h-231v1006z" />
    <glyph glyph-name="Ncaron" unicode="&#x147;" horiz-adv-x="1622" 
d="M813 1726l139 129h215v-4l-254 -247h-206l-250 247v4h223zM1184 0l-750 1069l6 -1069h-227v1434h213l762 -1088l-6 1088h229v-1434h-227z" />
    <glyph glyph-name="ncaron" unicode="&#x148;" horiz-adv-x="1302" 
d="M690 1296l139 129h215v-4l-253 -247h-207l-250 247v4h223zM172 1006h197l22 -187q55 107 154 159t225 52q373 0 373 -401v-629h-232v563q0 143 -55 205.5t-166 62.5q-130 0 -207 -86.5t-80 -246.5v-498h-231v1006z" />
    <glyph glyph-name="Eng" unicode="&#x14a;" horiz-adv-x="1622" 
d="M1178 -57v59l-744 1067l6 -1069h-227v1434h213l762 -1088l-6 1088h229v-1514q0 -184 -91 -275t-253 -91q-99 0 -180 32l37 174q58 -22 114 -22q71 0 105.5 45t34.5 160z" />
    <glyph glyph-name="eng" unicode="&#x14b;" horiz-adv-x="1302" 
d="M911 -57v620q0 143 -55 205.5t-166 62.5q-130 0 -207 -86.5t-80 -246.5v-498h-231v1006h197l22 -187q107 211 379 211q373 0 373 -401v-709q0 -184 -90 -275t-252 -91q-96 0 -180 32l36 174q55 -22 115 -22q71 0 105 45t34 160z" />
    <glyph glyph-name="Omacron" unicode="&#x14c;" horiz-adv-x="1609" 
d="M1077 1794v-141h-547v141h547zM805 -27q-342 0 -502 179.5t-160 566.5q0 385 162.5 563t499.5 178q348 0 505.5 -176.5t157.5 -564.5q0 -385 -163.5 -565.5t-499.5 -180.5zM805 1266q-108 0 -183.5 -26.5t-130.5 -88.5t-81.5 -169.5t-26.5 -264.5q0 -154 26.5 -261
t81.5 -170t131 -90.5t183 -27.5t183 27t131 90t81.5 171t26.5 265q0 153 -26.5 259t-81.5 168.5t-131 90t-183 27.5z" />
    <glyph glyph-name="omacron" unicode="&#x14d;" horiz-adv-x="1214" 
d="M881 1364v-141h-547v141h547zM104 504q0 526 504 526q255 0 378.5 -127t123.5 -399q0 -531 -502 -531q-250 0 -377 130t-127 401zM885 502q0 189 -66 269.5t-211 80.5q-148 0 -213 -80t-65 -270q0 -188 66.5 -269t211.5 -81q144 0 210.5 81.5t66.5 268.5z" />
    <glyph glyph-name="Obreve" unicode="&#x14e;" horiz-adv-x="1609" 
d="M805 -27q-342 0 -502 179.5t-160 566.5q0 385 162.5 563t499.5 178q348 0 505.5 -176.5t157.5 -564.5q0 -385 -163.5 -565.5t-499.5 -180.5zM805 1266q-108 0 -183.5 -26.5t-130.5 -88.5t-81.5 -169.5t-26.5 -264.5q0 -154 26.5 -261t81.5 -170t131 -90.5t183 -27.5
t183 27t131 90t81.5 171t26.5 265q0 153 -26.5 259t-81.5 168.5t-131 90t-183 27.5zM956 1855h160q0 -145 -78.5 -204.5t-234.5 -59.5q-157 0 -235.5 59.5t-78.5 204.5h158q0 -75 37 -105t117 -30q81 0 118 30t37 105z" />
    <glyph glyph-name="obreve" unicode="&#x14f;" horiz-adv-x="1214" 
d="M104 504q0 526 504 526q255 0 378.5 -127t123.5 -399q0 -531 -502 -531q-250 0 -377 130t-127 401zM885 502q0 189 -66 269.5t-211 80.5q-148 0 -213 -80t-65 -270q0 -188 66.5 -269t211.5 -81q144 0 210.5 81.5t66.5 268.5zM760 1425h160q0 -145 -79 -204.5t-235 -59.5
q-157 0 -235 59t-78 205h158q0 -75 36.5 -105t116.5 -30q81 0 118.5 30t37.5 105z" />
    <glyph glyph-name="Ohungarumlaut" unicode="&#x150;" horiz-adv-x="1609" 
d="M1278 1843l-254 -239h-178v8l160 243h272v-12zM920 1843l-203 -239h-172v8l131 243h244v-12zM805 -27q-342 0 -502 179.5t-160 566.5q0 385 162.5 563t499.5 178q348 0 505.5 -176.5t157.5 -564.5q0 -385 -163.5 -565.5t-499.5 -180.5zM805 1266q-108 0 -183.5 -26.5
t-130.5 -88.5t-81.5 -169.5t-26.5 -264.5q0 -154 26.5 -261t81.5 -170t131 -90.5t183 -27.5t183 27t131 90t81.5 171t26.5 265q0 153 -26.5 259t-81.5 168.5t-131 90t-183 27.5z" />
    <glyph glyph-name="ohungarumlaut" unicode="&#x151;" horiz-adv-x="1214" 
d="M1077 1413l-254 -239h-178v8l160 243h272v-12zM719 1413l-203 -239h-172v8l131 243h244v-12zM104 504q0 526 504 526q255 0 378.5 -127t123.5 -399q0 -531 -502 -531q-250 0 -377 130t-127 401zM885 502q0 189 -66 269.5t-211 80.5q-148 0 -213 -80t-65 -270
q0 -188 66.5 -269t211.5 -81q144 0 210.5 81.5t66.5 268.5z" />
    <glyph glyph-name="OE" unicode="&#x152;" horiz-adv-x="2256" 
d="M2171 0h-1385q-325 0 -485 177.5t-160 545.5q0 365 159.5 538t490.5 173h1359v-197h-811v-416h707v-198h-707v-426h832v-197zM791 199h311v1036h-314q-101 0 -174.5 -27t-126.5 -87t-79.5 -160t-26.5 -242q0 -144 27.5 -245t81.5 -161t127.5 -87t173.5 -27z" />
    <glyph glyph-name="oe" unicode="&#x153;" horiz-adv-x="1925" 
d="M104 504q0 526 504 526q279 0 393 -162q125 162 381 162q114 0 200.5 -37t140 -104.5t80 -155.5t26.5 -196q0 -45 -6 -101h-711q9 -154 79.5 -222.5t203.5 -68.5q104 0 167.5 34.5t104.5 123.5l154 -88q-115 -242 -437 -242q-266 0 -387 164q-121 -164 -389 -164
q-251 0 -377.5 129.5t-126.5 401.5zM1376 858q-118 0 -185 -64t-77 -204h496q-12 268 -234 268zM885 502q0 189 -66 269.5t-213 80.5q-146 0 -211 -80t-65 -270q0 -188 66.5 -269t209.5 -81q145 0 212 81t67 269z" />
    <glyph glyph-name="Racute" unicode="&#x154;" horiz-adv-x="1413" 
d="M1083 1843l-245 -239h-187v8l160 243h272v-12zM809 1233h-358v-518h354q128 0 198 67.5t70 198.5q0 120 -65.5 186t-198.5 66zM213 0v1434h616q239 0 361.5 -116t122.5 -329q0 -327 -269 -430l289 -559h-262l-264 516h-356v-516h-238z" />
    <glyph glyph-name="racute" unicode="&#x155;" horiz-adv-x="802" 
d="M774 1413l-246 -239h-186v8l160 243h272v-12zM172 0v1006h195l22 -209q52 118 149.5 176.5t225.5 52.5v-221q-175 17 -266.5 -76t-94.5 -278v-451h-231z" />
    <glyph glyph-name="Rcommaaccent" unicode="&#x156;" horiz-adv-x="1413" 
d="M637 -629l-43 94q61 17 97.5 59t45.5 101q-72 -1 -109.5 31t-37.5 94t35.5 93.5t99.5 31.5q145 0 145 -178q0 -122 -61 -211t-172 -115zM809 1233h-358v-518h354q128 0 198 67.5t70 198.5q0 120 -65.5 186t-198.5 66zM213 0v1434h616q239 0 361.5 -116t122.5 -329
q0 -327 -269 -430l289 -559h-262l-264 516h-356v-516h-238z" />
    <glyph glyph-name="rcommaaccent" unicode="&#x157;" horiz-adv-x="802" 
d="M199 -629l-43 94q61 17 97.5 59t45.5 101q-72 -1 -109.5 31t-37.5 94t35.5 93.5t99.5 31.5q145 0 145 -178q0 -122 -61 -211t-172 -115zM172 0v1006h195l22 -209q52 118 149.5 176.5t225.5 52.5v-221q-175 17 -266.5 -76t-94.5 -278v-451h-231z" />
    <glyph glyph-name="Rcaron" unicode="&#x158;" horiz-adv-x="1413" 
d="M762 1726l139 129h215v-4l-254 -247h-207l-249 247v4h223zM809 1233h-358v-518h354q128 0 198 67.5t70 198.5q0 120 -65.5 186t-198.5 66zM213 0v1434h616q239 0 361.5 -116t122.5 -329q0 -327 -269 -430l289 -559h-262l-264 516h-356v-516h-238z" />
    <glyph glyph-name="rcaron" unicode="&#x159;" horiz-adv-x="802" 
d="M473 1296l139 129h215v-4l-254 -247h-206l-250 247v4h223zM172 0v1006h195l22 -209q52 118 149.5 176.5t225.5 52.5v-221q-175 17 -266.5 -76t-94.5 -278v-451h-231z" />
    <glyph glyph-name="Sacute" unicode="&#x15a;" horiz-adv-x="1294" 
d="M963 1843l-246 -239h-187v8l160 243h273v-12zM1149 1200l-176 -117q-57 101 -134.5 147t-203.5 46q-148 0 -219.5 -58.5t-71.5 -150.5q0 -80 57.5 -136.5t196.5 -86.5l129 -29q238 -54 346.5 -153t108.5 -259q0 -202 -146 -316t-411 -114q-394 0 -559 277l174 121
q73 -118 162 -167.5t229 -49.5q319 0 319 225q0 88 -57.5 136t-210.5 83l-131 31q-428 100 -428 418q0 188 137.5 300.5t372.5 112.5q191 0 316 -62.5t200 -197.5z" />
    <glyph glyph-name="sacute" unicode="&#x15b;" horiz-adv-x="1046" 
d="M827 1413l-245 -239h-187v8l160 243h272v-12zM514 141q103 0 153 33.5t50 93.5q0 49 -36.5 76.5t-135.5 48.5l-88 19q-334 69 -334 313q0 136 102 220.5t295 84.5q135 0 227.5 -40.5t161.5 -125.5l-137 -135q-54 67 -112.5 98t-145.5 31q-180 0 -180 -117q0 -46 37.5 -78
t126.5 -51l112 -24q170 -37 246 -111.5t76 -185.5q0 -141 -106.5 -229.5t-315.5 -88.5q-312 0 -438 203l143 121q52 -82 124 -119t175 -37z" />
    <glyph glyph-name="Scircumflex" unicode="&#x15c;" horiz-adv-x="1294" 
d="M635 1737l-135 -133h-215v6l250 245h206l254 -245v-6h-227zM1149 1200l-176 -117q-57 101 -134.5 147t-203.5 46q-148 0 -219.5 -58.5t-71.5 -150.5q0 -80 57.5 -136.5t196.5 -86.5l129 -29q238 -54 346.5 -153t108.5 -259q0 -202 -146 -316t-411 -114q-394 0 -559 277
l174 121q73 -118 162 -167.5t229 -49.5q319 0 319 225q0 88 -57.5 136t-210.5 83l-131 31q-428 100 -428 418q0 188 137.5 300.5t372.5 112.5q191 0 316 -62.5t200 -197.5z" />
    <glyph glyph-name="scircumflex" unicode="&#x15d;" horiz-adv-x="1046" 
d="M500 1307l-135 -133h-215v6l249 245h207l254 -245v-6h-227zM514 141q103 0 153 33.5t50 93.5q0 49 -36.5 76.5t-135.5 48.5l-88 19q-334 69 -334 313q0 136 102 220.5t295 84.5q135 0 227.5 -40.5t161.5 -125.5l-137 -135q-54 67 -112.5 98t-145.5 31q-180 0 -180 -117
q0 -46 37.5 -78t126.5 -51l112 -24q170 -37 246 -111.5t76 -185.5q0 -141 -106.5 -229.5t-315.5 -88.5q-312 0 -438 203l143 121q52 -82 124 -119t175 -37z" />
    <glyph glyph-name="Scedilla" unicode="&#x15e;" horiz-adv-x="1294" 
d="M623 -496q-182 0 -261 129l97 93q32 -50 66.5 -73.5t88.5 -23.5q48 0 77.5 20t29.5 58t-29 60t-80 22q-15 0 -47 -4l-39 31l45 159q-352 17 -505 275l174 121q73 -118 162 -167.5t229 -49.5q319 0 319 225q0 88 -57.5 136t-210.5 83l-131 31q-428 100 -428 418
q0 188 137.5 300.5t372.5 112.5q191 0 316 -62.5t200 -197.5l-176 -117q-57 101 -134.5 147t-203.5 46q-148 0 -219.5 -58.5t-71.5 -150.5q0 -80 57.5 -136.5t196.5 -86.5l129 -29q238 -54 346.5 -153t108.5 -259q0 -185 -122.5 -297t-348.5 -129l-29 -94h4q80 -2 135.5 -49
t55.5 -129q0 -96 -73 -148.5t-181 -52.5z" />
    <glyph glyph-name="scedilla" unicode="&#x15f;" horiz-adv-x="1046" 
d="M485 -496q-181 0 -260 129l97 93q32 -50 66.5 -73.5t88.5 -23.5q48 0 77.5 20t29.5 58t-29 60t-80 22q-15 0 -47 -4l-39 31l45 161q-251 19 -362 199l143 121q52 -82 124 -119t175 -37t153 33.5t50 93.5q0 49 -36.5 76.5t-135.5 48.5l-88 19q-334 69 -334 313
q0 136 102 220.5t295 84.5q135 0 227.5 -40.5t161.5 -125.5l-137 -135q-54 67 -112.5 98t-145.5 31q-180 0 -180 -117q0 -46 37.5 -78t126.5 -51l112 -24q170 -37 246 -111.5t76 -185.5q0 -131 -91 -217t-270 -99l-26 -92h4q80 -2 135 -49t55 -129q0 -96 -73 -148.5
t-181 -52.5z" />
    <glyph glyph-name="Scaron" unicode="&#x160;" horiz-adv-x="1294" 
d="M641 1726l139 129h215v-4l-254 -247h-206l-250 247v4h223zM1149 1200l-176 -117q-57 101 -134.5 147t-203.5 46q-148 0 -219.5 -58.5t-71.5 -150.5q0 -80 57.5 -136.5t196.5 -86.5l129 -29q238 -54 346.5 -153t108.5 -259q0 -202 -146 -316t-411 -114q-394 0 -559 277
l174 121q73 -118 162 -167.5t229 -49.5q319 0 319 225q0 88 -57.5 136t-210.5 83l-131 31q-428 100 -428 418q0 188 137.5 300.5t372.5 112.5q191 0 316 -62.5t200 -197.5z" />
    <glyph glyph-name="scaron" unicode="&#x161;" horiz-adv-x="1046" 
d="M504 1296l139 129h215v-4l-254 -247h-207l-250 247v4h224zM514 141q103 0 153 33.5t50 93.5q0 49 -36.5 76.5t-135.5 48.5l-88 19q-334 69 -334 313q0 136 102 220.5t295 84.5q135 0 227.5 -40.5t161.5 -125.5l-137 -135q-54 67 -112.5 98t-145.5 31q-180 0 -180 -117
q0 -46 37.5 -78t126.5 -51l112 -24q170 -37 246 -111.5t76 -185.5q0 -141 -106.5 -229.5t-315.5 -88.5q-312 0 -438 203l143 121q52 -82 124 -119t175 -37z" />
    <glyph glyph-name="Tcedilla" unicode="&#x162;" horiz-adv-x="1206" 
d="M530 -215l-38 31l51 184h-60v1231h-456v203h1155v-203h-459v-1231h-41l-35 -117h4q80 -2 135.5 -49t55.5 -129q0 -96 -73 -148.5t-181 -52.5q-181 0 -260 129l96 93q32 -49 67 -73t89 -24q48 0 77 20t29 58t-28.5 60t-79.5 22q-16 0 -48 -4z" />
    <glyph glyph-name="tcedilla" unicode="&#x163;" horiz-adv-x="778" 
d="M772 -295q0 -96 -73 -148.5t-181 -52.5q-181 0 -260 129l96 93q32 -49 67 -73t89 -24q48 0 77 20t29 58t-28.5 60t-79.5 22q-15 0 -47 -4l-39 31l45 164q-260 41 -260 356v495h-168v175h168v290h225v-290h283v-175h-283v-481q0 -110 40.5 -151t119.5 -41q60 0 121 22
l35 -166q-67 -29 -142 -39l-28 -92h4q80 -2 135 -49t55 -129z" />
    <glyph glyph-name="Tcaron" unicode="&#x164;" horiz-adv-x="1206" 
d="M604 1726l139 129h215v-4l-253 -247h-207l-250 247v4h223zM27 1434h1155v-203h-459v-1231h-240v1231h-456v203z" />
    <glyph glyph-name="tcaron" unicode="&#x165;" horiz-adv-x="798" 
d="M711 1137h-154l14 401h205zM39 1006h168v290h225v-290h283v-175h-283v-481q0 -110 40.5 -151t119.5 -41q60 0 121 22l35 -166q-98 -41 -201 -41q-161 0 -250.5 87.5t-89.5 275.5v495h-168v175z" />
    <glyph glyph-name="Tbar" unicode="&#x166;" horiz-adv-x="1208" 
d="M27 1434h1155v-203h-457v-440h356v-164h-356v-627h-242v627h-356v164h356v440h-456v203z" />
    <glyph glyph-name="tbar" unicode="&#x167;" horiz-adv-x="765" 
d="M715 1006v-175h-283v-167h283v-140h-283v-178q0 -107 41 -147.5t119 -40.5q60 0 121 22l35 -166q-98 -41 -201 -41q-161 0 -250.5 87.5t-89.5 275.5v188h-168v140h168v167h-168v175h168v290h225v-290h283z" />
    <glyph glyph-name="Utilde" unicode="&#x168;" horiz-adv-x="1554" 
d="M1139 559v875h239v-863q0 -297 -156.5 -447.5t-443.5 -150.5q-291 0 -446.5 150.5t-155.5 447.5v863h240v-875q0 -199 95 -294t267 -95t266.5 95t94.5 294zM963 1843h155q5 -61 -10 -106t-44.5 -69.5t-63.5 -36t-72 -11.5q-51 0 -103.5 20t-97 40t-74.5 20q-59 0 -59 -74
h-156q-4 61 11.5 106t44.5 69.5t62 36t71 11.5q53 0 106 -20t97.5 -40t74.5 -20q58 0 58 74z" />
    <glyph glyph-name="utilde" unicode="&#x169;" horiz-adv-x="1294" 
d="M928 0l-19 174q-55 -100 -151 -150.5t-211 -50.5q-194 0 -290.5 107.5t-96.5 302.5v623h231v-574q0 -270 223 -270q126 0 200 85.5t77 244.5v514h231v-1006h-194zM821 1413h156q5 -61 -10.5 -106t-45 -69.5t-63.5 -36t-72 -11.5q-51 0 -103.5 20t-96.5 40t-74 20
q-59 0 -59 -74h-156q-4 61 11.5 106t44 69.5t61.5 36t71 11.5q53 0 106.5 -20t98 -40t74.5 -20q34 0 45.5 19.5t11.5 54.5z" />
    <glyph glyph-name="Umacron" unicode="&#x16a;" horiz-adv-x="1554" 
d="M1139 559v875h239v-863q0 -297 -156.5 -447.5t-443.5 -150.5q-291 0 -446.5 150.5t-155.5 447.5v863h240v-875q0 -199 95 -294t267 -95t266.5 95t94.5 294zM1053 1794v-141h-547v141h547z" />
    <glyph glyph-name="umacron" unicode="&#x16b;" horiz-adv-x="1294" 
d="M928 0l-19 174q-55 -100 -151 -150.5t-211 -50.5q-194 0 -290.5 107.5t-96.5 302.5v623h231v-574q0 -270 223 -270q126 0 200 85.5t77 244.5v514h231v-1006h-194zM911 1364v-141h-546v141h546z" />
    <glyph glyph-name="Ubreve" unicode="&#x16c;" horiz-adv-x="1554" 
d="M1139 559v875h239v-863q0 -297 -156.5 -447.5t-443.5 -150.5q-291 0 -446.5 150.5t-155.5 447.5v863h240v-875q0 -199 95 -294t267 -95t266.5 95t94.5 294zM932 1855h160q0 -145 -79 -204.5t-235 -59.5q-157 0 -235 59t-78 205h158q0 -75 36.5 -105t116.5 -30
q81 0 118.5 30t37.5 105z" />
    <glyph glyph-name="ubreve" unicode="&#x16d;" horiz-adv-x="1294" 
d="M928 0l-19 174q-55 -100 -151 -150.5t-211 -50.5q-194 0 -290.5 107.5t-96.5 302.5v623h231v-574q0 -270 223 -270q126 0 200 85.5t77 244.5v514h231v-1006h-194zM793 1425h159q0 -145 -78.5 -204.5t-234.5 -59.5q-157 0 -235 59t-78 205h157q0 -75 37 -105t117 -30
q81 0 118.5 30t37.5 105z" />
    <glyph glyph-name="Uring" unicode="&#x16e;" horiz-adv-x="1554" 
d="M567 1751q0 92 59.5 146.5t153.5 54.5q92 0 150.5 -54.5t58.5 -146.5t-58.5 -145.5t-152.5 -53.5q-93 0 -152 53.5t-59 145.5zM682 1751q0 -45 27 -73.5t69 -28.5t70.5 29t28.5 73q0 45 -28 73.5t-69 28.5q-44 0 -71 -28t-27 -74zM1139 559v875h239v-863
q0 -297 -156.5 -447.5t-443.5 -150.5q-291 0 -446.5 150.5t-155.5 447.5v863h240v-875q0 -199 95 -294t267 -95t266.5 95t94.5 294z" />
    <glyph glyph-name="uring" unicode="&#x16f;" horiz-adv-x="1294" 
d="M428 1321q0 92 59.5 146.5t153.5 54.5q92 0 150.5 -54.5t58.5 -146.5t-58.5 -145.5t-152.5 -53.5q-93 0 -152 53.5t-59 145.5zM543 1321q0 -45 27 -73.5t69 -28.5t70 29t28 73q0 45 -27.5 73.5t-68.5 28.5q-44 0 -71 -28t-27 -74zM928 0l-19 174q-55 -100 -151 -150.5
t-211 -50.5q-194 0 -290.5 107.5t-96.5 302.5v623h231v-574q0 -270 223 -270q126 0 200 85.5t77 244.5v514h231v-1006h-194z" />
    <glyph glyph-name="Uhungarumlaut" unicode="&#x170;" horiz-adv-x="1554" 
d="M1139 559v875h239v-863q0 -297 -156.5 -447.5t-443.5 -150.5q-291 0 -446.5 150.5t-155.5 447.5v863h240v-875q0 -199 95 -294t267 -95t266.5 95t94.5 294zM1251 1843l-254 -239h-178v8l160 243h272v-12zM893 1843l-203 -239h-172v8l131 243h244v-12z" />
    <glyph glyph-name="uhungarumlaut" unicode="&#x171;" horiz-adv-x="1294" 
d="M928 0l-19 174q-55 -100 -151 -150.5t-211 -50.5q-194 0 -290.5 107.5t-96.5 302.5v623h231v-574q0 -270 223 -270q126 0 200 85.5t77 244.5v514h231v-1006h-194zM1098 1413l-254 -239h-178v8l159 243h273v-12zM739 1413l-202 -239h-172v8l131 243h243v-12z" />
    <glyph glyph-name="Uogonek" unicode="&#x172;" horiz-adv-x="1556" 
d="M709 -203q0 105 63 178h-10q-283 6 -433.5 155t-150.5 441v863h240v-875q0 -199 94.5 -293t265.5 -94q174 0 268.5 94t94.5 293v875h239v-863q0 -454 -387 -571q-62 -21 -96.5 -70t-34.5 -104q0 -127 123 -127q73 0 137 37l33 -133q-82 -49 -188 -49q-51 0 -95 12.5
t-82 39t-59.5 75.5t-21.5 116z" />
    <glyph glyph-name="uogonek" unicode="&#x173;" horiz-adv-x="1294" 
d="M1020 -446q-52 0 -95.5 11t-81.5 35.5t-59.5 69.5t-21.5 107q0 90 44.5 157t117.5 105l-17 135q-53 -101 -148.5 -151t-211.5 -50q-194 0 -290.5 107.5t-96.5 302.5v623h231v-574q0 -270 223 -270q126 0 200 85.5t77 244.5v514h231v-1006q-100 -6 -153.5 -64.5
t-53.5 -134.5q0 -102 123 -102q79 0 136 35l34 -131q-79 -49 -188 -49z" />
    <glyph glyph-name="Wcircumflex" unicode="&#x174;" horiz-adv-x="1908" 
d="M954 1737l-135 -133h-215v6l250 245h207l254 -245v-6h-228zM846 1430h223l297 -1092l297 1096h233l-415 -1434h-232l-297 1094l-295 -1094h-229l-414 1434h244l291 -1100z" />
    <glyph glyph-name="wcircumflex" unicode="&#x175;" horiz-adv-x="1540" 
d="M770 1307l-135 -133h-215v6l250 245h207l253 -245v-6h-227zM670 999h211l219 -735l213 742h215l-318 -1006h-225l-215 741l-211 -741h-223l-322 1006h222l217 -740z" />
    <glyph glyph-name="Ycircumflex" unicode="&#x176;" horiz-adv-x="1304" 
d="M532 559l-514 875h263l378 -672l375 672h252l-514 -879v-555h-240v559zM653 1737l-135 -133h-215v6l250 245h207l254 -245v-6h-228z" />
    <glyph glyph-name="ycircumflex" unicode="&#x177;" horiz-adv-x="1075" 
d="M383 -115l35 103l-408 1018h242l287 -775l284 775h240l-479 -1196q-57 -140 -151 -197t-230 -57q-97 0 -183 30l31 178q76 -26 137 -26q141 0 195 147zM535 1307l-136 -133h-215v6l250 245h207l254 -245v-6h-227z" />
    <glyph glyph-name="Ydieresis" unicode="&#x178;" horiz-adv-x="1304" 
d="M532 559l-514 875h263l378 -672l375 672h252l-514 -879v-555h-240v559zM705 1741q0 64 36 96.5t103 32.5t103 -32.5t36 -96.5t-36 -97.5t-103 -33.5t-103 33.5t-36 97.5zM322 1741q0 63 36.5 96t102.5 33q67 0 103 -32.5t36 -96.5t-36 -97.5t-103 -33.5q-65 0 -102 33.5
t-37 97.5z" />
    <glyph glyph-name="Zacute" unicode="&#x179;" horiz-adv-x="1200" 
d="M926 1843l-246 -239h-186v8l159 243h273v-12zM41 0v164l821 1075l-776 -4v199h1065v-164l-823 -1075l831 4v-199h-1118z" />
    <glyph glyph-name="zacute" unicode="&#x17a;" horiz-adv-x="1015" 
d="M831 1413l-245 -239h-187v8l160 243h272v-12zM76 0v152l573 675h-563v179h836v-158l-576 -672h592v-176h-862z" />
    <glyph glyph-name="Zdotaccent" unicode="&#x17b;" horiz-adv-x="1200" 
d="M41 0v164l821 1075l-776 -4v199h1065v-164l-823 -1075l831 4v-199h-1118zM459 1741q0 63 38 96t107 33q67 0 104 -32.5t37 -96.5t-37 -97.5t-104 -33.5q-68 0 -106.5 33.5t-38.5 97.5z" />
    <glyph glyph-name="zdotaccent" unicode="&#x17c;" horiz-adv-x="1015" 
d="M76 0v152l573 675h-563v179h836v-158l-576 -672h592v-176h-862zM365 1311q0 63 38 96t107 33q67 0 104 -32.5t37 -96.5t-37 -97.5t-104 -33.5q-68 0 -106.5 33.5t-38.5 97.5z" />
    <glyph glyph-name="Zcaron" unicode="&#x17d;" horiz-adv-x="1200" 
d="M602 1726l139 129h215v-4l-254 -247h-206l-250 247v4h223zM41 0v164l821 1075l-776 -4v199h1065v-164l-823 -1075l831 4v-199h-1118z" />
    <glyph glyph-name="zcaron" unicode="&#x17e;" horiz-adv-x="1015" 
d="M510 1296l139 129h215v-4l-254 -247h-207l-249 247v4h223zM76 0v152l573 675h-563v179h836v-158l-576 -672h592v-176h-862z" />
    <glyph glyph-name="florin" unicode="&#x192;" horiz-adv-x="804" 
d="M121 -66l104 658h-170l27 172h170l22 139q59 371 392 371q120 0 188 -39l-63 -172q-49 24 -113 24q-73 0 -117.5 -43.5t-62.5 -148.5l-21 -131h277l-27 -172h-276l-105 -672q-29 -184 -128 -275t-259 -91q-108 0 -176 32l59 174q55 -22 109 -22q70 0 111 43.5t59 152.5z
" />
    <glyph glyph-name="Scommaaccent" unicode="&#x218;" horiz-adv-x="1294" 
d="M541 -629l-43 94q61 17 97.5 59t45.5 101q-72 -1 -109.5 31t-37.5 94t35.5 93.5t99.5 31.5q145 0 145 -178q0 -122 -61 -211t-172 -115zM1149 1200l-176 -117q-57 101 -134.5 147t-203.5 46q-148 0 -219.5 -58.5t-71.5 -150.5q0 -80 57.5 -136.5t196.5 -86.5l129 -29
q238 -54 346.5 -153t108.5 -259q0 -202 -146 -316t-411 -114q-394 0 -559 277l174 121q73 -118 162 -167.5t229 -49.5q319 0 319 225q0 88 -57.5 136t-210.5 83l-131 31q-428 100 -428 418q0 188 137.5 300.5t372.5 112.5q191 0 316 -62.5t200 -197.5z" />
    <glyph glyph-name="scommaaccent" unicode="&#x219;" horiz-adv-x="1046" 
d="M414 -629l-43 94q61 17 97.5 59t45.5 101q-72 -1 -109.5 31t-37.5 94t35.5 93.5t99.5 31.5q145 0 145 -178q0 -122 -61 -211t-172 -115zM514 141q103 0 153 33.5t50 93.5q0 49 -36.5 76.5t-135.5 48.5l-88 19q-334 69 -334 313q0 136 102 220.5t295 84.5
q135 0 227.5 -40.5t161.5 -125.5l-137 -135q-54 67 -112.5 98t-145.5 31q-180 0 -180 -117q0 -46 37.5 -78t126.5 -51l112 -24q170 -37 246 -111.5t76 -185.5q0 -141 -106.5 -229.5t-315.5 -88.5q-312 0 -438 203l143 121q52 -82 124 -119t175 -37z" />
    <glyph glyph-name="uni021A" unicode="&#x21a;" horiz-adv-x="1206" 
d="M512 -629l-43 94q61 17 97.5 59t45.5 101q-72 -1 -109.5 31t-37.5 94t35.5 93.5t99.5 31.5q145 0 145 -178q0 -122 -61 -211t-172 -115zM27 1434h1155v-203h-459v-1231h-240v1231h-456v203z" />
    <glyph glyph-name="uni021B" unicode="&#x21b;" horiz-adv-x="765" 
d="M444 -629l-43 94q61 17 98 59t46 101q-72 -1 -110 31t-38 94t35.5 93.5t99.5 31.5q146 0 146 -178q0 -122 -61.5 -211t-172.5 -115zM39 1006h168v290h225v-290h283v-175h-283v-481q0 -110 40.5 -151t119.5 -41q60 0 121 22l35 -166q-98 -41 -201 -41q-161 0 -250.5 87.5
t-89.5 275.5v495h-168v175z" />
    <glyph glyph-name="dotlessj" unicode="&#x237;" horiz-adv-x="581" 
d="M176 -57v1063h232v-1086q0 -184 -91.5 -275t-253.5 -91q-99 0 -180 32l37 174q55 -22 115 -22q72 0 106.5 45t34.5 160z" />
    <glyph glyph-name="circumflex" unicode="&#x2c6;" horiz-adv-x="1228" 
d="M610 1307l-135 -133h-215v6l250 245h207l254 -245v-6h-228z" />
    <glyph glyph-name="caron" unicode="&#x2c7;" horiz-adv-x="1228" 
d="M614 1296l140 129h215v-4l-254 -247h-207l-250 247v4h223z" />
    <glyph glyph-name="breve" unicode="&#x2d8;" horiz-adv-x="1228" 
d="M768 1425h160q0 -145 -79 -204.5t-235 -59.5q-157 0 -235 59t-78 205h158q0 -75 36.5 -105t116.5 -30q81 0 118.5 30t37.5 105z" />
    <glyph glyph-name="dotaccent" unicode="&#x2d9;" horiz-adv-x="1228" 
d="M473 1311q0 63 38 96t107 33q67 0 104.5 -33t37.5 -96q0 -64 -37.5 -97.5t-104.5 -33.5q-68 0 -106.5 33.5t-38.5 97.5z" />
    <glyph glyph-name="ring" unicode="&#x2da;" horiz-adv-x="1228" 
d="M408 1321q0 92 59.5 146.5t153.5 54.5q92 0 150 -54.5t58 -146.5t-58.5 -145.5t-152.5 -53.5q-93 0 -151.5 53.5t-58.5 145.5zM522 1321q0 -45 27 -73.5t69 -28.5t70.5 29t28.5 73q0 45 -27.5 73.5t-68.5 28.5q-44 0 -71.5 -28t-27.5 -74z" />
    <glyph glyph-name="ogonek" unicode="&#x2db;" horiz-adv-x="1228" 
d="M641 -446q-52 0 -96 11t-81.5 35.5t-59 69.5t-21.5 107q0 96 53 169.5t129.5 107.5t157.5 32l6 -86q-91 -7 -141.5 -65.5t-50.5 -133.5q0 -55 31 -78.5t91 -23.5q79 0 136 35l34 -131q-82 -49 -188 -49z" />
    <glyph glyph-name="tilde" unicode="&#x2dc;" horiz-adv-x="1228" 
d="M811 1413h156q5 -61 -10.5 -106t-45 -69.5t-63.5 -36t-72 -11.5q-51 0 -103.5 20t-96.5 40t-74 20q-60 0 -60 -74h-155q-4 61 11.5 106t44 69.5t61.5 36t71 11.5q53 0 106.5 -20t98 -40t74.5 -20q34 0 45.5 19.5t11.5 54.5z" />
    <glyph glyph-name="hungarumlaut" unicode="&#x2dd;" horiz-adv-x="1228" 
d="M1085 1413l-254 -239h-178v8l160 243h272v-12zM727 1413l-203 -239h-172v8l131 243h244v-12z" />
    <glyph glyph-name="mu" unicode="&#x3bc;" horiz-adv-x="514" 
d="M258 1458q-72 0 -120 -47.5t-48 -118.5q0 -69 48 -116.5t120 -47.5q70 0 118 47.5t48 116.5q0 70 -48 118t-118 48zM258 1384q38 0 63 -26t25 -66q0 -38 -25 -64t-63 -26t-64 26t-26 64q0 40 26 66t64 26z" />
    <glyph glyph-name="Wgrave" unicode="&#x1e80;" horiz-adv-x="1908" 
d="M846 1430h223l297 -1092l297 1096h233l-415 -1434h-232l-297 1094l-295 -1094h-229l-414 1434h244l291 -1100zM879 1606l-246 239v13h274l160 -244v-8h-188z" />
    <glyph glyph-name="wgrave" unicode="&#x1e81;" horiz-adv-x="1540" 
d="M670 999h211l219 -735l213 742h215l-318 -1006h-225l-215 741l-211 -741h-223l-322 1006h222l217 -740zM692 1178l-246 239v13h275l160 -244v-8h-189z" />
    <glyph glyph-name="Wacute" unicode="&#x1e82;" horiz-adv-x="1908" 
d="M1280 1841l-246 -239h-186v8l160 243h272v-12zM846 1430h223l297 -1092l297 1096h233l-415 -1434h-232l-297 1094l-295 -1094h-229l-414 1434h244l291 -1100z" />
    <glyph glyph-name="wacute" unicode="&#x1e83;" horiz-adv-x="1540" 
d="M1094 1413l-246 -239h-186v8l159 243h273v-12zM670 999h211l219 -735l213 742h215l-318 -1006h-225l-215 741l-211 -741h-223l-322 1006h222l217 -740z" />
    <glyph glyph-name="Wdieresis" unicode="&#x1e84;" horiz-adv-x="1908" 
d="M1006 1739q0 64 36 96.5t103 32.5t103 -32.5t36 -96.5t-36 -97.5t-103 -33.5t-103 33.5t-36 97.5zM623 1739q0 63 36.5 96t102.5 33q67 0 103 -32.5t36 -96.5t-36 -97.5t-103 -33.5q-65 0 -102 33.5t-37 97.5zM846 1430h223l297 -1092l297 1096h233l-415 -1434h-232
l-297 1094l-295 -1094h-229l-414 1434h244l291 -1100z" />
    <glyph glyph-name="wdieresis" unicode="&#x1e85;" horiz-adv-x="1540" 
d="M823 1311q0 64 36.5 96.5t103.5 32.5t103 -32.5t36 -96.5t-36 -97.5t-103 -33.5t-103.5 33.5t-36.5 97.5zM440 1311q0 63 37 96t103 33q67 0 103 -32.5t36 -96.5t-36 -97.5t-103 -33.5q-66 0 -103 33.5t-37 97.5zM670 999h211l219 -735l213 742h215l-318 -1006h-225
l-215 741l-211 -741h-223l-322 1006h222l217 -740z" />
    <glyph glyph-name="enspace" unicode="&#x2002;" horiz-adv-x="1024" 
 />
    <glyph glyph-name="emspace" unicode="&#x2003;" horiz-adv-x="2048" 
 />
    <glyph glyph-name="threeperemspace" unicode="&#x2004;" horiz-adv-x="681" 
 />
    <glyph glyph-name="fourperemspace" unicode="&#x2005;" horiz-adv-x="512" 
 />
    <glyph glyph-name="sixperemspace" unicode="&#x2006;" horiz-adv-x="342" 
 />
    <glyph glyph-name="figurespace" unicode="&#x2007;" 
 />
    <glyph glyph-name="punctuationspace" unicode="&#x2008;" horiz-adv-x="491" 
 />
    <glyph glyph-name="thinspace" unicode="&#x2009;" horiz-adv-x="409" 
 />
    <glyph glyph-name="hairspace" unicode="&#x200a;" horiz-adv-x="204" 
 />
    <glyph glyph-name="zerowidthspace" unicode="&#x200b;" horiz-adv-x="0" 
 />
    <glyph glyph-name="figuredash" unicode="&#x2012;" horiz-adv-x="1200" 
d="M1100 625v-187h-1000v187h1000z" />
    <glyph glyph-name="endash" unicode="&#x2013;" horiz-adv-x="1204" 
d="M1106 625v-187h-1006v187h1006z" />
    <glyph glyph-name="emdash" unicode="&#x2014;" horiz-adv-x="1613" 
d="M1516 625v-187h-1416v187h1416z" />
    <glyph glyph-name="uni2015" unicode="&#x2015;" horiz-adv-x="2222" 
d="M2124 625v-187h-2024v187h2024z" />
    <glyph glyph-name="quoteleft" unicode="&#x2018;" horiz-adv-x="481" 
d="M338 1516l44 -97q-60 -19 -97 -64.5t-46 -109.5q67 6 105 -31t38 -98q0 -65 -36.5 -99t-100.5 -34q-145 0 -145 183q0 132 61 226.5t177 123.5z" />
    <glyph glyph-name="quoteright" unicode="&#x2019;" horiz-adv-x="481" 
d="M147 965l-44 97q124 40 143 173q-67 -6 -105 31t-38 98q0 65 36.5 99t100.5 34q145 0 145 -183q0 -131 -61 -225.5t-177 -123.5z" />
    <glyph glyph-name="quotesinglbase" unicode="&#x201a;" horiz-adv-x="477" 
d="M145 -270l-44 95q59 19 95.5 63.5t45.5 107.5q-66 -6 -103.5 31t-37.5 96q0 64 36.5 97.5t98.5 33.5q143 0 143 -181q0 -130 -60 -222t-174 -121z" />
    <glyph glyph-name="quotedblleft" unicode="&#x201c;" horiz-adv-x="835" 
d="M338 1516l44 -97q-60 -19 -97 -64.5t-46 -109.5q67 6 105 -31t38 -98q0 -65 -36.5 -99t-100.5 -34q-145 0 -145 183q0 132 61 226.5t177 123.5zM692 1515l45 -96q-60 -19 -97.5 -64.5t-46.5 -109.5q67 6 105.5 -31.5t38.5 -97.5q0 -65 -37 -99t-101 -34q-145 0 -145 183
q0 132 61 226t177 123z" />
    <glyph glyph-name="quotedblright" unicode="&#x201d;" horiz-adv-x="835" 
d="M143 963l-44 96q60 19 97 64.5t46 109.5q-67 -6 -105 31t-38 98q0 65 36.5 99t100.5 34q145 0 145 -183q0 -131 -61 -225.5t-177 -123.5zM500 963l-45 97q124 40 143 173q-67 -6 -105 31t-38 98q0 65 36.5 99t100.5 34q146 0 146 -183q0 -131 -61 -225.5t-177 -123.5z
" />
    <glyph glyph-name="quotedblbase" unicode="&#x201e;" horiz-adv-x="831" 
d="M145 -272l-44 95q59 19 95.5 63.5t45.5 107.5q-66 -6 -103.5 31t-37.5 96q0 64 36.5 97.5t98.5 33.5q143 0 143 -181q0 -130 -60 -222t-174 -121zM499 -272l-43 95q59 19 95 63.5t45 107.5q-66 -6 -103 31t-37 96q0 64 36 97.5t98 33.5q143 0 143 -181q0 -130 -60 -222
t-174 -121z" />
    <glyph glyph-name="dagger" unicode="&#x2020;" horiz-adv-x="636" 
d="M551 1051h-137l-4 -467h-187v467h-139v166h137l-6 243h207l-6 -243h135v-166z" />
    <glyph glyph-name="daggerdbl" unicode="&#x2021;" horiz-adv-x="636" 
d="M84 971h141v110h-141v166h137l-6 213h207l-8 -213h137v-166h-139v-110h139v-166h-137l8 -221h-207l6 221h-137v166z" />
    <glyph glyph-name="bullet" unicode="&#x2022;" horiz-adv-x="882" 
d="M115 670q0 146 87.5 233.5t239.5 87.5q151 0 238.5 -87.5t87.5 -233.5q0 -147 -87.5 -234.5t-238.5 -87.5q-152 0 -239.5 87t-87.5 235z" />
    <glyph glyph-name="ellipsis" unicode="&#x2026;" horiz-adv-x="1476" 
d="M1087 123q0 68 38 102.5t106 34.5q141 0 141 -137q0 -65 -37 -100t-104 -35t-105.5 35.5t-38.5 99.5zM594 123q0 68 38 102.5t107 34.5t105.5 -34.5t36.5 -102.5q0 -64 -37 -99.5t-105 -35.5t-106.5 35.5t-38.5 99.5zM102 123q0 68 38.5 102.5t107.5 34.5q67 0 104 -34.5
t37 -102.5q0 -64 -37.5 -99.5t-103.5 -35.5q-68 0 -107 35.5t-39 99.5z" />
    <glyph glyph-name="perthousand" unicode="&#x2030;" horiz-adv-x="3039" 
d="M1346 418q0 226 88 333t276 107q189 0 277 -107t88 -333t-88.5 -333.5t-276.5 -107.5q-189 0 -276.5 106.5t-87.5 334.5zM1894 418q0 161 -45.5 227t-138.5 66q-94 0 -139 -66.5t-45 -228.5q0 -161 45.5 -227t138.5 -66q94 0 139 66.5t45 228.5zM80 1018q0 226 88 333
t276 107q189 0 277 -107t88 -333t-88 -333t-277 -107t-276.5 106t-87.5 334zM629 1018q0 161 -45.5 227t-139.5 66t-139 -66.5t-45 -228.5q0 -161 45.5 -227t138.5 -66q94 0 139.5 66.5t45.5 228.5zM2224 418q0 226 88 333t277 107q188 0 276 -107t88 -333q0 -227 -88 -334
t-276 -107q-189 0 -277 106.5t-88 334.5zM2773 418q0 161 -45.5 227t-138.5 66q-94 0 -139.5 -66.5t-45.5 -228.5q0 -161 45.5 -227t139.5 -66t139 66.5t45 228.5zM1526 1434l-699 -1434h-211l701 1434h209z" />
    <glyph glyph-name="guilsinglleft" unicode="&#x2039;" horiz-adv-x="858" 
d="M496 0l-394 500v6l394 500h245l-397 -498l404 -508h-252z" />
    <glyph glyph-name="guilsinglright" unicode="&#x203a;" horiz-adv-x="858" 
d="M362 1006l394 -500v-6l-394 -500h-245l397 498l-403 508h251z" />
    <glyph glyph-name="fraction" unicode="&#x2044;" horiz-adv-x="1075" 
d="M985 1434l-698 -1434h-211l700 1434h209z" />
    <glyph glyph-name="uni2070" unicode="&#x2070;" horiz-adv-x="894" 
d="M80 1020q0 226 88 333t276 107q189 0 277 -107t88 -333t-88 -333t-277 -107t-276.5 106t-87.5 334zM629 1020q0 161 -45.5 227t-139.5 66t-139 -66.5t-45 -228.5q0 -161 45.5 -227t138.5 -66q94 0 139.5 66.5t45.5 228.5z" />
    <glyph glyph-name="uni2074" unicode="&#x2074;" horiz-adv-x="831" 
d="M49 788v123l260 527h178l-251 -496h278v318h168v-318h109v-154h-109v-186h-168v186h-465z" />
    <glyph glyph-name="uni2075" unicode="&#x2075;" horiz-adv-x="749" 
d="M262 1292l-20 -186q76 31 164 31q135 0 214.5 -66t79.5 -199q0 -137 -88 -214.5t-250 -77.5q-228 0 -321 147q4 4 60.5 47t62.5 47q63 -96 190 -96q76 0 121 38.5t45 106.5t-43 103t-121 35q-94 0 -166 -56l-110 54l39 430h543v-146z" />
    <glyph glyph-name="uni2076" unicode="&#x2076;" horiz-adv-x="841" 
d="M449 580q-178 0 -273.5 107.5t-95.5 330.5q0 442 371 442q105 0 182 -36.5t115 -106.5l-117 -96q-52 96 -174 96q-99 0 -150.5 -69t-50.5 -230v-21q27 59 85 94t138 35q130 0 203.5 -68.5t73.5 -193.5q0 -129 -78.5 -206.5t-228.5 -77.5zM283 858q0 -62 39.5 -99.5
t109.5 -37.5t112 36t42 103q0 63 -38.5 98t-113.5 35q-70 0 -110.5 -36t-40.5 -99z" />
    <glyph glyph-name="uni2077" unicode="&#x2077;" horiz-adv-x="663" 
d="M381 602h-193q0 199 72 379.5t195 300.5l-414 -4v158h612v-133q-132 -112 -202 -293.5t-70 -407.5z" />
    <glyph glyph-name="uni2078" unicode="&#x2078;" horiz-adv-x="823" 
d="M408 580q-159 0 -244.5 65t-85.5 186q0 158 145 205q-114 57 -114 185q0 239 299 239q303 0 303 -237q0 -64 -31.5 -112t-85.5 -75q145 -47 145 -205q0 -122 -85 -186.5t-246 -64.5zM547 1217q0 50 -36.5 78t-100.5 28q-66 0 -103 -27.5t-37 -78.5q0 -55 36 -85t102 -30
q67 0 103 30.5t36 84.5zM561 836q0 58 -39.5 90t-109.5 32q-74 0 -116 -32t-42 -90q0 -59 40.5 -91t113.5 -32q74 0 113.5 31.5t39.5 91.5z" />
    <glyph glyph-name="uni2079" unicode="&#x2079;" horiz-adv-x="839" 
d="M547 1176q0 65 -41 102t-111 37q-68 0 -108.5 -36t-40.5 -103q0 -66 37 -103t112 -37q69 0 110.5 38t41.5 102zM379 580q-103 0 -181.5 34.5t-117.5 100.5l113 96q55 -88 180 -88q209 0 202 303v12q-27 -63 -85 -99t-140 -36q-129 0 -203.5 70t-74.5 198q0 132 80 210.5
t235 78.5q174 0 269.5 -108t95.5 -330q0 -442 -373 -442z" />
    <glyph glyph-name="uni207A" unicode="&#x207a;" horiz-adv-x="636" 
d="M389 729h-139v184h-184v121h184v187h139v-187h184v-121h-184v-184z" />
    <glyph glyph-name="uni207B" unicode="&#x207b;" horiz-adv-x="636" 
d="M573 1034v-121h-507v121h507z" />
    <glyph glyph-name="uni207C" unicode="&#x207c;" horiz-adv-x="636" 
d="M573 1126v-122h-507v122h507zM573 942v-125h-507v125h507z" />
    <glyph glyph-name="uni207D" unicode="&#x207d;" horiz-adv-x="458" 
d="M410 590l-15 -139q-174 15 -257 142t-83 370q0 240 83 366t255 141l17 -141q-71 -8 -115.5 -44t-69 -115t-24.5 -207q0 -191 50.5 -274t158.5 -99z" />
    <glyph glyph-name="uni207E" unicode="&#x207e;" horiz-adv-x="458" 
d="M59 451l-16 139q72 10 117 46.5t69.5 116.5t24.5 210q0 188 -51 270.5t-160 95.5l18 141q340 -29 340 -507q0 -243 -84 -370t-258 -142z" />
    <glyph glyph-name="uni2080" unicode="&#x2080;" horiz-adv-x="894" 
d="M80 418q0 226 88 333t276 107q189 0 277 -107t88 -333t-88.5 -333.5t-276.5 -107.5q-189 0 -276.5 106.5t-87.5 334.5zM629 418q0 161 -45.5 227t-139.5 66t-139 -66.5t-45 -228.5q0 -161 45.5 -227t138.5 -66q94 0 139.5 66.5t45.5 228.5z" />
    <glyph glyph-name="uni2081" unicode="&#x2081;" horiz-adv-x="491" 
d="M369 0h-183v627l-98 -62l-68 140l232 135h117v-840z" />
    <glyph glyph-name="uni2082" unicode="&#x2082;" horiz-adv-x="768" 
d="M63 0v139l277 242q80 72 113.5 119t33.5 98q0 109 -133 109q-70 0 -112.5 -28t-75.5 -93l-123 88q51 98 131.5 141t200.5 43q135 0 216 -60t81 -180q0 -83 -46.5 -155.5t-154.5 -169.5l-156 -141l390 6v-158h-642z" />
    <glyph glyph-name="uni2083" unicode="&#x2083;" horiz-adv-x="770" 
d="M369 -23q-117 0 -196 38t-128 120l125 90q33 -55 77.5 -78.5t108.5 -23.5q77 0 118.5 30.5t41.5 90.5q0 112 -143 112h-101v138h101q57 0 89 28t32 80q0 107 -140 107q-62 0 -100 -23.5t-70 -81.5l-125 80q49 91 124.5 132.5t189.5 41.5q144 0 222.5 -61t78.5 -176
q0 -125 -113 -189q131 -53 131 -190q0 -122 -83 -193.5t-240 -71.5z" />
    <glyph glyph-name="uni2084" unicode="&#x2084;" horiz-adv-x="831" 
d="M49 186v123l260 527h178l-251 -496h278v317h168v-317h109v-154h-109v-186h-168v186h-465z" />
    <glyph glyph-name="uni2085" unicode="&#x2085;" horiz-adv-x="749" 
d="M262 690l-20 -186q76 31 164 31q135 0 214.5 -66t79.5 -199q0 -137 -88 -215t-250 -78q-227 0 -321 148q4 4 60.5 47t62.5 47q63 -96 190 -96q76 0 121 38.5t45 106.5t-43 103t-121 35q-94 0 -166 -56l-110 53l39 431h543v-146z" />
    <glyph glyph-name="uni2086" unicode="&#x2086;" horiz-adv-x="841" 
d="M449 -23q-178 0 -273.5 108t-95.5 331q0 442 371 442q105 0 182 -36.5t115 -106.5l-117 -97q-53 97 -174 97q-99 0 -150.5 -69t-50.5 -230v-21q27 59 85 94t138 35q130 0 203.5 -68.5t73.5 -193.5q0 -129 -78.5 -207t-228.5 -78zM283 256q0 -62 39.5 -99.5t109.5 -37.5
t112 36t42 103q0 63 -38.5 98t-113.5 35q-70 0 -110.5 -36t-40.5 -99z" />
    <glyph glyph-name="uni2087" unicode="&#x2087;" horiz-adv-x="663" 
d="M381 0h-193q0 199 72 379.5t195 300.5l-414 -4v158h612v-134q-132 -112 -202 -293t-70 -407z" />
    <glyph glyph-name="uni2088" unicode="&#x2088;" horiz-adv-x="823" 
d="M408 -23q-158 0 -244 65.5t-86 186.5q0 158 145 205q-114 57 -114 184q0 240 299 240q303 0 303 -237q0 -64 -31.5 -112t-85.5 -75q145 -47 145 -205q0 -122 -85 -187t-246 -65zM547 614q0 51 -36.5 79t-100.5 28q-66 0 -103 -28t-37 -79q0 -55 36 -84.5t102 -29.5
q67 0 103 30t36 84zM561 233q0 58 -40 90.5t-109 32.5q-74 0 -116 -32.5t-42 -90.5q0 -59 40.5 -90.5t113.5 -31.5q74 0 113.5 31t39.5 91z" />
    <glyph glyph-name="uni2089" unicode="&#x2089;" horiz-adv-x="839" 
d="M547 573q0 65 -41 102.5t-111 37.5q-68 0 -108.5 -36.5t-40.5 -103.5q0 -66 37 -102.5t112 -36.5q69 0 110.5 37.5t41.5 101.5zM379 -23q-103 0 -181.5 35t-117.5 101l113 96q55 -88 180 -88q209 0 202 303v12q-27 -63 -85 -99t-140 -36q-129 0 -203.5 70t-74.5 198
q0 132 80 210.5t235 78.5q174 0 269.5 -108t95.5 -330q0 -443 -373 -443z" />
    <glyph glyph-name="uni208A" unicode="&#x208a;" horiz-adv-x="636" 
d="M389 125h-139v184h-184v121h184v186h139v-186h184v-121h-184v-184z" />
    <glyph glyph-name="uni208B" unicode="&#x208b;" horiz-adv-x="636" 
d="M573 430v-121h-507v121h507z" />
    <glyph glyph-name="uni208C" unicode="&#x208c;" horiz-adv-x="636" 
d="M573 522v-123h-507v123h507zM573 338v-125h-507v125h507z" />
    <glyph glyph-name="uni208D" unicode="&#x208d;" horiz-adv-x="454" 
d="M410 -14l-15 -140q-174 15 -257 142t-83 370q0 240 83 366.5t255 141.5l17 -141q-71 -8 -115.5 -44.5t-69 -115.5t-24.5 -207q0 -191 50.5 -273.5t158.5 -98.5z" />
    <glyph glyph-name="uni208E" unicode="&#x208e;" horiz-adv-x="454" 
d="M59 -154l-16 140q73 10 117.5 46.5t69 116t24.5 209.5q0 189 -51.5 272t-159.5 95l18 141q340 -29 340 -508q0 -243 -84 -370t-258 -142z" />
    <glyph glyph-name="Euro" unicode="&#x20ac;" horiz-adv-x="1417" 
d="M807 -27q-271 0 -425 123t-198 389h-174v150h160q-2 25 -2 82v24h-158v150h166q33 296 189.5 432.5t445.5 136.5q197 0 324 -69.5t196 -227.5l-188 -112q-53 121 -130.5 170t-203.5 49q-174 0 -271 -85t-124 -294h594l-39 -150h-566v-22q0 -47 3 -84h536l-39 -150h-475
q32 -174 126 -246.5t255 -72.5q124 0 209.5 48t140.5 159l184 -105q-81 -152 -212.5 -223.5t-323.5 -71.5z" />
    <glyph glyph-name="trademark" unicode="&#x2122;" horiz-adv-x="1429" 
d="M43 1434h532v-119h-196v-484h-135v484h-201v119zM649 831v603h152l200 -461l205 461h148v-603h-131l2 373l-168 -373h-115l-166 367l4 -367h-131z" />
    <glyph glyph-name="uni2153" unicode="&#x2153;" horiz-adv-x="1753" 
d="M1350 -23q-117 0 -196 38t-128 120l125 90q33 -55 77.5 -78.5t108.5 -23.5q77 0 118.5 30.5t41.5 90.5q0 112 -143 112h-101v138h101q57 0 89 28t32 80q0 107 -140 107q-62 0 -100 -23.5t-70 -81.5l-125 80q49 91 124.5 132.5t189.5 41.5q144 0 222.5 -61t78.5 -176
q0 -125 -113 -189q131 -53 131 -190q0 -122 -83 -193.5t-240 -71.5zM369 600h-183v627l-98 -62l-68 140l232 135h117v-840zM1200 1434l-698 -1434h-211l700 1434h209z" />
    <glyph glyph-name="uni2154" unicode="&#x2154;" horiz-adv-x="2004" 
d="M1604 -23q-117 0 -196 38t-128 120l125 90q33 -55 77.5 -78.5t108.5 -23.5q77 0 118.5 30.5t41.5 90.5q0 112 -143 112h-101v138h101q57 0 89 28t32 80q0 107 -140 107q-62 0 -100 -23.5t-70 -81.5l-125 80q49 91 124.5 132.5t189.5 41.5q144 0 222.5 -61t78.5 -176
q0 -125 -113 -189q131 -53 131 -190q0 -122 -83 -193.5t-240 -71.5zM63 600v139l277 242q80 72 113.5 119t33.5 98q0 109 -133 109q-70 0 -112.5 -28t-75.5 -93l-123 88q51 98 131.5 141t200.5 43q136 0 216.5 -59.5t80.5 -179.5q0 -83 -47 -156.5t-154 -169.5l-156 -141
l390 6v-158h-642zM1454 1434l-698 -1434h-211l700 1434h209z" />
    <glyph glyph-name="uni2155" unicode="&#x2155;" horiz-adv-x="1738" 
d="M369 600h-183v627l-98 -62l-68 140l232 135h117v-840zM1251 690l-20 -186q76 31 164 31q135 0 215 -66t80 -199q0 -137 -88 -215t-250 -78q-228 0 -322 148q4 4 60.5 47t62.5 47q63 -96 190 -96q76 0 121 38.5t45 106.5t-42.5 103t-120.5 35q-94 0 -166 -56l-111 53
l39 431h543v-146zM1200 1434l-698 -1434h-211l700 1434h209z" />
    <glyph glyph-name="uni2156" unicode="&#x2156;" horiz-adv-x="1990" 
d="M63 600v139l277 242q80 72 113.5 119t33.5 98q0 109 -133 109q-70 0 -112.5 -28t-75.5 -93l-123 88q51 98 131.5 141t200.5 43q136 0 216.5 -59.5t80.5 -179.5q0 -83 -47 -156.5t-154 -169.5l-156 -141l390 6v-158h-642zM1503 690l-20 -186q76 31 164 31q135 0 215 -66
t80 -199q0 -137 -88 -215t-250 -78q-228 0 -322 148q4 4 60.5 47t62.5 47q63 -96 190 -96q76 0 121 38.5t45 106.5t-43 103t-121 35q-93 0 -165 -56l-111 53l39 431h543v-146zM1454 1434l-698 -1434h-211l700 1434h209z" />
    <glyph glyph-name="uni2157" unicode="&#x2157;" horiz-adv-x="1976" 
d="M369 578q-117 0 -196 37.5t-128 119.5l125 90q33 -55 77.5 -78.5t108.5 -23.5q77 0 118.5 30.5t41.5 90.5q0 112 -143 112h-101v138h101q57 0 89 28t32 80q0 107 -140 107q-62 0 -100 -23.5t-70 -81.5l-125 80q49 91 124.5 132.5t189.5 41.5q144 0 222.5 -61t78.5 -176
q0 -125 -113 -189q131 -53 131 -190q0 -122 -83 -193t-240 -71zM1489 690l-21 -186q76 31 164 31q135 0 215 -66t80 -199q0 -137 -88 -215t-250 -78q-227 0 -321 148q4 4 60.5 47t62.5 47q63 -96 190 -96q76 0 121 38.5t45 106.5t-43 103t-121 35q-94 0 -166 -56l-110 53
l39 431h542v-146zM1438 1434l-699 -1434h-211l701 1434h209z" />
    <glyph glyph-name="uni2158" unicode="&#x2158;" horiz-adv-x="2041" 
d="M1554 690l-20 -186q76 31 164 31q135 0 215 -66t80 -199q0 -137 -88 -215t-250 -78q-228 0 -322 148q4 4 60.5 47t62.5 47q63 -96 191 -96q76 0 120.5 38.5t44.5 106.5t-42.5 103t-120.5 35q-94 0 -166 -56l-111 53l39 431h543v-146zM1503 1434l-698 -1434h-211l700 1434
h209zM49 786v123l260 527h178l-251 -496h278v317h168v-317h109v-154h-109v-186h-168v186h-465z" />
    <glyph glyph-name="uni2159" unicode="&#x2159;" horiz-adv-x="1812" 
d="M369 600h-183v627l-98 -62l-68 140l232 135h117v-840zM1419 -23q-178 0 -273 108t-95 331q0 442 370 442q105 0 182 -36.5t115 -106.5l-116 -97q-53 97 -175 97q-99 0 -150 -69t-50 -230v-21q27 59 85 94t138 35q130 0 203 -68.5t73 -193.5q0 -129 -78.5 -207t-228.5 -78
zM1253 256q0 -62 40 -99.5t110 -37.5t111.5 36t41.5 103q0 63 -38 98t-113 35q-71 0 -111.5 -36t-40.5 -99zM1200 1434l-698 -1434h-211l700 1434h209z" />
    <glyph glyph-name="uni215A" unicode="&#x215a;" horiz-adv-x="2050" 
d="M262 1290l-20 -186q76 31 164 31q135 0 214.5 -66t79.5 -199q0 -137 -88 -214.5t-250 -77.5q-228 0 -321 147q4 4 60.5 47t62.5 47q63 -96 190 -96q76 0 121 38.5t45 106.5t-43 103t-121 35q-94 0 -166 -56l-110 54l39 430h543v-146zM1659 -23q-178 0 -273.5 108
t-95.5 331q0 442 371 442q105 0 182 -36.5t115 -106.5l-117 -97q-53 97 -174 97q-99 0 -150.5 -69t-50.5 -230v-21q27 59 85.5 94t138.5 35q130 0 203 -68.5t73 -193.5q0 -129 -78.5 -207t-228.5 -78zM1493 256q0 -62 39.5 -99.5t109.5 -37.5t112 36t42 103q0 63 -38 98
t-113 35q-71 0 -111.5 -36t-40.5 -99zM1438 1434l-699 -1434h-211l701 1434h209z" />
    <glyph glyph-name="uni215B" unicode="&#x215b;" horiz-adv-x="1798" 
d="M369 600h-183v627l-98 -62l-68 140l232 135h117v-840zM1384 -23q-158 0 -243.5 65.5t-85.5 186.5q0 158 145 205q-115 58 -115 184q0 240 299 240q304 0 304 -237q0 -64 -31.5 -112t-85.5 -75q145 -47 145 -205q0 -122 -85.5 -187t-246.5 -65zM1524 614q0 50 -37 78.5
t-101 28.5q-66 0 -102.5 -28t-36.5 -79q0 -55 35.5 -84.5t101.5 -29.5q67 0 103.5 30t36.5 84zM1538 233q0 58 -40 90.5t-109 32.5q-74 0 -116 -32.5t-42 -90.5q0 -59 40 -90.5t113 -31.5q74 0 114 31t40 91zM1200 1434l-698 -1434h-211l700 1434h209z" />
    <glyph glyph-name="uni215C" unicode="&#x215c;" horiz-adv-x="2035" 
d="M369 578q-117 0 -196 37.5t-128 119.5l125 90q33 -55 77.5 -78.5t108.5 -23.5q77 0 118.5 30.5t41.5 90.5q0 112 -143 112h-101v138h101q57 0 89 28t32 80q0 107 -140 107q-62 0 -100 -23.5t-70 -81.5l-125 80q49 91 124.5 132.5t189.5 41.5q144 0 222.5 -61t78.5 -176
q0 -125 -113 -189q131 -53 131 -190q0 -122 -83 -193t-240 -71zM1622 -23q-158 0 -244 65.5t-86 186.5q0 158 146 205q-115 58 -115 184q0 240 299 240q303 0 303 -237q0 -64 -31.5 -112t-85.5 -75q146 -47 146 -205q0 -122 -85.5 -187t-246.5 -65zM1761 614q0 51 -36.5 79
t-100.5 28q-66 0 -102.5 -28t-36.5 -79q0 -55 35.5 -84.5t101.5 -29.5q67 0 103 30t36 84zM1776 233q0 58 -40 90.5t-110 32.5q-74 0 -116 -32.5t-42 -90.5q0 -59 40.5 -90.5t113.5 -31.5q74 0 114 31t40 91zM1438 1434l-699 -1434h-211l701 1434h209z" />
    <glyph glyph-name="uni215D" unicode="&#x215d;" horiz-adv-x="2035" 
d="M1622 -23q-158 0 -244 65.5t-86 186.5q0 158 146 205q-115 58 -115 184q0 240 299 240q303 0 303 -237q0 -64 -31.5 -112t-85.5 -75q146 -47 146 -205q0 -122 -85.5 -187t-246.5 -65zM1761 614q0 51 -36.5 79t-100.5 28q-66 0 -102.5 -28t-36.5 -79q0 -55 35.5 -84.5
t101.5 -29.5q67 0 103 30t36 84zM1776 233q0 58 -40 90.5t-110 32.5q-74 0 -116 -32.5t-42 -90.5q0 -59 40.5 -90.5t113.5 -31.5q74 0 114 31t40 91zM262 1290l-20 -186q76 31 164 31q135 0 214.5 -66t79.5 -199q0 -137 -88 -214.5t-250 -77.5q-228 0 -321 147q4 4 60.5 47
t62.5 47q63 -96 190 -96q76 0 121 38.5t45 106.5t-43 103t-121 35q-94 0 -166 -56l-110 54l39 430h543v-146zM1438 1434l-699 -1434h-211l701 1434h209z" />
    <glyph glyph-name="uni215E" unicode="&#x215e;" horiz-adv-x="1888" 
d="M1473 -23q-158 0 -244 65.5t-86 186.5q0 158 145 205q-114 57 -114 184q0 240 299 240q303 0 303 -237q0 -64 -31.5 -112t-85.5 -75q145 -47 145 -205q0 -122 -85 -187t-246 -65zM1612 614q0 51 -36.5 79t-100.5 28q-66 0 -103 -28t-37 -79q0 -55 36 -84.5t102 -29.5
q67 0 103 30t36 84zM1626 233q0 58 -40 90.5t-109 32.5q-74 0 -116 -32.5t-42 -90.5q0 -59 40.5 -90.5t113.5 -31.5q74 0 113.5 31t39.5 91zM381 600h-193q0 199 72 379.5t195 300.5l-414 -4v158h612v-134q-132 -112 -202 -293t-70 -407zM1290 1434l-698 -1434h-211
l700 1434h209z" />
    <glyph glyph-name="uni215F" unicode="&#x215f;" horiz-adv-x="1701" 
d="M369 600h-183v627l-98 -62l-68 140l232 135h117v-840zM1200 1434l-698 -1434h-211l700 1434h209z" />
    <glyph glyph-name="minus" unicode="&#x2212;" horiz-adv-x="1038" 
d="M936 715v-162h-834v162h834z" />
    <glyph glyph-name="approxequal" unicode="&#x2248;" horiz-adv-x="1038" 
d="M713 823q51 0 113.5 14t109.5 46v-164q-42 -25 -109 -39t-131 -14q-75 0 -186.5 34.5t-177.5 34.5q-140 0 -230 -57v164q89 51 236 51q78 0 193 -35t182 -35zM713 514q135 0 223 59v-161q-43 -25 -110 -39.5t-130 -14.5q-75 0 -186.5 35t-177.5 35q-140 0 -230 -57v161
q91 52 236 52q78 0 193 -35t182 -35z" />
    <glyph glyph-name="notequal" unicode="&#x2260;" horiz-adv-x="1038" 
d="M102 702v162h498l119 164h170l-119 -164h166v-162h-281l-100 -137h381v-162h-498l-112 -161h-172l116 161h-168v162h283l100 137h-383z" />
    <glyph glyph-name="lessequal" unicode="&#x2264;" horiz-adv-x="1046" 
d="M764 1081l84 -129l-408 -264l410 -260l-86 -137l-559 348v92zM176 0v162h688v-162h-688z" />
    <glyph glyph-name="greaterequal" unicode="&#x2265;" horiz-adv-x="1046" 
d="M289 291l-82 131l405 262l-407 262l86 135l559 -348v-90zM864 162v-162h-688v162h688z" />
    <glyph glyph-name="commaaccent" unicode="&#xf6c3;" horiz-adv-x="1228" 
d="M520 -629l-43 94q61 17 98 59t46 101q-72 -1 -110 31t-38 94t35.5 93.5t99.5 31.5q146 0 146 -178q0 -122 -61.5 -211t-172.5 -115z" />
    <glyph glyph-name="doublebar" horiz-adv-x="974" 
d="M559 -133v1702h209v-1702h-209zM207 -133v1702h209v-1702h-209z" />
    <glyph glyph-name="reversequoteleft" horiz-adv-x="481" 
d="M338 965l45 97q-61 19 -98 64t-46 109q67 -6 105.5 31.5t38.5 97.5q0 65 -37 99t-101 34q-145 0 -145 -183q0 -131 61 -225.5t177 -123.5z" />
    <glyph glyph-name="reversequotedblleft" horiz-adv-x="835" 
d="M334 963l44 96q-60 19 -97 64.5t-46 109.5q67 -6 105 31t38 98q0 65 -36.5 99t-100.5 34q-145 0 -145 -183q0 -131 61 -225.5t177 -123.5zM692 963l45 96q-60 19 -97 64.5t-46 109.5q67 -6 105 31t38 98q0 65 -36.5 99t-100.5 34q-145 0 -145 -183q0 -131 60.5 -225.5
t176.5 -123.5z" />
    <glyph glyph-name="aogonek.school" horiz-adv-x="1265" 
d="M893 31l-14 137q-100 -195 -351 -195q-203 0 -313.5 135.5t-110.5 391.5q0 261 116 395.5t329 134.5q240 0 334 -184l20 160h191v-1006q-94 -7 -147.5 -65.5t-53.5 -133.5q0 -102 123 -102q80 0 137 35l33 -131q-79 -49 -187 -49q-52 0 -96.5 11t-82.5 35.5t-59.5 69.5
t-21.5 107q0 87 42.5 151.5t111.5 102.5zM866 504q0 177 -73.5 262.5t-198.5 85.5q-133 0 -197.5 -85t-64.5 -267q0 -177 65 -261.5t197 -84.5q125 0 198.5 86.5t73.5 263.5z" />
    <glyph glyph-name="a.school" horiz-adv-x="1265" 
d="M866 504q0 176 -74.5 262t-197.5 86q-133 0 -197.5 -85t-64.5 -267q0 -177 65 -261.5t197 -84.5q123 0 197.5 87t74.5 263zM891 0l-14 172q-49 -98 -138.5 -148.5t-210.5 -50.5q-202 0 -313 136t-111 391q0 259 117 394.5t330 135.5q234 0 332 -186l20 162h191v-1006
h-203z" />
    <glyph glyph-name="agrave.school" horiz-adv-x="1265" 
d="M866 504q0 176 -74.5 262t-197.5 86q-133 0 -197.5 -85t-64.5 -267q0 -177 65 -261.5t197 -84.5q123 0 197.5 87t74.5 263zM891 0l-14 172q-49 -98 -138.5 -148.5t-210.5 -50.5q-202 0 -313 136t-111 391q0 259 117 394.5t330 135.5q234 0 332 -186l20 162h191v-1006
h-203zM514 1178l-246 239v13h275l159 -244v-8h-188z" />
    <glyph glyph-name="aacute.school" horiz-adv-x="1265" 
d="M866 504q0 176 -74.5 262t-197.5 86q-133 0 -197.5 -85t-64.5 -267q0 -177 65 -261.5t197 -84.5q123 0 197.5 87t74.5 263zM891 0l-14 172q-49 -98 -138.5 -148.5t-210.5 -50.5q-202 0 -313 136t-111 391q0 259 117 394.5t330 135.5q234 0 332 -186l20 162h191v-1006
h-203zM913 1413l-245 -239h-187v8l160 243h272v-12z" />
    <glyph glyph-name="acircumflex.school" horiz-adv-x="1265" 
d="M588 1307l-135 -133h-215v6l249 245h207l254 -245v-6h-227zM866 504q0 176 -74.5 262t-197.5 86q-133 0 -197.5 -85t-64.5 -267q0 -177 65 -261.5t197 -84.5q123 0 197.5 87t74.5 263zM891 0l-14 172q-49 -98 -138.5 -148.5t-210.5 -50.5q-202 0 -313 136t-111 391
q0 259 117 394.5t330 135.5q234 0 332 -186l20 162h191v-1006h-203z" />
    <glyph glyph-name="adieresis.school" horiz-adv-x="1265" 
d="M641 1311q0 64 36 96.5t103 32.5t103.5 -32.5t36.5 -96.5t-36.5 -97.5t-103.5 -33.5t-103 33.5t-36 97.5zM258 1311q0 63 36.5 96t102.5 33q67 0 103.5 -32.5t36.5 -96.5t-36.5 -97.5t-103.5 -33.5q-65 0 -102 33.5t-37 97.5zM866 504q0 176 -74.5 262t-197.5 86
q-133 0 -197.5 -85t-64.5 -267q0 -177 65 -261.5t197 -84.5q123 0 197.5 87t74.5 263zM891 0l-14 172q-49 -98 -138.5 -148.5t-210.5 -50.5q-202 0 -313 136t-111 391q0 259 117 394.5t330 135.5q234 0 332 -186l20 162h191v-1006h-203z" />
    <glyph glyph-name="atilde.school" horiz-adv-x="1265" 
d="M866 504q0 176 -74.5 262t-197.5 86q-133 0 -197.5 -85t-64.5 -267q0 -177 65 -261.5t197 -84.5q123 0 197.5 87t74.5 263zM891 0l-14 172q-49 -98 -138.5 -148.5t-210.5 -50.5q-202 0 -313 136t-111 391q0 259 117 394.5t330 135.5q234 0 332 -186l20 162h191v-1006
h-203zM772 1413h156q5 -61 -10.5 -106t-45 -69.5t-63.5 -36t-72 -11.5q-51 0 -103.5 20t-96.5 40t-74 20q-60 0 -60 -74h-155q-4 61 11.5 106t44 69.5t61.5 36t71 11.5q53 0 106.5 -20t98 -40t74.5 -20q34 0 45.5 19.5t11.5 54.5z" />
    <glyph glyph-name="aring.school" horiz-adv-x="1265" 
d="M866 504q0 176 -74.5 262t-197.5 86q-133 0 -197.5 -85t-64.5 -267q0 -177 65 -261.5t197 -84.5q123 0 197.5 87t74.5 263zM891 0l-14 172q-49 -98 -138.5 -148.5t-210.5 -50.5q-202 0 -313 136t-111 391q0 259 117 394.5t330 135.5q234 0 332 -186l20 162h191v-1006
h-203zM377 1321q0 92 59.5 146.5t153.5 54.5q92 0 150.5 -54.5t58.5 -146.5t-58.5 -145.5t-152.5 -53.5q-93 0 -152 53.5t-59 145.5zM492 1321q0 -45 27 -73.5t69 -28.5t70 29t28 73q0 45 -27.5 73.5t-68.5 28.5q-44 0 -71 -28t-27 -74z" />
    <glyph glyph-name="amacron.school" horiz-adv-x="1265" 
d="M866 504q0 176 -74.5 262t-197.5 86q-133 0 -197.5 -85t-64.5 -267q0 -177 65 -261.5t197 -84.5q123 0 197.5 87t74.5 263zM891 0l-14 172q-49 -98 -138.5 -148.5t-210.5 -50.5q-202 0 -313 136t-111 391q0 259 117 394.5t330 135.5q234 0 332 -186l20 162h191v-1006
h-203zM864 1364v-141h-547v141h547z" />
    <glyph glyph-name="abreve.school" horiz-adv-x="1265" 
d="M866 504q0 176 -74.5 262t-197.5 86q-133 0 -197.5 -85t-64.5 -267q0 -177 65 -261.5t197 -84.5q123 0 197.5 87t74.5 263zM891 0l-14 172q-49 -98 -138.5 -148.5t-210.5 -50.5q-202 0 -313 136t-111 391q0 259 117 394.5t330 135.5q234 0 332 -186l20 162h191v-1006
h-203zM741 1425h160q0 -145 -78.5 -204.5t-234.5 -59.5q-157 0 -235.5 59.5t-78.5 204.5h158q0 -75 37 -105t117 -30q81 0 118 30t37 105z" />
    <glyph glyph-name="y.school" horiz-adv-x="1267" 
d="M567 -446q-173 17 -279.5 65t-164.5 166l147 115q48 -91 119.5 -130.5t173.5 -39.5q141 0 221 70.5t80 219.5v148q-52 -84 -135.5 -125t-183.5 -41q-193 0 -288 108.5t-95 303.5v592h229v-549q0 -267 211 -267q121 0 190 85t72 245v486h230v-965q0 -127 -38.5 -221.5
t-110 -152t-166 -85.5t-212.5 -28z" />
    <glyph glyph-name="yacute.school" horiz-adv-x="1267" 
d="M567 -446q-173 17 -279.5 65t-164.5 166l147 115q48 -91 119.5 -130.5t173.5 -39.5q141 0 221 70.5t80 219.5v148q-52 -84 -135.5 -125t-183.5 -41q-193 0 -288 108.5t-95 303.5v592h229v-549q0 -267 211 -267q121 0 190 85t72 245v486h230v-965q0 -127 -38.5 -221.5
t-110 -152t-166 -85.5t-212.5 -28zM897 1413l-246 -239h-186v8l160 243h272v-12z" />
    <glyph glyph-name="ycircumflex.school" horiz-adv-x="1267" 
d="M633 1307l-135 -133h-215v6l249 245h207l254 -245v-6h-227zM567 -446q-173 17 -279.5 65t-164.5 166l147 115q48 -91 119.5 -130.5t173.5 -39.5q141 0 221 70.5t80 219.5v148q-52 -84 -135.5 -125t-183.5 -41q-193 0 -288 108.5t-95 303.5v592h229v-549q0 -267 211 -267
q121 0 190 85t72 245v486h230v-965q0 -127 -38.5 -221.5t-110 -152t-166 -85.5t-212.5 -28z" />
    <glyph glyph-name="ydieresis.school" horiz-adv-x="1267" 
d="M688 1311q0 64 36 96.5t103 32.5t103.5 -32.5t36.5 -96.5t-36.5 -97.5t-103.5 -33.5t-103 33.5t-36 97.5zM305 1311q0 63 36.5 96t102.5 33q67 0 103.5 -32.5t36.5 -96.5t-36.5 -97.5t-103.5 -33.5q-65 0 -102 33.5t-37 97.5zM567 -446q-173 17 -279.5 65t-164.5 166
l147 115q48 -91 119.5 -130.5t173.5 -39.5q141 0 221 70.5t80 219.5v148q-52 -84 -135.5 -125t-183.5 -41q-193 0 -288 108.5t-95 303.5v592h229v-549q0 -267 211 -267q121 0 190 85t72 245v486h230v-965q0 -127 -38.5 -221.5t-110 -152t-166 -85.5t-212.5 -28z" />
    <glyph glyph-name="cordinal" horiz-adv-x="806" 
d="M430 707q-350 0 -350 378q0 190 91.5 282.5t264.5 92.5q214 0 299 -160l-123 -86q-53 109 -174 109q-98 0 -143 -54.5t-45 -185.5q0 -126 45 -182.5t141 -56.5q70 0 112.5 25.5t69.5 84.5l127 -67q-83 -180 -315 -180z" />
    <glyph glyph-name="ordfeminine.school" horiz-adv-x="911" 
d="M614 1085q0 121 -50 180.5t-134 59.5q-92 0 -136 -58.5t-44 -183.5q0 -123 45 -181t135 -58q85 0 134.5 59.5t49.5 181.5zM633 729l-10 115q-72 -137 -244 -137q-143 0 -222 96t-79 278q0 186 82.5 282.5t232.5 96.5q166 0 234 -133l16 111h143v-709h-153z" />
    <glyph glyph-name="caronSlovak" horiz-adv-x="1228" 
d="M684 954h-154l15 482h205z" />
    <glyph glyph-name="exclamdown.cap" horiz-adv-x="493" 
d="M127 0l35 1018h178l33 -1018h-246zM391 1311q0 -137 -141 -137q-68 0 -106 34.5t-38 102.5q0 64 38.5 99.5t105.5 35.5t104 -35t37 -100z" />
    <glyph glyph-name="questiondown.cap" horiz-adv-x="1040" 
d="M629 1026l4 -332h-101q-301 0 -301 -276q0 -123 77 -188.5t222 -65.5q117 0 194.5 49t135.5 170l154 -107q-73 -154 -198.5 -226.5t-311.5 -72.5q-230 0 -362 113t-132 313q0 193 106.5 303.5t303.5 127.5l4 192h205zM672 1319q0 -68 -37.5 -102.5t-106.5 -34.5
q-67 0 -104 34.5t-37 102.5q0 64 37.5 99.5t103.5 35.5q68 0 106 -35.5t38 -99.5z" />
    <glyph glyph-name="onethirdemdash" horiz-adv-x="778" 
d="M680 625v-187h-580v187h580z" />
    <glyph glyph-name="threequarteremdash" horiz-adv-x="1419" 
d="M1321 625v-187h-1221v187h1221z" />
    <glyph glyph-name="G.alt" horiz-adv-x="1529" 
d="M778 -27q-317 0 -476 183.5t-159 562.5q0 389 163 565t501 176q200 0 330.5 -67t203.5 -211l-192 -117q-55 106 -136 152.5t-208 46.5q-85 0 -148.5 -15t-117 -52.5t-87 -99t-51.5 -156t-18 -222.5q0 -157 26.5 -265t81.5 -171t129.5 -90t178.5 -27q363 0 360 393h-348
v182h578v-149q-1 -165 -43.5 -285.5t-123.5 -193t-191 -106.5t-253 -34z" />
    <glyph glyph-name="K.alt" horiz-adv-x="1370" 
d="M1063 0l-590 694v8l588 732h276l-579 -713l610 -721h-305zM211 0v1434h244v-1434h-244z" />
    <glyph glyph-name="k.alt" horiz-adv-x="1120" 
d="M174 0v1434h229v-1434h-229zM838 -2l-420 487v9l418 512h249l-413 -502l436 -504z" />
    <glyph glyph-name="at.cap" horiz-adv-x="1673" 
d="M1399 215q-195 -205 -543 -205q-334 0 -524.5 192.5t-190.5 514.5q0 320 190.5 511t524.5 191q321 0 497.5 -176t176.5 -473q0 -181 -85 -284t-241 -103q-167 0 -205 127q-67 -141 -249 -141q-106 0 -171 53.5t-65 152.5q0 105 77.5 164.5t233.5 59.5h156
q-3 91 -45 126.5t-129 35.5q-133 0 -197 -84l-71 90q88 120 288 120q308 0 308 -292v-189q0 -66 25.5 -97.5t84.5 -31.5q86 0 137.5 74.5t51.5 216.5q0 276 -156.5 419.5t-421.5 143.5q-282 0 -449 -158t-167 -456q0 -201 78.5 -341.5t216 -208t323.5 -67.5q312 0 481 181z
M786 481q87 0 139.5 56t53.5 153v6h-152q-86 0 -125.5 -26.5t-39.5 -85.5q0 -103 124 -103z" />
    <glyph glyph-name="zero.LP" horiz-adv-x="1492" 
d="M156 717q0 389 141 566t446 177q308 0 450 -177t142 -566q0 -386 -142.5 -565t-449.5 -179q-305 0 -446 177.5t-141 566.5zM1100 719q0 153 -23 260.5t-69.5 171.5t-111 92.5t-153.5 28.5q-88 0 -151 -27.5t-109.5 -91t-69 -172t-22.5 -266.5t22.5 -266.5t69 -171.5
t109.5 -90t151 -27q90 0 154 27t111 90.5t69.5 173t22.5 268.5z" />
    <glyph glyph-name="one.LP" horiz-adv-x="741" 
d="M535 0h-236v1151l-184 -123l-97 186l361 224h156v-1438z" />
    <glyph glyph-name="two.LP" horiz-adv-x="1236" 
d="M98 0v197l475 434q153 140 217 231t64 189q0 110 -67 164.5t-193 54.5q-130 0 -211 -56t-141 -178l-164 119q83 160 211.5 232.5t326.5 72.5q226 0 350 -99t124 -290q0 -138 -80 -265t-275 -310l-334 -303l754 4v-197h-1057z" />
    <glyph glyph-name="three.LP" horiz-adv-x="1267" 
d="M598 -27q-188 0 -316.5 63t-205.5 195l166 121q58 -100 142 -146t206 -46q151 0 231 64.5t80 193.5q0 229 -264 229h-191v189h185q108 0 170.5 58.5t62.5 160.5q0 217 -276 217q-113 0 -187.5 -46.5t-134.5 -152.5l-166 111q79 144 202 210t310 66q231 0 358.5 -98.5
t127.5 -288.5q0 -105 -50 -188.5t-145 -134.5q112 -37 172 -120.5t60 -207.5q0 -204 -136.5 -326.5t-400.5 -122.5z" />
    <glyph glyph-name="four.LP" horiz-adv-x="1339" 
d="M72 350v162l463 922h239l-455 -883h543v614h230v-614h204v-201h-204v-350h-230v350h-790z" />
    <glyph glyph-name="five.LP" horiz-adv-x="1226" 
d="M391 1239l-37 -393q129 72 305 72q105 0 192.5 -26.5t155 -79.5t105 -140.5t37.5 -202.5q0 -228 -144 -362t-413 -134q-175 0 -307.5 62t-208.5 188l166 125q116 -192 344 -192q156 0 242.5 83t86.5 226q0 138 -81.5 207t-227.5 69q-194 0 -330 -114l-141 69l70 738h874
v-195h-688z" />
    <glyph glyph-name="six.LP" horiz-adv-x="1394" 
d="M754 -27q-137 0 -245 43.5t-187.5 132t-121.5 231t-42 333.5q0 747 602 747q358 0 481 -235l-160 -125q-99 176 -319 176q-87 0 -152.5 -28.5t-116.5 -93t-77.5 -177.5t-26.5 -272v-50q43 112 151 178t251 66q225 0 352 -116t127 -330q0 -219 -133 -349.5t-383 -130.5z
M438 432q0 -125 81 -201.5t220 -76.5q137 0 217 72t80 212q0 138 -75 212.5t-224 74.5q-133 0 -216 -80t-83 -213z" />
    <glyph glyph-name="seven.LP" horiz-adv-x="1054" 
d="M319 0q0 346 126.5 682t342.5 551l-725 -4v205h1000v-185q-230 -167 -363 -506.5t-135 -742.5h-246z" />
    <glyph glyph-name="eight.LP" horiz-adv-x="1347" 
d="M672 -27q-255 0 -396 111t-141 309q0 141 72 230.5t196 121.5q-103 39 -161 122t-58 202q0 192 125 291.5t363 99.5q240 0 364.5 -98.5t124.5 -290.5q0 -120 -57.5 -203.5t-159.5 -122.5q123 -34 195.5 -123t72.5 -229q0 -198 -141 -309t-399 -111zM944 1063
q0 109 -70 166t-200 57q-131 0 -201 -56.5t-70 -166.5q0 -106 70.5 -166.5t200.5 -60.5q131 0 200.5 61t69.5 166zM981 401q0 118 -81.5 182t-223.5 64q-145 0 -227 -64t-82 -182q0 -123 79.5 -187t227.5 -64q147 0 227 64t80 187z" />
    <glyph glyph-name="nine.LP" horiz-adv-x="1390" 
d="M956 999q0 125 -81.5 202t-221.5 77q-135 0 -215 -75t-80 -218q0 -137 74.5 -211t222.5 -74q134 0 217.5 81.5t83.5 217.5zM635 -27q-359 0 -485 232l157 125q101 -172 326 -172q87 0 152.5 28.5t116.5 92t77.5 176.5t26.5 272v49q-43 -117 -151.5 -185.5t-250.5 -68.5
q-223 0 -349 120t-126 339q0 220 131.5 349.5t380.5 129.5q282 0 439 -181.5t157 -557.5q0 -748 -602 -748z" />
    <glyph glyph-name="zero.OT" 
d="M80 614q0 332 140.5 486.5t418.5 154.5q279 0 420 -155.5t141 -487.5q0 -639 -561 -639q-277 0 -418 156t-141 485zM977 614q0 170 -40 271.5t-112 142.5t-186 41q-84 0 -144 -22t-104.5 -73t-66 -140.5t-21.5 -219.5q0 -129 22 -217.5t66 -140t104 -74t144 -22.5
q85 0 145.5 22t105 73.5t66 140t21.5 218.5z" />
    <glyph glyph-name="one.OT" 
d="M190 0v203h330v743l-172 -123l-92 187l346 223h150v-1030h338v-203h-900z" />
    <glyph glyph-name="two.OT" 
d="M174 0l-2 190l414 345q68 57 102.5 87.5t75 71t58 68.5t30 62t12.5 71q0 172 -231 172q-111 0 -183 -49t-122 -156l-162 109q75 146 193.5 215t293.5 69q216 2 331.5 -84t115.5 -253q0 -126 -76 -236t-270 -268l-281 -232l678 4v-186h-977z" />
    <glyph glyph-name="three.OT" 
d="M629 -231q-186 0 -313.5 62.5t-204.5 195.5l161 118q57 -99 140.5 -145.5t205.5 -46.5q152 0 233 65t81 195q0 111 -65.5 170t-198.5 59h-189v189h185q106 0 168.5 58.5t62.5 160.5q0 219 -277 219q-113 0 -186.5 -46.5t-132.5 -152.5l-164 109q78 144 200 210t308 66
q228 0 354.5 -98.5t126.5 -288.5q0 -105 -49.5 -188.5t-142.5 -134.5q111 -37 170 -120t59 -208q0 -203 -135 -325.5t-397 -122.5z" />
    <glyph glyph-name="four.OT" 
d="M43 145v162l483 922h226l-465 -883h524v557h227v-557h197v-201h-197v-350h-227v350h-768z" />
    <glyph glyph-name="five.OT" 
d="M416 1034l-39 -393q129 72 305 72q104 0 190 -26.5t153 -79.5t104.5 -140.5t37.5 -202.5q0 -228 -143.5 -361.5t-409.5 -133.5q-361 0 -512 249l164 125q117 -194 342 -194q155 0 242.5 83.5t87.5 227.5q0 138 -81.5 207.5t-227.5 69.5q-194 0 -328 -115l-139 70l69 737
h867v-195h-682z" />
    <glyph glyph-name="six.OT" 
d="M680 -27q-278 0 -433 182t-155 558q0 747 596 747q354 0 477 -235l-157 -125q-99 176 -318 176q-69 0 -124 -17.5t-102 -58.5t-78.5 -105.5t-49 -163t-17.5 -226.5v-50q43 113 150 178.5t248 65.5q222 0 346.5 -115.5t124.5 -330.5q0 -219 -130.5 -349.5t-377.5 -130.5z
M367 432q0 -125 81 -201.5t220 -76.5q136 0 215.5 72t79.5 212q0 138 -74.5 212.5t-222.5 74.5q-134 0 -216.5 -80t-82.5 -213z" />
    <glyph glyph-name="seven.OT" 
d="M393 -205q0 347 125.5 683t341.5 550l-721 -4v205h994v-185q-229 -167 -361.5 -507t-132.5 -742h-246z" />
    <glyph glyph-name="eight.OT" 
d="M635 -27q-255 0 -395 111.5t-140 310.5q0 141 72 229.5t195 120.5q-101 39 -158 122t-57 202q0 194 123.5 292.5t359.5 98.5q237 0 361 -98t124 -291q0 -120 -57 -203.5t-158 -122.5q121 -32 192.5 -120.5t71.5 -229.5q0 -199 -139 -310.5t-395 -111.5zM905 1063
q0 109 -69.5 166t-198.5 57q-131 0 -200.5 -56.5t-69.5 -166.5q0 -106 69 -166.5t199 -60.5q131 0 200.5 61t69.5 166zM942 401q0 118 -81.5 182t-223.5 64q-143 0 -226 -64t-83 -182q0 -123 80 -187t227 -64t227 64t80 187z" />
    <glyph glyph-name="nine.OT" 
d="M911 795q0 125 -81 201.5t-220 76.5q-135 0 -215 -75t-80 -218q0 -138 74.5 -212t222.5 -74q133 0 216 82.5t83 218.5zM592 -231q-358 0 -481 231l155 125q98 -172 324 -172q68 0 123 17t102 58t78.5 105t49.5 162.5t18 226.5v49q-43 -117 -150 -184.5t-248 -67.5
q-222 0 -347.5 119.5t-125.5 337.5q0 220 130.5 349.5t377.5 129.5q136 0 242.5 -43t184.5 -131.5t119.5 -231t41.5 -333.5q0 -747 -594 -747z" />
    <glyph glyph-name="zero.OP" horiz-adv-x="1294" 
d="M115 614q0 332 133 486.5t397 154.5q266 0 400.5 -155.5t134.5 -487.5q0 -639 -535 -639q-263 0 -396.5 156t-133.5 485zM952 614q0 170 -36 271.5t-101.5 142.5t-169.5 41q-76 0 -130 -22t-94 -73.5t-59.5 -140.5t-19.5 -219q0 -129 19.5 -217.5t59.5 -140t94 -74
t130 -22.5q105 0 170 40t101 141t36 273z" />
    <glyph glyph-name="one.OP" horiz-adv-x="677" 
d="M508 0h-229v946l-173 -123l-92 187l344 223h150v-1233z" />
    <glyph glyph-name="two.OP" horiz-adv-x="1079" 
d="M100 0l-2 170l398 371q131 124 184 200.5t53 159.5q0 86 -54 128t-151 42q-96 0 -162.5 -49.5t-117.5 -151.5l-162 109q68 141 180 208.5t281 67.5q197 0 307.5 -84t110.5 -243q0 -117 -72.5 -229t-241.5 -275l-256 -250l602 6v-180h-897z" />
    <glyph glyph-name="three.OP" horiz-adv-x="1210" 
d="M565 -233q-179 0 -300.5 62.5t-196.5 195.5l163 118q54 -100 131.5 -147t190.5 -47q149 0 229 66t80 196q0 111 -65 170t-195 59h-180v189h176q103 0 163 58.5t60 160.5q0 112 -69 167.5t-199 55.5q-103 0 -171 -47t-124 -154l-164 109q75 144 191 210t293 66
q226 0 350.5 -99t124.5 -290q0 -104 -49.5 -187t-143.5 -134q111 -37 170.5 -120.5t59.5 -207.5q0 -205 -133.5 -327.5t-391.5 -122.5z" />
    <glyph glyph-name="four.OP" horiz-adv-x="1282" 
d="M70 145v156l440 928h229l-430 -895h516v627h222v-627h192v-189h-192v-350h-222v350h-755z" />
    <glyph glyph-name="five.OP" horiz-adv-x="1171" 
d="M381 1038l-37 -397q123 72 289 72q101 0 184.5 -26t148 -79t100.5 -142t36 -206q0 -225 -139 -358t-394 -133q-356 0 -501 249l161 123q57 -99 137 -145.5t195 -46.5q145 0 228 83.5t83 223.5q0 281 -301 281q-174 0 -305 -115l-139 70l70 737h835v-191h-651z" />
    <glyph glyph-name="six.OP" horiz-adv-x="1331" 
d="M725 -27q-273 0 -424 182t-151 558q0 747 581 747q345 0 463 -235l-160 -125q-92 176 -301 176q-83 0 -145.5 -28.5t-111 -93t-74 -177t-25.5 -272.5v-50q40 113 143.5 178.5t241.5 65.5q216 0 336.5 -115.5t120.5 -330.5q0 -219 -126.5 -349.5t-367.5 -130.5zM426 432
q0 -125 76.5 -201.5t208.5 -76.5q129 0 204.5 72t75.5 212q0 138 -70 212.5t-212 74.5q-127 0 -205 -80t-78 -213z" />
    <glyph glyph-name="seven.OP" horiz-adv-x="1009" 
d="M305 -205q0 346 121 682t328 551l-693 -4v205h955v-185q-218 -167 -344.5 -506.5t-128.5 -742.5h-238z" />
    <glyph glyph-name="eight.OP" horiz-adv-x="1290" 
d="M643 -27q-245 0 -379.5 111.5t-134.5 310.5q0 141 69 229.5t187 120.5q-98 39 -153.5 122t-55.5 202q0 194 119 292.5t348 98.5q230 0 349.5 -98t119.5 -291q0 -120 -54.5 -203.5t-152.5 -122.5q116 -32 185 -121t69 -229q0 -199 -134.5 -310.5t-381.5 -111.5zM897 1063
q0 110 -64.5 166.5t-187.5 56.5q-125 0 -189.5 -56.5t-64.5 -166.5q0 -106 65 -166.5t187 -60.5q126 0 190 60.5t64 166.5zM934 401q0 118 -76.5 182t-210.5 64q-138 0 -214.5 -63.5t-76.5 -182.5q0 -123 74 -186t213 -63q140 0 215.5 63t75.5 186z" />
    <glyph glyph-name="nine.OP" horiz-adv-x="1329" 
d="M913 795q0 125 -76 201.5t-208 76.5q-127 0 -203 -75t-76 -218q0 -138 69.5 -211t209.5 -73q128 0 206 81.5t78 217.5zM608 -231q-347 0 -467 231l158 125q95 -172 309 -172q66 0 118.5 17t98 58t76 105.5t47.5 162.5t17 226v49q-40 -117 -143.5 -185.5t-241.5 -68.5
q-215 0 -336 119.5t-121 339.5t126 349.5t367 129.5q133 0 237.5 -43t181 -131.5t117 -231t40.5 -333.5q0 -747 -584 -747z" />
    <glyph glyph-name="zero.inf" horiz-adv-x="894" 
d="M80 8q0 227 88 334t276 107t276.5 -107.5t88.5 -333.5t-88 -333t-277 -107t-276.5 106t-87.5 334zM629 8q0 161 -45.5 227t-139.5 66t-139 -66.5t-45 -228.5q0 -161 45.5 -227t138.5 -66q94 0 139.5 66.5t45.5 228.5z" />
    <glyph glyph-name="one.inf" horiz-adv-x="491" 
d="M369 -410h-183v627l-98 -61l-68 139l232 135h117v-840z" />
    <glyph glyph-name="two.inf" horiz-adv-x="768" 
d="M63 -410v140l277 241q80 72 113.5 119t33.5 98q0 109 -133 109q-70 0 -112.5 -28t-75.5 -93l-123 88q52 98 132.5 141.5t199.5 43.5q135 0 216 -60t81 -180q0 -83 -47 -156.5t-154 -169.5l-156 -141l390 6v-158h-642z" />
    <glyph glyph-name="three.inf" horiz-adv-x="770" 
d="M369 -432q-117 0 -196 38t-128 120l125 90q33 -55 77.5 -79t108.5 -24q77 0 118.5 30.5t41.5 90.5q0 113 -143 113h-101v137h101q57 0 89 28.5t32 80.5q0 106 -140 106q-62 0 -100 -23t-70 -81l-125 79q49 92 125 133.5t189 41.5q143 0 222 -61.5t79 -176.5
q0 -124 -113 -188q131 -53 131 -191q0 -122 -83 -193t-240 -71z" />
    <glyph glyph-name="four.inf" horiz-adv-x="831" 
d="M49 -223v123l260 526h178l-251 -496h278v318h168v-318h109v-153h-109v-187h-168v187h-465z" />
    <glyph glyph-name="five.inf" horiz-adv-x="749" 
d="M262 281l-20 -187q76 31 164 31q135 0 214.5 -65.5t79.5 -198.5q0 -137 -88 -215t-250 -78q-228 0 -321 147q4 4 61 47.5t62 47.5q63 -97 190 -97q76 0 121 39t45 107t-43 102.5t-121 34.5q-95 0 -166 -55l-110 53l39 430h543v-145z" />
    <glyph glyph-name="six.inf" horiz-adv-x="841" 
d="M449 -432q-178 0 -273.5 107.5t-95.5 330.5q0 443 371 443q105 0 182 -37t115 -107l-117 -96q-52 96 -174 96q-99 0 -150.5 -69t-50.5 -230v-20q27 59 85 94t138 35q130 0 203.5 -68.5t73.5 -193.5q0 -129 -78.5 -207t-228.5 -78zM283 -154q0 -62 39.5 -99.5t109.5 -37.5
t112 36t42 103q0 63 -38.5 98.5t-113.5 35.5q-70 0 -110.5 -36.5t-40.5 -99.5z" />
    <glyph glyph-name="seven.inf" horiz-adv-x="663" 
d="M381 -410h-193q0 199 72 379.5t195 300.5l-414 -4v158h612v-133q-132 -112 -202 -293.5t-70 -407.5z" />
    <glyph glyph-name="eight.inf" horiz-adv-x="823" 
d="M408 -432q-158 0 -244 65.5t-86 186.5q0 158 145 205q-114 57 -114 184q0 240 299 240q303 0 303 -238q0 -127 -117 -186q145 -47 145 -205q0 -122 -85 -187t-246 -65zM547 205q0 50 -36.5 78t-100.5 28q-66 0 -103 -27.5t-37 -78.5q0 -55 36 -85t102 -30q67 0 103 30.5
t36 84.5zM561 -176q0 58 -40 90.5t-109 32.5q-74 0 -116 -32.5t-42 -90.5q0 -59 40.5 -91t113.5 -32q74 0 113.5 31.5t39.5 91.5z" />
    <glyph glyph-name="nine.inf" horiz-adv-x="839" 
d="M547 164q0 65 -41 102t-111 37q-68 0 -108.5 -36t-40.5 -103q0 -66 37 -102.5t112 -36.5q69 0 110.5 37.5t41.5 101.5zM379 -432q-103 0 -181.5 34.5t-117.5 100.5l113 96q55 -88 180 -88q209 0 202 303v13q-27 -63 -85.5 -99.5t-139.5 -36.5q-129 0 -203.5 70.5
t-74.5 198.5q0 132 80 210.5t235 78.5q174 0 269.5 -108t95.5 -331q0 -442 -373 -442z" />
    <glyph glyph-name="plus.inf" horiz-adv-x="636" 
d="M389 -285h-139v185h-184v120h184v187h139v-187h184v-120h-184v-185z" />
    <glyph glyph-name="minus.inf" horiz-adv-x="636" 
d="M573 20v-120h-507v120h507z" />
    <glyph glyph-name="equal.inf" horiz-adv-x="636" 
d="M573 113v-123h-507v123h507zM573 -72v-125h-507v125h507z" />
    <glyph glyph-name="parenleft.inf" horiz-adv-x="454" 
d="M410 -424l-15 -139q-174 15 -257 142t-83 370q0 240 83 366.5t255 141.5l17 -142q-71 -8 -115.5 -44t-69 -115t-24.5 -207q0 -191 50.5 -274t158.5 -99z" />
    <glyph glyph-name="parenright.inf" horiz-adv-x="454" 
d="M59 -563l-16 139q72 10 117 46.5t69.5 116.5t24.5 210q0 188 -51 270.5t-160 95.5l18 142q340 -29 340 -508q0 -243 -84 -370t-258 -142z" />
    <glyph glyph-name="idotaccent" horiz-adv-x="581" 
d="M145 1311q0 67 38 101t108 34t107.5 -34t37.5 -101t-37.5 -101t-107.5 -34t-108 34t-38 101zM176 1006h232v-1006h-232v1006z" />
    <glyph glyph-name="kcommaaccent.alt" horiz-adv-x="1120" 
d="M514 -629l-43 94q61 17 97.5 59t45.5 101q-72 -1 -109.5 31t-37.5 94t35.5 93.5t99.5 31.5q146 0 146 -178q0 -122 -61.5 -211t-172.5 -115zM174 0v1434h229v-1434h-229zM838 -2l-420 487v9l418 512h249l-413 -502l436 -504z" />
    <glyph glyph-name="Gbreve.alt" horiz-adv-x="1529" 
d="M952 1855h160q0 -145 -78.5 -204.5t-234.5 -59.5q-157 0 -235.5 59.5t-78.5 204.5h158q0 -75 37 -105t117 -30q81 0 118 30t37 105zM778 -27q-317 0 -476 183.5t-159 562.5q0 389 163 565t501 176q200 0 330.5 -67t203.5 -211l-192 -117q-55 106 -136 152.5t-208 46.5
q-85 0 -148.5 -15t-117 -52.5t-87 -99t-51.5 -156t-18 -222.5q0 -157 26.5 -265t81.5 -171t129.5 -90t178.5 -27q363 0 360 393h-348v182h578v-149q-1 -165 -43.5 -285.5t-123.5 -193t-191 -106.5t-253 -34z" />
    <glyph glyph-name="Gcircumflex.alt" horiz-adv-x="1529" 
d="M801 1737l-135 -133h-215v6l249 245h207l254 -245v-6h-227zM778 -27q-317 0 -476 183.5t-159 562.5q0 389 163 565t501 176q200 0 330.5 -67t203.5 -211l-192 -117q-55 106 -136 152.5t-208 46.5q-85 0 -148.5 -15t-117 -52.5t-87 -99t-51.5 -156t-18 -222.5
q0 -157 26.5 -265t81.5 -171t129.5 -90t178.5 -27q363 0 360 393h-348v182h578v-149q-1 -165 -43.5 -285.5t-123.5 -193t-191 -106.5t-253 -34z" />
    <glyph glyph-name="Gcommaaccent.alt" horiz-adv-x="1529" 
d="M778 -27q-317 0 -476 183.5t-159 562.5q0 389 163 565t501 176q200 0 330.5 -67t203.5 -211l-192 -117q-55 106 -136 152.5t-208 46.5q-85 0 -148.5 -15t-117 -52.5t-87 -99t-51.5 -156t-18 -222.5q0 -157 26.5 -265t81.5 -171t129.5 -90t178.5 -27q363 0 360 393h-348
v182h578v-149q-1 -165 -43.5 -285.5t-123.5 -193t-191 -106.5t-253 -34zM694 -629l-43 94q61 17 98 59t46 101h-9q-67 0 -103 32t-36 93q0 62 35.5 93.5t99.5 31.5q146 0 146 -178q0 -122 -61.5 -211t-172.5 -115z" />
    <glyph glyph-name="Gdotaccent.alt" horiz-adv-x="1529" 
d="M657 1741q0 63 38.5 96t107.5 33q67 0 104 -32.5t37 -96.5t-37 -97.5t-104 -33.5q-69 0 -107.5 33.5t-38.5 97.5zM778 -27q-317 0 -476 183.5t-159 562.5q0 389 163 565t501 176q200 0 330.5 -67t203.5 -211l-192 -117q-55 106 -136 152.5t-208 46.5q-85 0 -148.5 -15
t-117 -52.5t-87 -99t-51.5 -156t-18 -222.5q0 -157 26.5 -265t81.5 -171t129.5 -90t178.5 -27q363 0 360 393h-348v182h578v-149q-1 -165 -43.5 -285.5t-123.5 -193t-191 -106.5t-253 -34z" />
    <glyph glyph-name="Kcommaaccent.alt" horiz-adv-x="1370" 
d="M645 -629l-43 94q61 17 97.5 59t45.5 101q-72 -1 -109.5 31t-37.5 94t35.5 93.5t99.5 31.5q146 0 146 -178q0 -122 -61.5 -211t-172.5 -115zM1063 0l-590 694v8l588 732h276l-579 -713l610 -721h-305zM211 0v1434h244v-1434h-244z" />
    <glyph glyph-name="hyphen.cap" horiz-adv-x="917" 
d="M819 817v-186h-719v186h719z" />
    <glyph glyph-name="endash.cap" horiz-adv-x="1204" 
d="M1106 817v-186h-1006v186h1006z" />
    <glyph glyph-name="emdash.cap" horiz-adv-x="1613" 
d="M1516 817v-186h-1416v186h1416z" />
    <glyph glyph-name="figuredash.cap" horiz-adv-x="1200" 
d="M1100 817v-186h-1000v186h1000z" />
    <glyph glyph-name="l.alt" horiz-adv-x="581" 
d="M408 1434v-1434h-232v1434h232z" />
    <glyph glyph-name="fl.alt" horiz-adv-x="1345" 
d="M223 0v831h-178v175h178v104q0 369 344 369q107 0 187 -39l-39 -172q-57 26 -117 26q-75 0 -112 -43t-37 -149v-96h280v-175h-280v-831h-226zM1159 1434v-1434h-231v1434h231z" />
    </font>
</defs></svg>
Aacute,Acircumflex,Atilde,Adieresis,Aring,Amacron,Abreve,Aogonek"
	g2="T,Tcaron,Tbar,uni021A"
	k="72" />
    </font>
</defs>
</svg>
