<?xml version="1.0" standalone="no"?>
<!DOCTYPE svg PUBLIC "-//W3C//DTD SVG 1.1//EN" "http://www.w3.org/Graphics/SVG/1.1/DTD/svg11.dtd" >
<svg xmlns="http://www.w3.org/2000/svg" xmlns:xlink="http://www.w3.org/1999/xlink" version="1.1">
<metadata>
Created by FontForge 20170731 at Thu Sep 17 01:26:05 2020
 By Aleksey,,,
(c) 2015 MCKL. All Rights Reserved.
</metadata>
<defs>
<font id="HoneywellCond-Bold" horiz-adv-x="933" >
  <font-face 
    font-family="Honeywell Cond"
    font-weight="700"
    font-stretch="condensed"
    units-per-em="2048"
    panose-1="2 11 8 6 3 2 2 6 1 3"
    ascent="1597"
    descent="-451"
    x-height="1004"
    cap-height="1434"
    bbox="-160 -627 2255 1952"
    underline-thickness="102"
    underline-position="-307"
    unicode-range="U+0020-FB02"
  />
<missing-glyph horiz-adv-x="1417" 
d="M174 0v1434h1071v-1434h-1071zM408 1305l303 -496l301 496h-604zM635 711l-332 540v-1081zM786 711l330 -537v1075zM707 612l-293 -483h590z" />
    <glyph glyph-name="fi" unicode="fi" horiz-adv-x="1042" 
d="M817 1176q-60 0 -93.5 35.5t-33.5 99.5q0 65 33 98t94 33t94 -33t33 -98q0 -64 -33.5 -99.5t-93.5 -35.5zM575 834h-204v-834h-207v834h-131v170h131v129q0 173 81 260.5t212 87.5q91 0 155 -45l-51 -168q-42 22 -86 22q-104 0 -104 -164v-122h204v-170zM713 1004h209
v-1004h-209v1004z" />
    <glyph glyph-name="fl" unicode="fl" horiz-adv-x="1071" 
d="M575 834h-204v-834h-207v834h-131v170h131v129q0 173 81 260.5t212 87.5q91 0 155 -45l-51 -168q-42 22 -86 22q-104 0 -104 -164v-122h204v-170zM932 0q-106 0 -164.5 57.5t-58.5 188.5v1188h206v-1184q0 -40 19.5 -61t46.5 -21h76v-168h-125z" />
    <glyph glyph-name=".notdef" horiz-adv-x="1417" 
d="M174 0v1434h1071v-1434h-1071zM408 1305l303 -496l301 496h-604zM635 711l-332 540v-1081zM786 711l330 -537v1075zM707 612l-293 -483h590z" />
    <glyph glyph-name=".null" horiz-adv-x="0" 
 />
    <glyph glyph-name="nonmarkingreturn" horiz-adv-x="682" 
 />
    <glyph glyph-name="space" unicode=" " horiz-adv-x="362" 
 />
    <glyph glyph-name="exclam" unicode="!" horiz-adv-x="389" 
d="M303 1434l-33 -1022h-153l-31 1022h217zM195 -12q-58 0 -90.5 35.5t-32.5 97.5q0 64 32 97.5t91 33.5q60 0 92 -33.5t32 -97.5q0 -62 -32.5 -97.5t-91.5 -35.5z" />
    <glyph glyph-name="quotedbl" unicode="&#x22;" horiz-adv-x="604" 
d="M358 991l-14 469h180l-24 -469h-142zM248 991h-144l-24 469h180z" />
    <glyph glyph-name="numbersign" unicode="#" horiz-adv-x="1179" 
d="M678 582l72 307h-232l-72 -307h232zM547 0l98 420h-235l-95 -420h-202l94 420h-162l41 162h156l71 307h-174l43 158h164l90 387h201l-86 -387h235l86 387h203l-88 -387h168l-39 -158h-164l-71 -307h180l-41 -162h-174l-96 -420h-203z" />
    <glyph glyph-name="dollar" unicode="$" horiz-adv-x="925" 
d="M408 852v381q-72 -11 -108 -60.5t-36 -119.5q0 -132 144 -201zM520 190q71 13 109.5 62.5t38.5 122.5q0 78 -33.5 126.5t-114.5 86.5v-398zM408 -127v150q-138 11 -232.5 88t-142.5 235l168 70q53 -195 207 -226v439l-5 4q-321 123 -321 407q0 150 86.5 248t239.5 111
v170h112v-170q265 -25 332 -314l-168 -67q-50 176 -164 207v-416l15 -4q166 -65 243.5 -162.5t77.5 -249.5q0 -160 -87.5 -254.5t-248.5 -109.5v-156h-112z" />
    <glyph glyph-name="percent" unicode="%" horiz-adv-x="1652" 
d="M1020 420q0 228 68 333t217 105q147 0 213.5 -105t66.5 -333q0 -227 -66.5 -331.5t-213.5 -104.5q-148 0 -216.5 106t-68.5 330zM1430 420q0 165 -31.5 235t-93.5 70q-64 0 -95.5 -70t-31.5 -233q0 -167 31.5 -237t95.5 -70q62 0 93.5 70t31.5 235zM57 1020q0 228 68 333
t217 105q147 0 214 -105t67 -333q0 -227 -67 -331.5t-214 -104.5q-148 0 -216.5 106t-68.5 330zM467 1020q0 165 -31.5 235t-93.5 70q-64 0 -95.5 -70t-31.5 -233q0 -167 31.5 -237t95.5 -70q62 0 93.5 70t31.5 235zM1176 1434l-529 -1434h-182l530 1434h181z" />
    <glyph glyph-name="ampersand" unicode="&#x26;" horiz-adv-x="1122" 
d="M1012 -35q-89 49 -219 154q-143 -146 -353 -146q-181 0 -287 100t-106 285q0 119 49 216t156 186q-105 205 -105 383q0 145 82 231t232 86q141 0 214 -72t73 -204q0 -133 -58.5 -238t-204.5 -219q104 -161 279 -332q103 227 100 584h189q-3 -444 -148 -709
q106 -87 207 -143zM328 1147q0 -126 73 -275q85 69 125.5 139.5t40.5 153.5q0 62 -32 95.5t-82 33.5q-125 0 -125 -147zM457 143q112 0 202 90q-191 182 -319 373q-98 -101 -98 -235q0 -105 58 -166.5t157 -61.5z" />
    <glyph glyph-name="quotesingle" unicode="'" horiz-adv-x="339" 
d="M100 991l-20 469h180l-20 -469h-140z" />
    <glyph glyph-name="parenleft" unicode="(" horiz-adv-x="563" 
d="M516 -35l-53 -174q-202 40 -302 249.5t-100 600.5t99.5 600.5t300.5 249.5l55 -174q-93 -29 -150 -98t-88.5 -211t-31.5 -367q0 -226 31.5 -368t88.5 -211t150 -97z" />
    <glyph glyph-name="parenright" unicode=")" horiz-adv-x="563" 
d="M41 -35l53 -174q202 40 302 249.5t100 600.5t-99.5 600.5t-300.5 249.5l-55 -174q93 -29 150 -98t88.5 -211t31.5 -367q0 -226 -31.5 -368t-88.5 -211t-150 -97z" />
    <glyph glyph-name="asterisk" unicode="*" horiz-adv-x="673" 
d="M211 733l-129 90l135 211l-186 76l57 156l172 -80l-12 274h176l-12 -274l174 80l55 -154l-186 -78l137 -211l-131 -90l-127 203z" />
    <glyph glyph-name="plus" unicode="+" horiz-adv-x="792" 
d="M475 236h-156v323h-237v154h237v323h156v-323h238v-154h-238v-323z" />
    <glyph glyph-name="comma" unicode="," horiz-adv-x="395" 
d="M113 -279l-56 93q124 62 136 180q-53 -2 -86 31.5t-33 97.5q0 63 32.5 96t90.5 33q129 0 129 -166q0 -127 -55.5 -225t-157.5 -140z" />
    <glyph glyph-name="hyphen" unicode="-" horiz-adv-x="720" 
d="M641 618v-180h-561v180h561z" />
    <glyph glyph-name="period" unicode="." horiz-adv-x="391" 
d="M197 -12q-59 0 -91 35.5t-32 97.5q0 131 123 131q60 0 92.5 -33.5t32.5 -97.5q0 -62 -33 -97.5t-92 -35.5z" />
    <glyph glyph-name="slash" unicode="/" horiz-adv-x="841" 
d="M834 1434l-605 -1434h-221l604 1434h222z" />
    <glyph glyph-name="zero" unicode="0" horiz-adv-x="1095" 
d="M92 717q0 389 109.5 566t349.5 177q236 0 345.5 -177.5t109.5 -565.5q0 -387 -110 -565.5t-345 -178.5q-239 0 -349 179.5t-110 564.5zM793 715q0 209 -29 335t-80.5 177t-132.5 51q-125 0 -185.5 -128.5t-60.5 -430.5q0 -212 29 -338.5t81.5 -176.5t135.5 -50
q81 0 132.5 50t80.5 175.5t29 335.5z" />
    <glyph glyph-name="one" unicode="1" horiz-adv-x="1095" 
d="M967 0h-836v190h311v961l-133 -111l-86 172l291 228h143v-1250h310v-190z" />
    <glyph glyph-name="two" unicode="2" horiz-adv-x="1095" 
d="M170 0v166l401 573q144 203 144 340q0 96 -45 146.5t-125 50.5q-91 0 -152 -51t-102 -166l-164 74q59 173 167.5 250t264.5 77q173 0 271 -93t98 -261q0 -102 -45.5 -209.5t-151.5 -265.5l-313 -449l551 8v-190h-799z" />
    <glyph glyph-name="three" unicode="3" horiz-adv-x="1095" 
d="M541 150q98 0 155.5 68.5t57.5 193.5q0 116 -55 176.5t-154 60.5h-105v182h101q80 0 134 64.5t54 169.5q0 100 -52.5 155.5t-144.5 55.5q-87 0 -140.5 -50t-80.5 -149l-170 74q86 309 416 309q186 0 283.5 -96.5t97.5 -265.5q0 -225 -174 -350q94 -36 147.5 -125.5
t53.5 -221.5q0 -193 -106.5 -311.5t-311.5 -118.5q-155 0 -262.5 73.5t-153.5 225.5l172 82q58 -202 238 -202z" />
    <glyph glyph-name="four" unicode="4" horiz-adv-x="1095" 
d="M76 354v156l338 924h207l-330 -889h377v588h206v-588h148v-191h-148v-354h-206v354h-592z" />
    <glyph glyph-name="five" unicode="5" horiz-adv-x="1095" 
d="M541 -29q-155 0 -264.5 72.5t-153.5 228.5l170 80q55 -202 242 -202q112 0 170.5 83.5t58.5 227.5q0 280 -223 280q-128 0 -219 -108l-144 63l49 738h686v-187h-510l-24 -403q89 74 221 74q169 0 272 -111t103 -342q0 -222 -112 -358t-322 -136z" />
    <glyph glyph-name="six" unicode="6" horiz-adv-x="1095" 
d="M575 -29q-458 0 -458 742q0 382 119.5 564.5t357.5 182.5q143 0 236.5 -62t142.5 -194l-162 -92q-37 89 -88 130.5t-125 41.5q-65 0 -113 -28t-85 -92.5t-55.5 -179t-18.5 -279.5v-43q32 112 112 174.5t193 62.5q158 0 254 -116t96 -330q0 -220 -104.5 -351t-301.5 -131z
M569 150q94 0 148.5 72.5t54.5 217.5q0 140 -51 214.5t-146 74.5q-98 0 -156.5 -81.5t-58.5 -213.5q0 -130 56 -207t153 -77z" />
    <glyph glyph-name="seven" unicode="7" horiz-adv-x="1095" 
d="M348 0q0 385 99 719.5t262 525.5l-549 -4v193h776v-181q-175 -182 -268 -501.5t-90 -751.5h-230z" />
    <glyph glyph-name="eight" unicode="8" horiz-adv-x="1095" 
d="M549 -27q-196 0 -307 113.5t-111 306.5q0 130 55 225t144 136q-73 47 -116.5 130t-43.5 185q0 184 101 287.5t278 103.5t278 -103.5t101 -287.5q0 -102 -44 -185t-118 -130q91 -41 146 -135.5t55 -225.5q0 -193 -111 -306.5t-307 -113.5zM733 1063q0 95 -48 159t-134 64
q-87 0 -136.5 -64t-49.5 -159q0 -97 48.5 -160t135.5 -63q86 0 135 63.5t49 159.5zM551 147q98 0 153.5 70t55.5 186q0 109 -56.5 179.5t-152.5 70.5q-99 0 -156 -70.5t-57 -179.5q0 -115 56 -185.5t157 -70.5z" />
    <glyph glyph-name="nine" unicode="9" horiz-adv-x="1095" 
d="M526 1284q-94 0 -148 -75t-54 -220q0 -140 51.5 -217.5t146.5 -77.5q96 0 154.5 83.5t58.5 217.5q0 130 -57.5 209.5t-151.5 79.5zM524 1460q455 0 455 -739q0 -382 -119 -565t-356 -183q-143 0 -237 61t-144 193l164 92q36 -89 87.5 -129t125.5 -40q52 0 92 17t74.5 58
t56.5 106.5t34.5 165t12.5 230.5v41q-32 -116 -111.5 -180t-189.5 -64q-163 0 -257.5 117.5t-94.5 335.5q0 220 105 351.5t302 131.5z" />
    <glyph glyph-name="colon" unicode=":" horiz-adv-x="391" 
d="M197 -12q-59 0 -91 35.5t-32 97.5q0 131 123 131q60 0 92.5 -33.5t32.5 -97.5q0 -62 -33 -97.5t-92 -35.5zM197 735q-59 0 -91 35.5t-32 97.5q0 131 123 131q60 0 92.5 -33.5t32.5 -97.5q0 -62 -33 -97.5t-92 -35.5z" />
    <glyph glyph-name="semicolon" unicode=";" horiz-adv-x="395" 
d="M113 -279l-56 93q124 62 136 180q-53 -2 -86 31.5t-33 97.5q0 63 32.5 96t90.5 33q129 0 129 -166q0 -127 -55.5 -225t-157.5 -140zM199 735q-59 0 -91 35.5t-32 97.5q0 131 123 131q60 0 92.5 -33.5t32.5 -97.5q0 -62 -33 -97.5t-92 -35.5z" />
    <glyph glyph-name="less" unicode="&#x3c;" horiz-adv-x="774" 
d="M559 1083l88 -127l-342 -321l346 -318l-94 -137l-432 406v92z" />
    <glyph glyph-name="equal" unicode="=" horiz-adv-x="792" 
d="M713 862v-160h-631v160h631zM713 565v-159h-631v159h631z" />
    <glyph glyph-name="greater" unicode="&#x3e;" horiz-adv-x="774" 
d="M213 180l-86 127l344 322l-346 319l90 135l434 -405v-90z" />
    <glyph glyph-name="question" unicode="?" horiz-adv-x="811" 
d="M303 412l-10 329h74q103 0 162 73t59 210q0 127 -55 192.5t-158 65.5q-92 0 -150 -50t-84 -157l-159 70q71 319 409 319q189 0 290 -114t101 -316q0 -184 -80.5 -293.5t-220.5 -134.5l-12 -194h-166zM381 -12q-57 0 -89 35.5t-32 97.5q0 64 31.5 97.5t89.5 33.5
q125 0 125 -131q0 -62 -32 -97.5t-93 -35.5z" />
    <glyph glyph-name="at" unicode="@" horiz-adv-x="1269" 
d="M645 -209q-258 0 -408.5 190.5t-150.5 514.5q0 328 149.5 516t409.5 188q253 0 395 -172t142 -467q0 -185 -72 -291t-197 -106q-119 0 -159 108q-66 -122 -191 -122q-80 0 -130 51.5t-50 140.5q0 105 75.5 170.5t200.5 65.5h72q-1 89 -35.5 128t-85.5 39q-86 0 -121 -100
l-102 68q25 68 85 109.5t157 41.5q239 0 239 -280v-205q0 -125 80 -125q63 0 103.5 79.5t40.5 223.5q0 271 -123 415t-324 144q-210 0 -340.5 -161t-130.5 -459q0 -151 37 -271t101.5 -196t150 -116t184.5 -40q233 0 354 168l66 -51q-144 -199 -422 -199zM592 260
q63 0 101 52.5t38 144.5v22h-57q-77 0 -119.5 -36.5t-42.5 -92.5q0 -41 22 -65.5t58 -24.5z" />
    <glyph glyph-name="A" unicode="A" horiz-adv-x="1040" 
d="M516 1186l-172 -729h346zM799 0l-66 274h-430l-65 -274h-220l371 1434h264l369 -1434h-223z" />
    <glyph glyph-name="B" unicode="B" horiz-adv-x="1089" 
d="M152 0v1434h456q188 0 280.5 -100t92.5 -269q0 -115 -44.5 -197t-123.5 -125q97 -31 147 -122.5t50 -210.5q0 -202 -105 -306t-311 -104h-442zM578 1249h-218v-428h213q97 0 149 61t52 154q0 101 -54 157t-142 56zM582 635h-222v-453h215q111 0 166.5 58t55.5 178
q0 103 -54 160t-161 57z" />
    <glyph glyph-name="C" unicode="C" horiz-adv-x="1101" 
d="M610 -27q-260 0 -384 177.5t-124 568.5q0 390 125.5 565.5t386.5 175.5q174 0 283 -82.5t158 -283.5l-191 -70q-31 132 -92.5 187t-159.5 55q-72 0 -123.5 -25.5t-90 -87t-57.5 -169t-19 -265.5q0 -160 19 -269t58 -172t91.5 -89.5t125.5 -26.5q97 0 164 59t105 193
l182 -78q-51 -184 -168.5 -273.5t-288.5 -89.5z" />
    <glyph glyph-name="D" unicode="D" horiz-adv-x="1183" 
d="M543 0h-391v1434h399q269 0 399.5 -171.5t130.5 -537.5q0 -365 -134 -545t-404 -180zM537 190q77 0 135.5 27t102.5 87.5t66.5 164t22.5 250.5q0 189 -36.5 306.5t-104 167.5t-170.5 50h-184v-1053h168z" />
    <glyph glyph-name="E" unicode="E" horiz-adv-x="1046" 
d="M152 0v1434h825v-189h-615v-432h525v-195h-525v-430h605v-188h-815z" />
    <glyph glyph-name="F" unicode="F" horiz-adv-x="972" 
d="M152 0v1434h790v-193h-573v-434h505v-199h-505v-608h-217z" />
    <glyph glyph-name="G" unicode="G" horiz-adv-x="1165" 
d="M575 -27q-230 0 -351.5 185t-121.5 561q0 389 126 564t388 177q173 0 283.5 -82t155.5 -274l-187 -74q-37 132 -97.5 185t-154.5 53q-76 0 -128.5 -25.5t-92 -86.5t-58 -169t-18.5 -268q0 -159 19 -269t58 -174t92 -92t126 -28q47 0 88 18t77.5 57t58.5 112.5t24 174.5
v43h-246v176h445v-737h-150l-22 178q-42 -98 -125.5 -151.5t-188.5 -53.5z" />
    <glyph glyph-name="H" unicode="H" horiz-adv-x="1249" 
d="M879 0v621h-510v-621h-217v1434h217v-615h510v615h217v-1434h-217z" />
    <glyph glyph-name="I" unicode="I" horiz-adv-x="522" 
d="M152 0v1434h217v-1434h-217z" />
    <glyph glyph-name="J" unicode="J" horiz-adv-x="831" 
d="M705 506q0 -533 -414 -533q-79 0 -157 27t-138 82l108 164q78 -78 187 -78q196 0 196 319v947h218v-928z" />
    <glyph glyph-name="K" unicode="K" horiz-adv-x="1073" 
d="M371 401v-401h-219v1434h219l-4 -727l444 727h240l-406 -615l424 -819h-250l-309 606z" />
    <glyph glyph-name="L" unicode="L" horiz-adv-x="995" 
d="M371 195h579v-195h-798v1434h219v-1239z" />
    <glyph glyph-name="M" unicode="M" horiz-adv-x="1501" 
d="M659 0l-319 1014l10 -1014h-198v1434h247l353 -1127l348 1127h250v-1434h-203l12 1020l-323 -1020h-177z" />
    <glyph glyph-name="N" unicode="N" horiz-adv-x="1234" 
d="M885 0l-537 997l4 -997h-200v1434h190l547 -1014l-8 1014h202v-1434h-198z" />
    <glyph glyph-name="O" unicode="O" horiz-adv-x="1226" 
d="M614 -27q-267 0 -389.5 178.5t-122.5 567.5q0 385 125 563t387 178q268 0 389 -176t121 -565q0 -386 -125 -566t-385 -180zM614 1270q-101 0 -162.5 -48.5t-95.5 -172.5t-34 -334q0 -207 33.5 -331t96 -175t162.5 -51q74 0 126 27.5t90 91.5t56.5 173.5t18.5 268.5
q0 205 -34 328t-96 173t-161 50z" />
    <glyph glyph-name="P" unicode="P" horiz-adv-x="1075" 
d="M152 0v1434h444q204 0 311 -122.5t107 -342.5q0 -239 -116 -366.5t-325 -127.5h-204v-475h-217zM571 1241h-202v-571h200q109 0 168.5 74.5t59.5 218.5q0 278 -226 278z" />
    <glyph glyph-name="Q" unicode="Q" horiz-adv-x="1226" 
d="M614 -27q-267 0 -389.5 178.5t-122.5 567.5q0 385 125 563t387 178q268 0 389 -176t121 -565q0 -488 -204 -653l133 -250h-205l-92 174q-73 -17 -142 -17zM614 1270q-101 0 -162.5 -48t-95.5 -172t-34 -335q0 -207 33.5 -330.5t96 -174.5t162.5 -52q27 0 45 6l-133 254
h209l82 -156q86 118 86 457q0 206 -33.5 328.5t-95 172.5t-160.5 50z" />
    <glyph glyph-name="R" unicode="R" horiz-adv-x="1087" 
d="M573 1245h-206v-532h206q109 0 168.5 69t59.5 201q0 262 -228 262zM152 0v1434h448q206 0 312 -116t106 -329q0 -310 -219 -416l227 -573h-231l-199 524q-10 -2 -33 -2h-196v-522h-215z" />
    <glyph glyph-name="S" unicode="S" horiz-adv-x="972" 
d="M889 1118l-180 -74q-65 230 -246 230q-85 0 -137 -48.5t-52 -138.5q0 -78 47.5 -134t147.5 -99l86 -37q178 -77 260 -178t82 -260q0 -193 -111.5 -299.5t-310.5 -106.5q-177 0 -292 84.5t-169 266.5l183 82q71 -250 278 -250q101 0 156 54.5t55 151.5q0 86 -46 141.5
t-159 102.5l-84 35q-329 137 -329 432q0 169 104.5 278t296.5 109q168 0 276.5 -87.5t143.5 -254.5z" />
    <glyph glyph-name="T" unicode="T" horiz-adv-x="942" 
d="M25 1434h890v-195h-335v-1239h-218v1239h-337v195z" />
    <glyph glyph-name="U" unicode="U" horiz-adv-x="1183" 
d="M842 473v961h217v-949q0 -250 -123 -381t-344 -131q-223 0 -344 130.5t-121 381.5v949h217v-961q0 -154 65 -228.5t183 -74.5q119 0 184.5 74.5t65.5 228.5z" />
    <glyph glyph-name="V" unicode="V" horiz-adv-x="1032" 
d="M520 258l279 1176h219l-373 -1434h-260l-371 1434h224z" />
    <glyph glyph-name="W" unicode="W" horiz-adv-x="1472" 
d="M625 1430h229l199 -1082l200 1086h205l-301 -1434h-229l-193 1083l-188 -1083h-230l-303 1434h215l203 -1090z" />
    <glyph glyph-name="X" unicode="X" horiz-adv-x="1052" 
d="M786 0l-268 539l-262 -539h-238l383 729l-360 705h250l246 -516l237 516h238l-361 -701l383 -733h-248z" />
    <glyph glyph-name="Y" unicode="Y" horiz-adv-x="1028" 
d="M406 559l-390 875h240l262 -662l266 662h228l-389 -875v-559h-217v559z" />
    <glyph glyph-name="Z" unicode="Z" 
d="M35 0v160l610 1085l-582 -4v193h826v-160l-608 -1086l614 5v-193h-860z" />
    <glyph glyph-name="bracketleft" unicode="[" horiz-adv-x="552" 
d="M104 -188v1654h390v-163h-199v-1326h205v-165h-396z" />
    <glyph glyph-name="backslash" unicode="\" horiz-adv-x="856" 
d="M608 0l-600 1434h223l600 -1434h-223z" />
    <glyph glyph-name="bracketright" unicode="]" horiz-adv-x="555" 
d="M442 -188v1654h-389v-163h199v-1326h-205v-165h395z" />
    <glyph glyph-name="asciicircum" unicode="^" horiz-adv-x="737" 
d="M272 1434h197l225 -656v-6h-184l-143 467l-148 -467h-176v6z" />
    <glyph glyph-name="underscore" unicode="_" horiz-adv-x="743" 
d="M750 0v-168h-756v168h756z" />
    <glyph glyph-name="grave" unicode="`" 
d="M408 1174l-195 235v14h238l122 -241v-8h-165z" />
    <glyph glyph-name="a" unicode="a" horiz-adv-x="901" 
d="M389 135q86 0 141.5 79.5t55.5 215.5v29h-84q-113 0 -174.5 -51.5t-61.5 -137.5q0 -62 32.5 -98.5t90.5 -36.5zM614 0l-16 170q-39 -92 -107 -143.5t-157 -51.5q-118 0 -187 76t-69 207q0 158 109.5 255t293.5 97h105v15q-3 121 -52 175t-122 54q-131 0 -176 -139
l-156 94q42 104 129.5 162.5t222.5 58.5q175 0 265.5 -98t90.5 -314v-618h-174z" />
    <glyph glyph-name="b" unicode="b" horiz-adv-x="976" 
d="M559 -27q-169 0 -258 170l-10 -143h-168v1434h207v-566q42 79 109.5 120.5t150.5 41.5q148 0 229.5 -133t81.5 -389q0 -257 -88 -396t-254 -139zM330 498q0 -180 48.5 -266.5t135.5 -86.5q93 0 137.5 86.5t44.5 268.5q0 356 -178 356q-88 0 -138 -87.5t-50 -270.5z" />
    <glyph glyph-name="c" unicode="c" horiz-adv-x="843" 
d="M459 -27q-383 0 -383 531q0 266 101.5 396t293.5 130q132 0 212 -66.5t120 -207.5l-172 -78q-25 90 -63.5 132t-98.5 42q-100 0 -146.5 -79.5t-46.5 -270.5q0 -188 45 -269t144 -81q65 0 107.5 41.5t68.5 130.5l170 -76q-42 -130 -125 -202.5t-227 -72.5z" />
    <glyph glyph-name="d" unicode="d" horiz-adv-x="974" 
d="M645 498q0 184 -49.5 272t-136.5 88q-180 0 -180 -356q0 -357 180 -357q87 0 136.5 87.5t49.5 265.5zM680 0l-16 160q-85 -187 -269 -187q-150 0 -234.5 136t-84.5 391q0 256 89 393t247 137q148 0 231 -160v564h207v-1434h-170z" />
    <glyph glyph-name="e" unicode="e" horiz-adv-x="878" 
d="M459 -27q-180 0 -281.5 132t-101.5 395q0 256 99 393t284 137q89 0 157 -37t109 -104t61.5 -155t20.5 -195q0 -35 -4 -105h-529q7 -152 57 -219.5t142 -67.5q129 0 178 162l160 -76q-22 -57 -50 -100.5t-69 -81.5t-100 -58t-133 -20zM455 856q-164 0 -181 -264h338
q-3 264 -157 264z" />
    <glyph glyph-name="f" unicode="f" horiz-adv-x="598" 
d="M575 834h-204v-834h-207v834h-129v170h129v124q0 175 82.5 264t214.5 89q92 0 160 -43l-54 -170q-37 22 -88 22q-108 0 -108 -160v-126h204v-170z" />
    <glyph glyph-name="g" unicode="g" horiz-adv-x="974" 
d="M645 520q0 168 -49.5 252t-134.5 84q-91 0 -136.5 -82t-45.5 -256q0 -346 176 -346q89 0 139.5 86.5t50.5 261.5zM442 -444q-150 0 -242 64t-141 192l170 88q54 -174 201 -174q213 0 213 294v152q-36 -81 -100 -124.5t-144 -43.5q-151 0 -237 129.5t-86 380.5t90.5 383.5
t255.5 132.5q157 0 244 -172l14 146h172v-971q0 -237 -109 -357t-301 -120z" />
    <glyph glyph-name="h" unicode="h" horiz-adv-x="999" 
d="M678 600q0 126 -38.5 184t-113.5 58q-89 0 -141 -88.5t-55 -251.5v-502h-207v1434h207v-621q41 111 113.5 164t164.5 53q139 0 208 -97.5t69 -281.5v-651h-207v600z" />
    <glyph glyph-name="i" unicode="i" horiz-adv-x="456" 
d="M100 1313q0 65 33 99t94 34t95 -34t34 -99q0 -64 -34 -98.5t-95 -34.5q-60 0 -93.5 34.5t-33.5 98.5zM125 1004h207v-1004h-207v1004z" />
    <glyph glyph-name="j" unicode="j" horiz-adv-x="456" 
d="M227 1180q-60 0 -93.5 34.5t-33.5 98.5q0 65 33 99t94 34t95 -34t34 -99q0 -64 -34 -98.5t-95 -34.5zM123 -76v1080h209v-1100q0 -174 -74 -261t-203 -87q-100 0 -172 38l51 170q36 -20 82 -20q55 0 81 40t26 140z" />
    <glyph glyph-name="k" unicode="k" horiz-adv-x="880" 
d="M330 246v-246h-207v1434h207l-4 -936l307 506h229l-303 -437l309 -567h-235l-199 395z" />
    <glyph glyph-name="l" unicode="l" horiz-adv-x="481" 
d="M342 0q-106 0 -164.5 57.5t-58.5 188.5v1188h207v-1184q0 -40 19 -61t46 -21h76v-168h-125z" />
    <glyph glyph-name="m" unicode="m" horiz-adv-x="1466" 
d="M633 0v600q0 240 -133 240q-77 0 -122 -82.5t-48 -237.5v-520h-207v1004h174l18 -183q40 109 109.5 159t153.5 50q90 0 147 -60.5t82 -162.5q38 116 110 169.5t166 53.5q136 0 203.5 -95.5t67.5 -275.5v-659h-207v608q0 122 -33 177t-98 55q-78 0 -125 -75.5t-51 -217.5
v-547h-207z" />
    <glyph glyph-name="n" unicode="n" horiz-adv-x="999" 
d="M123 1004h176l18 -191q82 217 285 217q283 0 283 -379v-651h-207v604q0 124 -38 181t-114 57q-88 0 -141.5 -89.5t-54.5 -250.5v-502h-207v1004z" />
    <glyph glyph-name="o" unicode="o" 
d="M76 506q0 266 101 395t290 129q198 0 294.5 -126t96.5 -398q0 -266 -99.5 -399.5t-291.5 -133.5q-196 0 -293.5 130.5t-97.5 402.5zM655 504q0 188 -44.5 268t-143.5 80q-101 0 -146 -80t-45 -268q0 -190 46 -271t145 -81q100 0 144 80.5t44 271.5z" />
    <glyph glyph-name="p" unicode="p" horiz-adv-x="976" 
d="M330 500q0 -178 50 -266.5t132 -88.5q94 0 139 87.5t45 269.5t-44 267t-134 85q-88 0 -138 -86.5t-50 -267.5zM297 1004l18 -166q42 94 113 143t160 49q151 0 232 -134t81 -388q0 -257 -88 -396t-258 -139q-141 0 -225 140v-496h-207v1387h174z" />
    <glyph glyph-name="q" unicode="q" horiz-adv-x="974" 
d="M414 1030q80 0 146.5 -43t105.5 -125l14 142h170v-1385h-207v514q-84 -160 -250 -160q-151 0 -234 133.5t-83 391.5q0 260 88.5 396t249.5 136zM645 502q0 182 -50 269t-134 87q-182 0 -182 -356q0 -357 178 -357q87 0 137.5 89.5t50.5 267.5z" />
    <glyph glyph-name="r" unicode="r" horiz-adv-x="628" 
d="M123 0v1004h174l18 -209q41 125 115 184.5t172 50.5l2 -215q-133 15 -202.5 -78t-71.5 -280v-457h-207z" />
    <glyph glyph-name="s" unicode="s" horiz-adv-x="757" 
d="M373 133q71 0 107 32.5t36 90.5q0 51 -32 84.5t-101 60.5l-64 25q-133 51 -197.5 125.5t-64.5 189.5q0 130 84.5 210.5t237.5 80.5q124 0 204 -56t122 -175l-160 -80q-19 68 -63 106.5t-105 38.5q-58 0 -94.5 -27.5t-36.5 -84.5q0 -88 133 -140l76 -28
q124 -47 190 -122.5t66 -193.5q0 -125 -85.5 -210t-250.5 -85q-275 0 -357 246l160 78q51 -166 195 -166z" />
    <glyph glyph-name="t" unicode="t" horiz-adv-x="616" 
d="M586 18q-65 -45 -162 -45q-126 0 -199 77t-73 237v547h-121v170h121v292h206v-292h207v-170h-207v-525q0 -151 99 -151q52 0 88 26z" />
    <glyph glyph-name="u" unicode="u" horiz-adv-x="993" 
d="M870 0h-176l-14 174q-41 -101 -112.5 -151t-159.5 -50q-149 0 -222 102t-73 285v644h206v-609q0 -239 156 -239q85 0 135.5 84.5t53.5 244.5v519h206v-1004z" />
    <glyph glyph-name="v" unicode="v" horiz-adv-x="847" 
d="M14 1004h222l192 -768l197 768h209l-302 -1004h-217z" />
    <glyph glyph-name="w" unicode="w" horiz-adv-x="1202" 
d="M502 997h209l141 -729l139 736h195l-232 -1004h-215l-137 721l-137 -721h-211l-238 1004h207l137 -734z" />
    <glyph glyph-name="x" unicode="x" horiz-adv-x="849" 
d="M600 0l-184 348l-183 -348h-221l291 512l-276 492h239l164 -336l166 336h221l-276 -494l297 -510h-238z" />
    <glyph glyph-name="y" unicode="y" horiz-adv-x="851" 
d="M297 -119l25 101l-308 1022h222l194 -754l197 754h211l-361 -1194q-42 -140 -116 -198t-183 -58q-94 0 -170 36l45 168q64 -22 107 -22q56 0 87 32t50 113z" />
    <glyph glyph-name="z" unicode="z" horiz-adv-x="772" 
d="M51 0v150l428 681h-422v173h650v-154l-426 -678h440v-172h-670z" />
    <glyph glyph-name="braceleft" unicode="{" horiz-adv-x="585" 
d="M473 -205q-124 11 -193 87t-69 218q0 47 7 128.5t7 119.5q0 110 -40.5 160.5t-125.5 50.5h-41v164h41q85 0 125.5 50t40.5 159q0 40 -7 122t-7 130q0 141 69 217t193 88l55 -170q-70 -11 -105.5 -51.5t-35.5 -122.5q0 -39 7 -117.5t7 -122.5q0 -190 -133 -264
q133 -71 133 -262q0 -43 -7 -122.5t-7 -117.5q0 -82 35.5 -123t105.5 -49z" />
    <glyph glyph-name="bar" unicode="|" horiz-adv-x="487" 
d="M147 -133v1702h189v-1702h-189z" />
    <glyph glyph-name="braceright" unicode="}" horiz-adv-x="585" 
d="M100 -205q124 11 193 87t69 218q0 47 -7 128.5t-7 119.5q0 110 40.5 160.5t125.5 50.5h41v164h-41q-85 0 -125.5 50t-40.5 159q0 40 7 122t7 130q0 141 -69 217t-193 88l-55 -170q70 -11 105.5 -51.5t35.5 -122.5q0 -39 -7 -117.5t-7 -122.5q0 -190 133 -264
q-133 -71 -133 -262q0 -43 7 -122.5t7 -117.5q0 -82 -35.5 -123t-105.5 -49z" />
    <glyph glyph-name="asciitilde" unicode="~" horiz-adv-x="860" 
d="M668 856l149 -25q-6 -143 -65.5 -217.5t-157.5 -74.5q-10 0 -20 1.5t-18 3t-19.5 5.5t-18 6t-19 8.5t-16.5 8.5t-18 10t-16 9.5t-17 11t-16 9.5q-3 2 -19 13t-20.5 13.5t-18 10.5t-20 10.5t-17 7t-20 6t-18.5 1.5q-37 0 -60.5 -32.5t-27.5 -96.5l-150 26
q7 142 67.5 215.5t157.5 73.5q32 0 67 -12t56 -24t58 -36q85 -55 131 -55q78 0 86 123z" />
    <glyph glyph-name="uni00A0" unicode="&#xa0;" horiz-adv-x="272" 
 />
    <glyph glyph-name="exclamdown" unicode="&#xa1;" horiz-adv-x="387" 
d="M78 -408l33 1022h153l31 -1022h-217zM186 1038q58 0 90.5 -35.5t32.5 -97.5q0 -64 -32 -97.5t-91 -33.5q-60 0 -92.5 33.5t-32.5 97.5q0 62 33 97.5t92 35.5z" />
    <glyph glyph-name="cent" unicode="&#xa2;" horiz-adv-x="831" 
d="M776 279q-40 -106 -107.5 -173t-179.5 -79v-154h-120v154q-314 40 -314 499q0 452 314 498v160h120v-158q213 -18 281 -254l-154 -76q-37 132 -127 156v-659q102 28 138 159zM236 524q0 -149 32.5 -227t100.5 -102v655q-69 -22 -101 -99t-32 -227z" />
    <glyph glyph-name="sterling" unicode="&#xa3;" horiz-adv-x="915" 
d="M920 172q-51 -92 -129.5 -132t-192.5 -40h-545v174h51q45 0 60 54.5t12 164.5l-4 217h-119v162h115l-6 238q-4 234 97.5 342t272.5 108q143 0 230 -67.5t137 -210.5l-166 -86q-33 92 -79 137t-115 45q-176 0 -170 -281l6 -225h260v-162h-254l4 -219q3 -160 -31 -217h244
q129 0 197 123z" />
    <glyph glyph-name="yen" unicode="&#xa5;" horiz-adv-x="1028" 
d="M909 442h-286v-442h-220v442h-286v148h272l-47 106h-225v152h159l-260 586h242l264 -670l258 670h232l-264 -586h161v-152h-225l-47 -106h272v-148z" />
    <glyph glyph-name="brokenbar" unicode="&#xa6;" horiz-adv-x="487" 
d="M147 793v776h189v-776h-189zM147 -133v780h189v-780h-189z" />
    <glyph glyph-name="section" unicode="&#xa7;" horiz-adv-x="802" 
d="M256 721q-3 -112 111 -154l30 -10q63 -23 108.5 14t45.5 113q2 60 -23 97t-84 57l-32 12q-65 22 -110 -14.5t-46 -114.5zM391 -53q-140 0 -219.5 63.5t-120.5 175.5l150 76q55 -164 186 -164q137 0 137 127q0 62 -28.5 95.5t-94.5 54.5l-59 20q-252 82 -252 310
q0 74 32.5 134.5t90.5 94.5q-100 89 -100 233q0 127 80 210t217 83q119 0 196 -51.5t121 -163.5l-156 -78q-18 64 -60 101t-101 37q-62 0 -95.5 -33t-33.5 -94q0 -111 125 -154l81 -27q126 -42 181 -113t55 -182q0 -70 -34.5 -132t-98.5 -95q61 -43 86.5 -99t25.5 -136
q0 -58 -17.5 -109t-53.5 -93t-97.5 -66.5t-142.5 -24.5z" />
    <glyph glyph-name="dieresis" unicode="&#xa8;" 
d="M518 1313q0 123 115 123q121 0 121 -123q0 -127 -121 -127q-115 0 -115 127zM197 1313q0 61 31 92t87 31q119 0 119 -123q0 -62 -30.5 -94.5t-88.5 -32.5q-56 0 -87 32.5t-31 94.5z" />
    <glyph glyph-name="copyright" unicode="&#xa9;" horiz-adv-x="1292" 
d="M90 717q0 330 151 517t408 187q253 0 403 -187t150 -517t-150 -518.5t-403 -188.5q-257 0 -408 188.5t-151 518.5zM182 717q0 -301 129.5 -462t337.5 -161q207 0 334 160.5t127 462.5q0 301 -127 461.5t-334 160.5q-208 0 -337.5 -161t-129.5 -461zM915 561
q-75 -207 -262 -207q-280 0 -280 371q0 373 286 373q183 0 252 -187l-129 -65q-43 121 -125 121q-70 0 -104.5 -55.5t-34.5 -188.5q0 -129 35 -182.5t104 -53.5q49 0 80 28.5t51 92.5z" />
    <glyph glyph-name="ordfeminine" unicode="&#xaa;" horiz-adv-x="645" 
d="M289 827q57 0 92 58.5t35 156.5v11h-86q-58 0 -94.5 -34.5t-36.5 -88.5q0 -47 23.5 -75t66.5 -28zM426 844q-57 -137 -186 -137q-78 0 -130.5 56t-52.5 155q0 105 73.5 172t191.5 67h94q-1 93 -33 130.5t-92 37.5q-100 0 -154 -90l-86 90q82 133 264 133q254 0 254 -301
v-430h-133z" />
    <glyph glyph-name="guillemotleft" unicode="&#xab;" horiz-adv-x="1040" 
d="M373 0l-299 498v6l297 500h215l-301 -498l307 -506h-219zM748 0l-310 502v6l299 496h215l-301 -494l316 -510h-219z" />
    <glyph glyph-name="logicalnot" unicode="&#xac;" horiz-adv-x="452" 
d="M82 1311q0 -60 42 -102t103 -42t102.5 42t41.5 102t-41.5 102.5t-102.5 42.5t-103 -42.5t-42 -102.5zM301 1311q0 -32 -21.5 -54t-52.5 -22t-53 22.5t-22 53.5q0 32 22 55t53 23t52.5 -23t21.5 -55z" />
    <glyph glyph-name="uni00AD" unicode="&#xad;" horiz-adv-x="641" 
d="M563 618v-180h-485v180h485z" />
    <glyph glyph-name="registered" unicode="&#xae;" horiz-adv-x="737" 
d="M369 688q-141 0 -225.5 106t-84.5 281q0 174 84.5 279.5t225.5 105.5q143 0 226 -105t83 -280q0 -176 -82.5 -281.5t-226.5 -105.5zM369 743q110 0 181 86.5t71 245.5q0 156 -71.5 244t-180.5 88q-110 0 -181 -87.5t-71 -244.5q0 -160 70.5 -246t181.5 -86zM367 1204h-48
v-123h48q55 0 55 62q0 61 -55 61zM248 891v381h127q58 0 87.5 -34t29.5 -97q0 -77 -52 -113l56 -137h-80l-43 123h-54v-123h-71z" />
    <glyph glyph-name="macron" unicode="&#xaf;" 
d="M678 1364v-141h-430v141h430z" />
    <glyph glyph-name="degree" unicode="&#xb0;" horiz-adv-x="733" 
d="M367 721q-139 0 -218 99.5t-79 266.5q0 169 79 269t218 100q138 0 217.5 -100t79.5 -269q0 -166 -79.5 -266t-217.5 -100zM367 1325q-74 0 -117 -61.5t-43 -176.5q0 -113 43 -173t117 -60q73 0 116 60t43 173q0 114 -43.5 176t-115.5 62z" />
    <glyph glyph-name="plusminus" unicode="&#xb1;" horiz-adv-x="792" 
d="M475 295h-156v293h-237v153h237v297h156v-297h238v-153h-238v-293zM713 154v-154h-631v154h631z" />
    <glyph glyph-name="twosuperior" unicode="&#xb2;" horiz-adv-x="561" 
d="M41 602v117l238 330q73 106 73 174q0 98 -86 98q-46 0 -77.5 -26t-55.5 -87l-121 52q62 200 267 200q110 0 171.5 -56.5t61.5 -160.5q0 -63 -29 -127t-98 -164l-152 -215l297 6v-141h-489z" />
    <glyph glyph-name="threesuperior" unicode="&#xb3;" horiz-adv-x="585" 
d="M279 586q-199 0 -259 180l121 61q39 -112 129 -112q53 0 82 34t29 97q0 60 -29.5 91.5t-83.5 31.5h-59v129h59q43 0 70 31t27 85q0 51 -26.5 81t-72.5 30q-92 0 -116 -104l-123 51q54 188 258 188q116 0 177.5 -59t61.5 -158q0 -131 -104 -205q117 -54 117 -200
q0 -115 -67.5 -183.5t-190.5 -68.5z" />
    <glyph glyph-name="acute" unicode="&#xb4;" 
d="M709 1409l-191 -235h-164v8l123 241h232v-14z" />
    <glyph glyph-name="paragraph" unicode="&#xb6;" horiz-adv-x="1062" 
d="M633 668h98v577h-98v-577zM457 668v575q-104 1 -157.5 -73t-53.5 -207q0 -142 57 -219.5t154 -75.5zM633 475v-475h-176v479q-187 12 -291.5 137t-104.5 349t109 346.5t311 122.5h426v-1434h-176v475h-98z" />
    <glyph glyph-name="periodcentered" unicode="&#xb7;" horiz-adv-x="391" 
d="M197 557q-59 0 -91 35.5t-32 97.5q0 131 123 131q60 0 92.5 -33.5t32.5 -97.5q0 -62 -33 -97.5t-92 -35.5z" />
    <glyph glyph-name="cedilla" unicode="&#xb8;" 
d="M492 -494q-160 0 -226 140l105 69q40 -88 114 -88q37 0 59.5 22.5t22.5 59.5q0 35 -21.5 57.5t-56.5 22.5q-14 0 -34 -4l-35 31l39 184h116l-26 -119h2q64 0 107.5 -45.5t43.5 -126.5q0 -99 -59 -151t-151 -52z" />
    <glyph glyph-name="onesuperior" unicode="&#xb9;" horiz-adv-x="393" 
d="M305 602h-155v639l-76 -57l-62 129l189 137h104v-848z" />
    <glyph glyph-name="ordmasculine" unicode="&#xba;" horiz-adv-x="673" 
d="M55 1085q0 189 73.5 282t207.5 93q141 0 210.5 -90.5t69.5 -284.5q0 -378 -280 -378q-281 0 -281 378zM469 1085q0 130 -32 187t-101 57q-67 0 -98 -57t-31 -187q0 -131 31.5 -189t97.5 -58q68 0 100.5 58t32.5 189z" />
    <glyph glyph-name="guillemotright" unicode="&#xbb;" horiz-adv-x="1040" 
d="M659 1001l299 -497v-6l-296 -500h-216l302 498l-308 505h219zM285 1001l309 -501v-6l-299 -496h-215l301 494l-315 509h219z" />
    <glyph glyph-name="onequarter" unicode="&#xbc;" horiz-adv-x="1386" 
d="M305 600h-155v639l-76 -57l-62 129l189 137h104v-848zM942 1434l-528 -1434h-183l531 1434h180zM772 193v114l191 535h155l-188 -508h194v299h150v-299h82v-141h-82v-193h-150v193h-352z" />
    <glyph glyph-name="onehalf" unicode="&#xbd;" horiz-adv-x="1376" 
d="M823 0v117l238 329q74 107 74 175q0 98 -86 98q-46 0 -78 -26t-56 -87l-120 51q62 201 266 201q110 0 171.5 -56.5t61.5 -160.5q0 -63 -29 -127t-98 -164l-151 -215l297 6v-141h-490zM305 600h-155v639l-76 -57l-62 129l189 137h104v-848zM942 1434l-528 -1434h-183
l531 1434h180z" />
    <glyph glyph-name="threequarters" unicode="&#xbe;" horiz-adv-x="1527" 
d="M279 584q-199 0 -259 180l121 61q39 -112 129 -112q53 0 82 34t29 97q0 60 -29.5 91.5t-83.5 31.5h-59v129h59q43 0 70 31t27 85q0 51 -26.5 81t-72.5 30q-92 0 -116 -104l-123 51q54 188 258 188q116 0 177.5 -59t61.5 -158q0 -131 -104 -205q117 -54 117 -200
q0 -115 -67.5 -183.5t-190.5 -68.5zM1110 1434l-528 -1434h-183l531 1434h180zM913 193v114l191 535h156l-189 -508h195v299h149v-299h82v-141h-82v-193h-149v193h-353z" />
    <glyph glyph-name="questiondown" unicode="&#xbf;" horiz-adv-x="808" 
d="M487 614l11 -329h-74q-103 0 -162 -73t-59 -210q0 -127 55 -192.5t158 -65.5q92 0 149.5 50t83.5 157l160 -70q-71 -319 -410 -319q-189 0 -290 114t-101 316q0 184 80.5 293.5t220.5 134.5l13 194h165zM410 1038q57 0 88.5 -35.5t31.5 -97.5q0 -64 -31 -97.5t-89 -33.5
q-125 0 -125 131q0 62 32 97.5t93 35.5z" />
    <glyph glyph-name="Agrave" unicode="&#xc0;" horiz-adv-x="1040" 
d="M516 1186l-172 -729h346zM799 0l-66 274h-430l-65 -274h-220l371 1434h264l369 -1434h-223zM455 1608l-195 235v15h238l123 -242v-8h-166z" />
    <glyph glyph-name="Aacute" unicode="&#xc1;" horiz-adv-x="1040" 
d="M516 1186l-172 -729h346zM799 0l-66 274h-430l-65 -274h-220l371 1434h264l369 -1434h-223zM780 1839l-190 -235h-164v8l123 241h231v-14z" />
    <glyph glyph-name="Acircumflex" unicode="&#xc2;" horiz-adv-x="1040" 
d="M516 1186l-172 -729h346zM799 0l-66 274h-430l-65 -274h-220l371 1434h264l369 -1434h-223zM516 1739l-96 -135h-178v6l190 243h178l193 -243v-6h-187z" />
    <glyph glyph-name="Atilde" unicode="&#xc3;" horiz-adv-x="1040" 
d="M516 1186l-172 -729h346zM799 0l-66 274h-430l-65 -274h-220l371 1434h264l369 -1434h-223zM657 1841h129q7 -115 -38.5 -168t-112.5 -53q-38 0 -78 20t-73 40t-56 20q-45 0 -45 -74h-133q-5 116 39 167.5t108 51.5q41 0 82 -19t75 -38t58 -19q27 0 36 19t9 53z" />
    <glyph glyph-name="Adieresis" unicode="&#xc4;" horiz-adv-x="1040" 
d="M516 1186l-172 -729h346zM799 0l-66 274h-430l-65 -274h-220l371 1434h264l369 -1434h-223zM571 1743q0 123 115 123q121 0 121 -123q0 -127 -121 -127q-115 0 -115 127zM250 1743q0 61 31 92t88 31q118 0 118 -123q0 -127 -118 -127q-56 0 -87.5 32.5t-31.5 94.5z" />
    <glyph glyph-name="Aring" unicode="&#xc5;" horiz-adv-x="1040" 
d="M516 1186l-172 -729h346zM799 0l-66 274h-430l-65 -274h-220l371 1434h264l369 -1434h-223zM338 1753q0 92 50.5 144.5t131.5 52.5q79 0 128.5 -52.5t49.5 -144.5q0 -90 -50 -142t-128 -52q-81 0 -131.5 52t-50.5 142zM438 1753q0 -46 22.5 -74t59.5 -28q34 0 58 28.5
t24 73.5q0 46 -23.5 74t-58.5 28q-37 0 -59.5 -27.5t-22.5 -74.5z" />
    <glyph glyph-name="AE" unicode="&#xc6;" horiz-adv-x="1523" 
d="M522 1212l-180 -755h350zM797 0l-64 272h-436l-68 -272h-215l387 1434h1041v-187h-719l100 -428h541v-192h-502l103 -439h493v-188h-661z" />
    <glyph glyph-name="Ccedilla" unicode="&#xc7;" horiz-adv-x="1101" 
d="M592 -494q-72 0 -130.5 34t-92.5 106l104 69q40 -88 115 -88q37 0 59.5 22.5t22.5 59.5q0 35 -21.5 57.5t-56.5 22.5q-11 0 -35 -4l-35 31l35 159q-233 17 -344 195.5t-111 548.5q0 390 125.5 565.5t386.5 175.5q174 0 283 -82.5t158 -283.5l-191 -70q-31 132 -92.5 187
t-159.5 55q-72 0 -123.5 -25.5t-90 -87t-57.5 -169t-19 -265.5q0 -160 19 -269t58 -172t91.5 -89.5t125.5 -26.5q97 0 164 59t105 193l182 -78q-87 -326 -393 -359l-23 -96h2q63 0 107.5 -45.5t44.5 -126.5q0 -100 -60 -151.5t-153 -51.5z" />
    <glyph glyph-name="Egrave" unicode="&#xc8;" horiz-adv-x="1046" 
d="M152 0v1434h825v-189h-615v-432h525v-195h-525v-430h605v-188h-815zM504 1608l-195 235v15h238l123 -242v-8h-166z" />
    <glyph glyph-name="Eacute" unicode="&#xc9;" horiz-adv-x="1046" 
d="M152 0v1434h825v-189h-615v-432h525v-195h-525v-430h605v-188h-815zM829 1839l-190 -235h-164v8l123 241h231v-14z" />
    <glyph glyph-name="Ecircumflex" unicode="&#xca;" horiz-adv-x="1046" 
d="M152 0v1434h825v-189h-615v-432h525v-195h-525v-430h605v-188h-815zM567 1739l-96 -135h-178v6l190 243h179l192 -243v-6h-186z" />
    <glyph glyph-name="Edieresis" unicode="&#xcb;" horiz-adv-x="1046" 
d="M152 0v1434h825v-189h-615v-432h525v-195h-525v-430h605v-188h-815zM621 1743q0 123 114 123q121 0 121 -123q0 -127 -121 -127q-114 0 -114 127zM299 1743q0 61 31.5 92t87.5 31q119 0 119 -123q0 -62 -30.5 -94.5t-88.5 -32.5q-56 0 -87.5 32.5t-31.5 94.5z" />
    <glyph glyph-name="Igrave" unicode="&#xcc;" horiz-adv-x="522" 
d="M152 0v1434h217v-1434h-217zM197 1608l-195 235v15h238l122 -242v-8h-165z" />
    <glyph glyph-name="Iacute" unicode="&#xcd;" horiz-adv-x="522" 
d="M152 0v1434h217v-1434h-217zM522 1839l-190 -235h-164v8l123 241h231v-14z" />
    <glyph glyph-name="Icircumflex" unicode="&#xce;" horiz-adv-x="522" 
d="M152 0v1434h217v-1434h-217zM260 1739l-96 -135h-178v6l190 243h178l193 -243v-6h-187z" />
    <glyph glyph-name="Idieresis" unicode="&#xcf;" horiz-adv-x="522" 
d="M152 0v1434h217v-1434h-217zM313 1743q0 123 115 123q121 0 121 -123q0 -127 -121 -127q-115 0 -115 127zM-8 1743q0 61 31 92t88 31q118 0 118 -123q0 -127 -118 -127q-56 0 -87.5 32.5t-31.5 94.5z" />
    <glyph glyph-name="Eth" unicode="&#xd0;" horiz-adv-x="1214" 
d="M571 0h-389v639h-114v178h114v617h400q268 0 398 -171.5t130 -537.5q0 -365 -134.5 -545t-404.5 -180zM399 190h166q78 0 136.5 27t102.5 87.5t66.5 164t22.5 250.5q0 282 -77.5 404t-233.5 122h-183v-428h203v-178h-203v-449z" />
    <glyph glyph-name="Ntilde" unicode="&#xd1;" horiz-adv-x="1234" 
d="M885 0l-537 997l4 -997h-200v1434h190l547 -1014l-8 1014h202v-1434h-198zM756 1843h129q7 -115 -39 -168t-113 -53q-38 0 -78 20t-73 40t-56 20q-45 0 -45 -74h-133q-5 116 39.5 167.5t108.5 51.5q41 0 82 -18.5t75 -37.5t58 -19q27 0 36 18.5t9 52.5z" />
    <glyph glyph-name="Ograve" unicode="&#xd2;" horiz-adv-x="1226" 
d="M614 -27q-267 0 -389.5 178.5t-122.5 567.5q0 385 125 563t387 178q268 0 389 -176t121 -565q0 -386 -125 -566t-385 -180zM614 1270q-101 0 -162.5 -48.5t-95.5 -172.5t-34 -334q0 -207 33.5 -331t96 -175t162.5 -51q74 0 126 27.5t90 91.5t56.5 173.5t18.5 268.5
q0 205 -34 328t-96 173t-161 50zM543 1608l-195 235v15h238l123 -242v-8h-166z" />
    <glyph glyph-name="Oacute" unicode="&#xd3;" horiz-adv-x="1226" 
d="M614 -27q-267 0 -389.5 178.5t-122.5 567.5q0 385 125 563t387 178q268 0 389 -176t121 -565q0 -386 -125 -566t-385 -180zM614 1270q-101 0 -162.5 -48.5t-95.5 -172.5t-34 -334q0 -207 33.5 -331t96 -175t162.5 -51q74 0 126 27.5t90 91.5t56.5 173.5t18.5 268.5
q0 205 -34 328t-96 173t-161 50zM868 1841l-190 -235h-164v8l123 241h231v-14z" />
    <glyph glyph-name="Ocircumflex" unicode="&#xd4;" horiz-adv-x="1226" 
d="M614 -27q-267 0 -389.5 178.5t-122.5 567.5q0 385 125 563t387 178q268 0 389 -176t121 -565q0 -386 -125 -566t-385 -180zM614 1270q-101 0 -162.5 -48.5t-95.5 -172.5t-34 -334q0 -207 33.5 -331t96 -175t162.5 -51q74 0 126 27.5t90 91.5t56.5 173.5t18.5 268.5
q0 205 -34 328t-96 173t-161 50zM604 1741l-96 -135h-178v6l190 243h178l193 -243v-6h-186z" />
    <glyph glyph-name="Otilde" unicode="&#xd5;" horiz-adv-x="1226" 
d="M614 -27q-267 0 -389.5 178.5t-122.5 567.5q0 385 125 563t387 178q268 0 389 -176t121 -565q0 -386 -125 -566t-385 -180zM614 1270q-101 0 -162.5 -48.5t-95.5 -172.5t-34 -334q0 -207 33.5 -331t96 -175t162.5 -51q74 0 126 27.5t90 91.5t56.5 173.5t18.5 268.5
q0 205 -34 328t-96 173t-161 50zM745 1843h129q7 -115 -38.5 -168t-112.5 -53q-38 0 -78 20t-73 40t-56 20q-45 0 -45 -74h-133q-5 116 39 167.5t108 51.5q41 0 82 -18.5t75 -37.5t58 -19q27 0 36 18.5t9 52.5z" />
    <glyph glyph-name="Odieresis" unicode="&#xd6;" horiz-adv-x="1226" 
d="M614 -27q-267 0 -389.5 178.5t-122.5 567.5q0 385 125 563t387 178q268 0 389 -176t121 -565q0 -386 -125 -566t-385 -180zM614 1270q-101 0 -162.5 -48.5t-95.5 -172.5t-34 -334q0 -207 33.5 -331t96 -175t162.5 -51q74 0 126 27.5t90 91.5t56.5 173.5t18.5 268.5
q0 205 -34 328t-96 173t-161 50zM659 1745q0 123 115 123q121 0 121 -123q0 -127 -121 -127q-115 0 -115 127zM338 1745q0 61 31 92t88 31q118 0 118 -123q0 -127 -118 -127q-56 0 -87.5 32.5t-31.5 94.5z" />
    <glyph glyph-name="multiply" unicode="&#xd7;" horiz-adv-x="778" 
d="M207 293l-111 94l201 252l-207 260l115 100l188 -235l180 231l111 -98l-201 -252l201 -252l-117 -100l-180 227z" />
    <glyph glyph-name="Oslash" unicode="&#xd8;" horiz-adv-x="1230" 
d="M625 -27q-209 0 -332 117l-60 -90h-165l137 207q-92 182 -92 512q0 385 125 563t387 178q213 0 331 -112l58 86h168l-138 -207q91 -178 91 -508q0 -386 -125 -566t-385 -180zM332 715q0 -164 22 -277l482 721q-68 111 -211 111q-75 0 -127.5 -27t-91 -90t-56.5 -171
t-18 -267zM625 158q99 0 160 50t94.5 175t33.5 336q0 161 -22 274l-481 -725q72 -110 215 -110z" />
    <glyph glyph-name="Ugrave" unicode="&#xd9;" horiz-adv-x="1183" 
d="M842 473v961h217v-949q0 -250 -123 -381t-344 -131q-223 0 -344 130.5t-121 381.5v949h217v-961q0 -154 65 -228.5t183 -74.5q119 0 184.5 74.5t65.5 228.5zM530 1608l-194 235v15h237l123 -242v-8h-166z" />
    <glyph glyph-name="Uacute" unicode="&#xda;" horiz-adv-x="1183" 
d="M842 473v961h217v-949q0 -250 -123 -381t-344 -131q-223 0 -344 130.5t-121 381.5v949h217v-961q0 -154 65 -228.5t183 -74.5q119 0 184.5 74.5t65.5 228.5zM856 1841l-190 -235h-164v8l123 241h231v-14z" />
    <glyph glyph-name="Ucircumflex" unicode="&#xdb;" horiz-adv-x="1183" 
d="M842 473v961h217v-949q0 -250 -123 -381t-344 -131q-223 0 -344 130.5t-121 381.5v949h217v-961q0 -154 65 -228.5t183 -74.5q119 0 184.5 74.5t65.5 228.5zM590 1741l-96 -135h-179v6l191 243h178l193 -243v-6h-187z" />
    <glyph glyph-name="Udieresis" unicode="&#xdc;" horiz-adv-x="1183" 
d="M842 473v961h217v-949q0 -250 -123 -381t-344 -131q-223 0 -344 130.5t-121 381.5v949h217v-961q0 -154 65 -228.5t183 -74.5q119 0 184.5 74.5t65.5 228.5zM647 1745q0 123 115 123q121 0 121 -123q0 -127 -121 -127q-115 0 -115 127zM326 1745q0 61 31 92t87 31
q119 0 119 -123q0 -62 -30.5 -94.5t-88.5 -32.5q-56 0 -87 32.5t-31 94.5z" />
    <glyph glyph-name="Yacute" unicode="&#xdd;" horiz-adv-x="1028" 
d="M406 559l-390 875h240l262 -662l266 662h228l-389 -875v-559h-217v559zM778 1841l-190 -235h-164v8l123 241h231v-14z" />
    <glyph glyph-name="Thorn" unicode="&#xde;" horiz-adv-x="1050" 
d="M369 0h-217v1434h217v-254h258q180 0 272 -115t92 -324q0 -224 -104 -342t-287 -118h-231v-281zM600 983h-231v-510h229q86 0 133 65t47 193q0 252 -178 252z" />
    <glyph glyph-name="germandbls" unicode="&#xdf;" horiz-adv-x="1032" 
d="M535 672h-60v182h53q72 0 116 60t44 159q0 98 -47 155.5t-127 57.5q-91 0 -137.5 -64.5t-46.5 -183.5v-1038h-207v1028q0 208 101 322t294 114q176 0 275.5 -102t99.5 -275q0 -103 -39 -180t-109 -121q99 -34 155 -133.5t56 -246.5q0 -198 -98.5 -310t-265.5 -112
q-95 0 -166 36l43 160q47 -20 100 -20q83 0 132 63t49 185q0 121 -54.5 192.5t-160.5 71.5z" />
    <glyph glyph-name="agrave" unicode="&#xe0;" horiz-adv-x="901" 
d="M389 135q86 0 141.5 79.5t55.5 215.5v29h-84q-113 0 -174.5 -51.5t-61.5 -137.5q0 -62 32.5 -98.5t90.5 -36.5zM614 0l-16 170q-39 -92 -107 -143.5t-157 -51.5q-118 0 -187 76t-69 207q0 158 109.5 255t293.5 97h105v15q-3 121 -52 175t-122 54q-131 0 -176 -139
l-156 94q42 104 129.5 162.5t222.5 58.5q175 0 265.5 -98t90.5 -314v-618h-174zM367 1178l-195 235v14h238l122 -241v-8h-165z" />
    <glyph glyph-name="aacute" unicode="&#xe1;" horiz-adv-x="901" 
d="M389 135q86 0 141.5 79.5t55.5 215.5v29h-84q-113 0 -174.5 -51.5t-61.5 -137.5q0 -62 32.5 -98.5t90.5 -36.5zM614 0l-16 170q-39 -92 -107 -143.5t-157 -51.5q-118 0 -187 76t-69 207q0 158 109.5 255t293.5 97h105v15q-3 121 -52 175t-122 54q-131 0 -176 -139
l-156 94q42 104 129.5 162.5t222.5 58.5q175 0 265.5 -98t90.5 -314v-618h-174zM692 1411l-190 -235h-164v8l123 241h231v-14z" />
    <glyph glyph-name="acircumflex" unicode="&#xe2;" horiz-adv-x="901" 
d="M389 135q86 0 141.5 79.5t55.5 215.5v29h-84q-113 0 -174.5 -51.5t-61.5 -137.5q0 -62 32.5 -98.5t90.5 -36.5zM614 0l-16 170q-39 -92 -107 -143.5t-157 -51.5q-118 0 -187 76t-69 207q0 158 109.5 255t293.5 97h105v15q-3 121 -52 175t-122 54q-131 0 -176 -139
l-156 94q42 104 129.5 162.5t222.5 58.5q175 0 265.5 -98t90.5 -314v-618h-174zM428 1311l-96 -135h-178v6l190 243h178l193 -243v-6h-187z" />
    <glyph glyph-name="atilde" unicode="&#xe3;" horiz-adv-x="901" 
d="M389 135q86 0 141.5 79.5t55.5 215.5v29h-84q-113 0 -174.5 -51.5t-61.5 -137.5q0 -62 32.5 -98.5t90.5 -36.5zM614 0l-16 170q-39 -92 -107 -143.5t-157 -51.5q-118 0 -187 76t-69 207q0 158 109.5 255t293.5 97h105v15q-3 121 -52 175t-122 54q-131 0 -176 -139
l-156 94q42 104 129.5 162.5t222.5 58.5q175 0 265.5 -98t90.5 -314v-618h-174zM569 1413h129q7 -115 -38.5 -168t-112.5 -53q-38 0 -78 20t-73 40t-56 20q-45 0 -45 -74h-133q-5 116 39 167.5t108 51.5q41 0 82 -19t75 -38t58 -19q27 0 36 19t9 53z" />
    <glyph glyph-name="adieresis" unicode="&#xe4;" horiz-adv-x="901" 
d="M389 135q86 0 141.5 79.5t55.5 215.5v29h-84q-113 0 -174.5 -51.5t-61.5 -137.5q0 -62 32.5 -98.5t90.5 -36.5zM614 0l-16 170q-39 -92 -107 -143.5t-157 -51.5q-118 0 -187 76t-69 207q0 158 109.5 255t293.5 97h105v15q-3 121 -52 175t-122 54q-131 0 -176 -139
l-156 94q42 104 129.5 162.5t222.5 58.5q175 0 265.5 -98t90.5 -314v-618h-174zM483 1315q0 123 115 123q121 0 121 -123q0 -127 -121 -127q-115 0 -115 127zM162 1315q0 61 31 92t88 31q118 0 118 -123q0 -127 -118 -127q-56 0 -87.5 32.5t-31.5 94.5z" />
    <glyph glyph-name="aring" unicode="&#xe5;" horiz-adv-x="901" 
d="M389 135q86 0 141.5 79.5t55.5 215.5v29h-84q-113 0 -174.5 -51.5t-61.5 -137.5q0 -62 32.5 -98.5t90.5 -36.5zM614 0l-16 170q-39 -92 -107 -143.5t-157 -51.5q-118 0 -187 76t-69 207q0 158 109.5 255t293.5 97h105v15q-3 121 -52 175t-122 54q-131 0 -176 -139
l-156 94q42 104 129.5 162.5t222.5 58.5q175 0 265.5 -98t90.5 -314v-618h-174zM250 1325q0 92 50.5 144.5t131.5 52.5q79 0 128.5 -52.5t49.5 -144.5q0 -90 -50 -142.5t-128 -52.5q-81 0 -131.5 52t-50.5 143zM350 1325q0 -46 22.5 -74t59.5 -28q34 0 58 28.5t24 73.5
q0 46 -23.5 74t-58.5 28q-37 0 -59.5 -27.5t-22.5 -74.5z" />
    <glyph glyph-name="ae" unicode="&#xe6;" horiz-adv-x="1390" 
d="M973 -27q-110 0 -190 54.5t-117 165.5q-43 -100 -126.5 -159t-185.5 -59q-126 0 -201 76t-75 209q0 154 109.5 248t293.5 94h105v6q-1 133 -46.5 190.5t-129.5 57.5q-128 0 -174 -141l-156 94q89 221 348 221q201 0 268 -166q93 166 275 166q90 0 158 -37t108.5 -104
t60 -151.5t19.5 -186.5q0 -67 -4 -102h-529v-9q9 -157 58 -225t143 -68q126 0 178 162l160 -76q-22 -58 -49.5 -101t-68.5 -81t-99.5 -58t-132.5 -20zM967 856q-160 0 -176 -254h335q-6 254 -159 254zM383 135q93 0 148 78.5t55 216.5v21h-84q-112 0 -174 -50t-62 -131
q0 -62 31.5 -98.5t85.5 -36.5z" />
    <glyph glyph-name="ccedilla" unicode="&#xe7;" horiz-adv-x="843" 
d="M438 -494q-72 0 -131.5 34.5t-93.5 105.5l104 69q43 -88 117 -88q36 0 59 23t23 59t-22 58t-58 22q-13 0 -33 -4l-34 31l34 161q-327 36 -327 527q0 266 102.5 396t294.5 130q130 0 210 -66.5t120 -207.5l-170 -78q-26 90 -65.5 132t-98.5 42q-100 0 -146.5 -79.5
t-46.5 -270.5t45 -274t144 -83q127 0 182 172l164 -71q-40 -113 -109 -184t-184 -85l-22 -96h4q62 0 106.5 -45.5t44.5 -126.5q0 -100 -60 -151.5t-153 -51.5z" />
    <glyph glyph-name="egrave" unicode="&#xe8;" horiz-adv-x="876" 
d="M459 -27q-180 0 -281.5 132t-101.5 395q0 256 99 393t284 137q89 0 157 -37t109 -104t61.5 -155t20.5 -195q0 -35 -4 -105h-529q7 -152 57 -219.5t142 -67.5q129 0 178 162l160 -76q-22 -57 -50 -100.5t-69 -81.5t-100 -58t-133 -20zM455 856q-164 0 -181 -264h338
q-3 264 -157 264zM385 1178l-195 235v14h238l123 -241v-8h-166z" />
    <glyph glyph-name="eacute" unicode="&#xe9;" horiz-adv-x="876" 
d="M459 -27q-180 0 -281.5 132t-101.5 395q0 256 99 393t284 137q89 0 157 -37t109 -104t61.5 -155t20.5 -195q0 -35 -4 -105h-529q7 -152 57 -219.5t142 -67.5q129 0 178 162l160 -76q-22 -57 -50 -100.5t-69 -81.5t-100 -58t-133 -20zM455 856q-164 0 -181 -264h338
q-3 264 -157 264zM711 1409l-191 -235h-164v8l123 241h232v-14z" />
    <glyph glyph-name="ecircumflex" unicode="&#xea;" horiz-adv-x="876" 
d="M459 -27q-180 0 -281.5 132t-101.5 395q0 256 99 393t284 137q89 0 157 -37t109 -104t61.5 -155t20.5 -195q0 -35 -4 -105h-529q7 -152 57 -219.5t142 -67.5q129 0 178 162l160 -76q-22 -57 -50 -100.5t-69 -81.5t-100 -58t-133 -20zM455 856q-164 0 -181 -264h338
q-3 264 -157 264zM446 1309l-96 -135h-178v6l190 243h179l192 -243v-6h-186z" />
    <glyph glyph-name="edieresis" unicode="&#xeb;" horiz-adv-x="876" 
d="M459 -27q-180 0 -281.5 132t-101.5 395q0 256 99 393t284 137q89 0 157 -37t109 -104t61.5 -155t20.5 -195q0 -35 -4 -105h-529q7 -152 57 -219.5t142 -67.5q129 0 178 162l160 -76q-22 -57 -50 -100.5t-69 -81.5t-100 -58t-133 -20zM455 856q-164 0 -181 -264h338
q-3 264 -157 264zM502 1313q0 123 114 123q121 0 121 -123q0 -127 -121 -127q-114 0 -114 127zM180 1313q0 61 31 92t88 31q119 0 119 -123q0 -62 -30.5 -94.5t-88.5 -32.5q-56 0 -87.5 32.5t-31.5 94.5z" />
    <glyph glyph-name="igrave" unicode="&#xec;" horiz-adv-x="456" 
d="M123 1004h209v-1004h-209v1004zM164 1178l-195 235v14h238l123 -241v-8h-166z" />
    <glyph glyph-name="iacute" unicode="&#xed;" horiz-adv-x="456" 
d="M123 1004h209v-1004h-209v1004zM489 1409l-190 -235h-164v8l123 241h231v-14z" />
    <glyph glyph-name="icircumflex" unicode="&#xee;" horiz-adv-x="456" 
d="M123 1004h209v-1004h-209v1004zM227 1309l-96 -135h-178v6l190 243h179l192 -243v-6h-186z" />
    <glyph glyph-name="idieresis" unicode="&#xef;" horiz-adv-x="456" 
d="M123 1004h209v-1004h-209v1004zM279 1313q0 123 114 123q121 0 121 -123q0 -127 -121 -127q-114 0 -114 127zM-43 1313q0 61 31.5 92t87.5 31q119 0 119 -123q0 -62 -30.5 -94.5t-88.5 -32.5q-56 0 -87.5 32.5t-31.5 94.5z" />
    <glyph glyph-name="eth" unicode="&#xf0;" 
d="M469 -27q-196 0 -294.5 128t-98.5 395q0 264 97.5 392t279.5 128q112 0 184 -90q-26 138 -92 248l-123 -99l-55 96l106 86q-82 79 -201 119l68 146q157 -36 270 -152l138 111l57 -97l-123 -100q176 -259 176 -745v-33q0 -272 -97.5 -402.5t-291.5 -130.5zM657 494
q0 191 -44 271.5t-144 80.5q-101 0 -147 -81.5t-46 -270.5q0 -185 47.5 -267t145.5 -82t143 81t45 268z" />
    <glyph glyph-name="ntilde" unicode="&#xf1;" horiz-adv-x="999" 
d="M123 1004h176l18 -191q82 217 285 217q283 0 283 -379v-651h-207v604q0 124 -38 181t-114 57q-88 0 -141.5 -89.5t-54.5 -250.5v-502h-207v1004zM668 1411h129q7 -115 -39 -168t-113 -53q-38 0 -78 20t-73 40t-56 20q-45 0 -45 -74h-133q-5 116 39.5 167.5t108.5 51.5
q41 0 82 -19t75 -38t58 -19q27 0 36 19t9 53z" />
    <glyph glyph-name="ograve" unicode="&#xf2;" 
d="M76 506q0 266 101 395t290 129q198 0 294.5 -126t96.5 -398q0 -266 -99.5 -399.5t-291.5 -133.5q-196 0 -293.5 130.5t-97.5 402.5zM655 504q0 188 -44.5 268t-143.5 80q-101 0 -146 -80t-45 -268q0 -190 46 -271t145 -81q100 0 144 80.5t44 271.5zM401 1178l-194 235v14
h237l123 -241v-8h-166z" />
    <glyph glyph-name="oacute" unicode="&#xf3;" 
d="M76 506q0 266 101 395t290 129q198 0 294.5 -126t96.5 -398q0 -266 -99.5 -399.5t-291.5 -133.5q-196 0 -293.5 130.5t-97.5 402.5zM655 504q0 188 -44.5 268t-143.5 80q-101 0 -146 -80t-45 -268q0 -190 46 -271t145 -81q100 0 144 80.5t44 271.5zM727 1409l-190 -235
h-164v8l123 241h231v-14z" />
    <glyph glyph-name="ocircumflex" unicode="&#xf4;" 
d="M76 506q0 266 101 395t290 129q198 0 294.5 -126t96.5 -398q0 -266 -99.5 -399.5t-291.5 -133.5q-196 0 -293.5 130.5t-97.5 402.5zM655 504q0 188 -44.5 268t-143.5 80q-101 0 -146 -80t-45 -268q0 -190 46 -271t145 -81q100 0 144 80.5t44 271.5zM465 1309l-96 -135
h-179v6l191 243h178l193 -243v-6h-187z" />
    <glyph glyph-name="otilde" unicode="&#xf5;" 
d="M76 506q0 266 101 395t290 129q198 0 294.5 -126t96.5 -398q0 -266 -99.5 -399.5t-291.5 -133.5q-196 0 -293.5 130.5t-97.5 402.5zM655 504q0 188 -44.5 268t-143.5 80q-101 0 -146 -80t-45 -268q0 -190 46 -271t145 -81q100 0 144 80.5t44 271.5zM604 1411h129
q7 -115 -38.5 -168t-112.5 -53q-38 0 -78 20t-73 40t-56 20q-45 0 -45 -74h-133q-5 116 39 167.5t108 51.5q41 0 82 -19t75 -38t58 -19q27 0 36 19t9 53z" />
    <glyph glyph-name="odieresis" unicode="&#xf6;" 
d="M76 506q0 266 101 395t290 129q198 0 294.5 -126t96.5 -398q0 -266 -99.5 -399.5t-291.5 -133.5q-196 0 -293.5 130.5t-97.5 402.5zM655 504q0 188 -44.5 268t-143.5 80q-101 0 -146 -80t-45 -268q0 -190 46 -271t145 -81q100 0 144 80.5t44 271.5zM518 1313
q0 123 115 123q121 0 121 -123q0 -127 -121 -127q-115 0 -115 127zM197 1313q0 61 31 92t87 31q119 0 119 -123q0 -62 -30.5 -94.5t-88.5 -32.5q-56 0 -87 32.5t-31 94.5z" />
    <glyph glyph-name="divide" unicode="&#xf7;" horiz-adv-x="792" 
d="M281 981q0 61 30 94t84 33q56 0 85.5 -33t29.5 -94t-30 -95t-85 -34q-54 0 -84 34.5t-30 94.5zM713 715v-160h-631v160h631zM281 295q0 61 30 94t84 33q56 0 85.5 -33t29.5 -94q0 -63 -29.5 -96t-85.5 -33q-54 0 -84 33t-30 96z" />
    <glyph glyph-name="oslash" unicode="&#xf8;" horiz-adv-x="948" 
d="M477 -27q-158 0 -254 84l-43 -57h-147l114 158q-63 132 -63 348q0 265 102 394.5t291 129.5q167 0 256 -86l43 60h146l-115 -160q59 -121 59 -338q0 -266 -99 -399.5t-290 -133.5zM477 862q-105 0 -149.5 -82t-44.5 -276q0 -72 12 -162l319 449q-43 71 -137 71zM477 141
q100 0 145.5 84t45.5 279q0 76 -11 151l-317 -448q43 -66 137 -66z" />
    <glyph glyph-name="ugrave" unicode="&#xf9;" horiz-adv-x="993" 
d="M870 0h-176l-14 174q-41 -101 -112.5 -151t-159.5 -50q-149 0 -222 102t-73 285v644h206v-609q0 -239 156 -239q85 0 135.5 84.5t53.5 244.5v519h206v-1004zM426 1178l-195 235v14h238l123 -241v-8h-166z" />
    <glyph glyph-name="uacute" unicode="&#xfa;" horiz-adv-x="993" 
d="M870 0h-176l-14 174q-41 -101 -112.5 -151t-159.5 -50q-149 0 -222 102t-73 285v644h206v-609q0 -239 156 -239q85 0 135.5 84.5t53.5 244.5v519h206v-1004zM752 1409l-191 -235h-164v8l123 241h232v-14z" />
    <glyph glyph-name="ucircumflex" unicode="&#xfb;" horiz-adv-x="993" 
d="M870 0h-176l-14 174q-41 -101 -112.5 -151t-159.5 -50q-149 0 -222 102t-73 285v644h206v-609q0 -239 156 -239q85 0 135.5 84.5t53.5 244.5v519h206v-1004zM487 1309l-96 -135h-178v6l190 243h179l192 -243v-6h-186z" />
    <glyph glyph-name="udieresis" unicode="&#xfc;" horiz-adv-x="993" 
d="M870 0h-176l-14 174q-41 -101 -112.5 -151t-159.5 -50q-149 0 -222 102t-73 285v644h206v-609q0 -239 156 -239q85 0 135.5 84.5t53.5 244.5v519h206v-1004zM543 1313q0 123 114 123q121 0 121 -123q0 -127 -121 -127q-114 0 -114 127zM221 1313q0 61 31.5 92t87.5 31
q119 0 119 -123q0 -62 -30.5 -94.5t-88.5 -32.5q-56 0 -87.5 32.5t-31.5 94.5z" />
    <glyph glyph-name="yacute" unicode="&#xfd;" horiz-adv-x="851" 
d="M297 -119l25 101l-308 1022h222l194 -754l197 754h211l-361 -1194q-42 -140 -116 -198t-183 -58q-94 0 -170 36l45 168q64 -22 107 -22q56 0 87 32t50 113zM686 1409l-190 -235h-164v8l123 241h231v-14z" />
    <glyph glyph-name="thorn" unicode="&#xfe;" horiz-adv-x="976" 
d="M330 500q0 -178 50 -266.5t132 -88.5q94 0 139 87.5t45 269.5t-44 267t-134 85q-88 0 -138 -86.5t-50 -267.5zM123 -383v1817h207v-574q36 82 104.5 126t153.5 44q151 0 232 -134t81 -388q0 -257 -88 -396t-258 -139q-140 0 -225 136v-492h-207z" />
    <glyph glyph-name="ydieresis" unicode="&#xff;" horiz-adv-x="851" 
d="M297 -119l25 101l-308 1022h222l194 -754l197 754h211l-361 -1194q-42 -140 -116 -198t-183 -58q-94 0 -170 36l45 168q64 -22 107 -22q56 0 87 32t50 113zM477 1313q0 123 115 123q121 0 121 -123q0 -127 -121 -127q-115 0 -115 127zM156 1313q0 61 31 92t87 31
q119 0 119 -123q0 -62 -30.5 -94.5t-88.5 -32.5q-56 0 -87 32.5t-31 94.5z" />
    <glyph glyph-name="Amacron" unicode="&#x100;" horiz-adv-x="1040" 
d="M516 1186l-172 -729h346zM799 0l-66 274h-430l-65 -274h-220l371 1434h264l369 -1434h-223zM733 1794v-141h-430v141h430z" />
    <glyph glyph-name="amacron" unicode="&#x101;" horiz-adv-x="901" 
d="M389 135q86 0 141.5 79.5t55.5 215.5v29h-84q-113 0 -174.5 -51.5t-61.5 -137.5q0 -62 32.5 -98.5t90.5 -36.5zM614 0l-16 170q-39 -92 -107 -143.5t-157 -51.5q-118 0 -187 76t-69 207q0 158 109.5 255t293.5 97h105v15q-3 121 -52 175t-122 54q-131 0 -176 -139
l-156 94q42 104 129.5 162.5t222.5 58.5q175 0 265.5 -98t90.5 -314v-618h-174zM645 1366v-141h-430v141h430z" />
    <glyph glyph-name="Abreve" unicode="&#x102;" horiz-adv-x="1040" 
d="M516 1186l-172 -729h346zM799 0l-66 274h-430l-65 -274h-220l371 1434h264l369 -1434h-223zM635 1851h135q0 -143 -62.5 -202.5t-187.5 -59.5t-187.5 59.5t-62.5 202.5h136q0 -73 26.5 -103t85.5 -30q62 0 89.5 30t27.5 103z" />
    <glyph glyph-name="abreve" unicode="&#x103;" horiz-adv-x="901" 
d="M389 135q86 0 141.5 79.5t55.5 215.5v29h-84q-113 0 -174.5 -51.5t-61.5 -137.5q0 -62 32.5 -98.5t90.5 -36.5zM614 0l-16 170q-39 -92 -107 -143.5t-157 -51.5q-118 0 -187 76t-69 207q0 158 109.5 255t293.5 97h105v15q-3 121 -52 175t-122 54q-131 0 -176 -139
l-156 94q42 104 129.5 162.5t222.5 58.5q175 0 265.5 -98t90.5 -314v-618h-174zM547 1423h135q0 -143 -62.5 -202.5t-187.5 -59.5t-187.5 59.5t-62.5 202.5h135q0 -73 27 -103t86 -30q62 0 89.5 30t27.5 103z" />
    <glyph glyph-name="Aogonek" unicode="&#x104;" horiz-adv-x="1040" 
d="M1020 -385q-80 -61 -170 -61q-42 0 -79 12t-69 37.5t-50.5 73t-18.5 112.5q0 94 43.5 162t109.5 100l-53 223h-432l-65 -274h-218l371 1434h264l369 -1434h-107q-72 -7 -112.5 -62t-40.5 -126q0 -60 29.5 -87.5t74.5 -27.5q54 0 95 35zM516 1190l-174 -733h350z" />
    <glyph glyph-name="aogonek" unicode="&#x105;" horiz-adv-x="901" 
d="M868 -385q-74 -59 -168 -59q-43 0 -79.5 11.5t-68.5 37t-50.5 72.5t-18.5 112q0 85 34.5 150t92.5 104l-12 127q-39 -92 -107 -143.5t-157 -51.5q-118 0 -187 76t-69 207q0 158 109.5 255t293.5 97h105v15q-3 121 -52 175t-122 54q-131 0 -176 -139l-156 94
q42 104 129.5 162.5t222.5 58.5q175 0 265.5 -98t90.5 -314v-618h-30q-69 -9 -107.5 -63.5t-38.5 -124.5q0 -59 30.5 -87t74.5 -28q53 0 94 35zM389 135q86 0 141.5 79.5t55.5 215.5v29h-84q-113 0 -174.5 -51.5t-61.5 -137.5q0 -62 32.5 -98.5t90.5 -36.5z" />
    <glyph glyph-name="Cacute" unicode="&#x106;" horiz-adv-x="1101" 
d="M610 -27q-260 0 -384 177.5t-124 568.5q0 390 125.5 565.5t386.5 175.5q174 0 283 -82.5t158 -283.5l-191 -70q-31 132 -92.5 187t-159.5 55q-72 0 -123.5 -25.5t-90 -87t-57.5 -169t-19 -265.5q0 -160 19 -269t58 -172t91.5 -89.5t125.5 -26.5q97 0 164 59t105 193
l182 -78q-51 -184 -168.5 -273.5t-288.5 -89.5zM868 1841l-190 -235h-164v8l123 241h231v-14z" />
    <glyph glyph-name="cacute" unicode="&#x107;" horiz-adv-x="843" 
d="M459 -27q-383 0 -383 531q0 266 101.5 396t293.5 130q132 0 212 -66.5t120 -207.5l-172 -78q-25 90 -63.5 132t-98.5 42q-100 0 -146.5 -79.5t-46.5 -270.5q0 -188 45 -269t144 -81q65 0 107.5 41.5t68.5 130.5l170 -76q-42 -130 -125 -202.5t-227 -72.5zM719 1409
l-191 -235h-163v8l122 241h232v-14z" />
    <glyph glyph-name="Ccircumflex" unicode="&#x108;" horiz-adv-x="1101" 
d="M610 -27q-260 0 -384 177.5t-124 568.5q0 390 125.5 565.5t386.5 175.5q174 0 283 -82.5t158 -283.5l-191 -70q-31 132 -92.5 187t-159.5 55q-72 0 -123.5 -25.5t-90 -87t-57.5 -169t-19 -265.5q0 -160 19 -269t58 -172t91.5 -89.5t125.5 -26.5q97 0 164 59t105 193
l182 -78q-51 -184 -168.5 -273.5t-288.5 -89.5zM602 1741l-96 -135h-178v6l190 243h178l193 -243v-6h-187z" />
    <glyph glyph-name="ccircumflex" unicode="&#x109;" horiz-adv-x="843" 
d="M459 -27q-383 0 -383 531q0 266 101.5 396t293.5 130q132 0 212 -66.5t120 -207.5l-172 -78q-25 90 -63.5 132t-98.5 42q-100 0 -146.5 -79.5t-46.5 -270.5q0 -188 45 -269t144 -81q65 0 107.5 41.5t68.5 130.5l170 -76q-42 -130 -125 -202.5t-227 -72.5zM455 1309
l-97 -135h-178v6l191 243h178l192 -243v-6h-186z" />
    <glyph glyph-name="Cdotaccent" unicode="&#x10a;" horiz-adv-x="1101" 
d="M610 -27q-260 0 -384 177.5t-124 568.5q0 390 125.5 565.5t386.5 175.5q174 0 283 -82.5t158 -283.5l-191 -70q-31 132 -92.5 187t-159.5 55q-72 0 -123.5 -25.5t-90 -87t-57.5 -169t-19 -265.5q0 -160 19 -269t58 -172t91.5 -89.5t125.5 -26.5q97 0 164 59t105 193
l182 -78q-51 -184 -168.5 -273.5t-288.5 -89.5zM483 1743q0 125 123 125q121 0 121 -125q0 -127 -121 -127q-59 0 -91 32.5t-32 94.5z" />
    <glyph glyph-name="cdotaccent" unicode="&#x10b;" horiz-adv-x="843" 
d="M459 -27q-383 0 -383 531q0 266 101.5 396t293.5 130q132 0 212 -66.5t120 -207.5l-172 -78q-25 90 -63.5 132t-98.5 42q-100 0 -146.5 -79.5t-46.5 -270.5q0 -188 45 -269t144 -81q65 0 107.5 41.5t68.5 130.5l170 -76q-42 -130 -125 -202.5t-227 -72.5zM334 1311
q0 125 123 125q121 0 121 -125q0 -127 -121 -127q-59 0 -91 32.5t-32 94.5z" />
    <glyph glyph-name="Ccaron" unicode="&#x10c;" horiz-adv-x="1101" 
d="M610 -27q-260 0 -384 177.5t-124 568.5q0 390 125.5 565.5t386.5 175.5q174 0 283 -82.5t158 -283.5l-191 -70q-31 132 -92.5 187t-159.5 55q-72 0 -123.5 -25.5t-90 -87t-57.5 -169t-19 -265.5q0 -160 19 -269t58 -172t91.5 -89.5t125.5 -26.5q97 0 164 59t105 193
l182 -78q-51 -184 -168.5 -273.5t-288.5 -89.5zM612 1724l103 131h178v-6l-195 -243h-178l-188 243v6h184z" />
    <glyph glyph-name="ccaron" unicode="&#x10d;" horiz-adv-x="843" 
d="M459 -27q-383 0 -383 531q0 266 101.5 396t293.5 130q132 0 212 -66.5t120 -207.5l-172 -78q-25 90 -63.5 132t-98.5 42q-100 0 -146.5 -79.5t-46.5 -270.5q0 -188 45 -269t144 -81q65 0 107.5 41.5t68.5 130.5l170 -76q-42 -130 -125 -202.5t-227 -72.5zM463 1292
l102 131h178v-6l-194 -243h-178l-189 243v6h185z" />
    <glyph glyph-name="Dcaron" unicode="&#x10e;" horiz-adv-x="1183" 
d="M543 0h-391v1434h399q269 0 399.5 -171.5t130.5 -537.5q0 -365 -134 -545t-404 -180zM537 190q77 0 135.5 27t102.5 87.5t66.5 164t22.5 250.5q0 189 -36.5 306.5t-104 167.5t-170.5 50h-184v-1053h168zM610 1722l103 131h178v-6l-195 -243h-178l-188 243v6h184z" />
    <glyph glyph-name="dcaron" unicode="&#x10f;" horiz-adv-x="1122" 
d="M1106 956h-137l10 478h176zM645 498q0 184 -49.5 272t-136.5 88q-180 0 -180 -356q0 -357 180 -357q87 0 136.5 87.5t49.5 265.5zM680 0l-16 160q-85 -187 -269 -187q-150 0 -234.5 136t-84.5 391q0 256 89 393t247 137q148 0 231 -160v564h207v-1434h-170z" />
    <glyph glyph-name="Dcroat" unicode="&#x110;" horiz-adv-x="1214" 
d="M571 0h-389v639h-114v178h114v617h400q268 0 398 -171.5t130 -537.5q0 -365 -134.5 -545t-404.5 -180zM399 190h166q78 0 136.5 27t102.5 87.5t66.5 164t22.5 250.5q0 282 -77.5 404t-233.5 122h-183v-428h203v-178h-203v-449z" />
    <glyph glyph-name="dcroat" unicode="&#x111;" horiz-adv-x="997" 
d="M645 498q0 181 -49 268.5t-137 87.5q-180 0 -180 -352q0 -182 44.5 -269.5t135.5 -87.5q87 0 136.5 88t49.5 265zM664 160q-85 -187 -269 -187q-150 0 -234.5 136t-84.5 389q0 255 89.5 391.5t246.5 136.5q147 0 231 -158v267h-215v133h215v166h209v-166h106v-133h-106
v-1135h-172z" />
    <glyph glyph-name="Emacron" unicode="&#x112;" horiz-adv-x="1046" 
d="M152 0v1434h825v-189h-615v-432h525v-195h-525v-430h605v-188h-815zM784 1794v-141h-430v141h430z" />
    <glyph glyph-name="emacron" unicode="&#x113;" horiz-adv-x="876" 
d="M459 -27q-180 0 -281.5 132t-101.5 395q0 256 99 393t284 137q89 0 157 -37t109 -104t61.5 -155t20.5 -195q0 -35 -4 -105h-529q7 -152 57 -219.5t142 -67.5q129 0 178 162l160 -76q-22 -57 -50 -100.5t-69 -81.5t-100 -58t-133 -20zM455 856q-164 0 -181 -264h338
q-3 264 -157 264zM664 1364v-141h-431v141h431z" />
    <glyph glyph-name="Ebreve" unicode="&#x114;" horiz-adv-x="1046" 
d="M152 0v1434h825v-189h-615v-432h525v-195h-525v-430h605v-188h-815zM684 1851h135q0 -143 -62.5 -202.5t-187.5 -59.5t-187.5 59.5t-62.5 202.5h136q0 -73 26.5 -103t85.5 -30q62 0 89.5 30t27.5 103z" />
    <glyph glyph-name="ebreve" unicode="&#x115;" horiz-adv-x="876" 
d="M459 -27q-180 0 -281.5 132t-101.5 395q0 256 99 393t284 137q89 0 157 -37t109 -104t61.5 -155t20.5 -195q0 -35 -4 -105h-529q7 -152 57 -219.5t142 -67.5q129 0 178 162l160 -76q-22 -57 -50 -100.5t-69 -81.5t-100 -58t-133 -20zM455 856q-164 0 -181 -264h338
q-3 264 -157 264zM565 1421h135q0 -143 -62 -202.5t-187 -59.5t-187.5 59.5t-62.5 202.5h135q0 -73 27 -103t86 -30q61 0 88.5 30t27.5 103z" />
    <glyph glyph-name="Edotaccent" unicode="&#x116;" horiz-adv-x="1046" 
d="M152 0v1434h825v-189h-615v-432h525v-195h-525v-430h605v-188h-815zM444 1741q0 125 123 125q121 0 121 -125q0 -127 -121 -127q-59 0 -91 32.5t-32 94.5z" />
    <glyph glyph-name="edotaccent" unicode="&#x117;" horiz-adv-x="876" 
d="M459 -27q-180 0 -281.5 132t-101.5 395q0 256 99 393t284 137q89 0 157 -37t109 -104t61.5 -155t20.5 -195q0 -35 -4 -105h-529q7 -152 57 -219.5t142 -67.5q129 0 178 162l160 -76q-22 -57 -50 -100.5t-69 -81.5t-100 -58t-133 -20zM455 856q-164 0 -181 -264h338
q-3 264 -157 264zM326 1311q0 125 123 125q120 0 120 -125q0 -127 -120 -127q-59 0 -91 32.5t-32 94.5z" />
    <glyph glyph-name="Eogonek" unicode="&#x118;" horiz-adv-x="1046" 
d="M981 -385q-80 -61 -168 -61q-44 0 -81 12t-69 37.5t-50.5 73t-18.5 112.5q0 126 78 211h-520v1434h825v-189h-615v-432h525v-195h-525v-430h605v-188h-90q-73 -7 -113.5 -62t-40.5 -126q0 -60 29.5 -87.5t74.5 -27.5q54 0 95 35z" />
    <glyph glyph-name="eogonek" unicode="&#x119;" horiz-adv-x="876" 
d="M555 -446q-42 0 -79 12t-69 37.5t-50.5 73t-18.5 112.5q0 109 59 188q-155 22 -238 151.5t-83 371.5q0 256 99 393t284 137q89 0 157 -37t109 -104t61.5 -155t20.5 -195q0 -35 -4 -105h-529q7 -152 57 -219.5t142 -67.5q129 0 178 162l160 -76q-80 -201 -240 -245
q-51 -22 -77.5 -70t-26.5 -106q0 -60 29.5 -87.5t74.5 -27.5q54 0 95 35l57 -117q-77 -61 -168 -61zM455 856q-164 0 -181 -264h338q-3 264 -157 264z" />
    <glyph glyph-name="Ecaron" unicode="&#x11a;" horiz-adv-x="1046" 
d="M152 0v1434h825v-189h-615v-432h525v-195h-525v-430h605v-188h-815zM573 1722l103 131h178v-6l-195 -243h-178l-188 243v6h184z" />
    <glyph glyph-name="ecaron" unicode="&#x11b;" horiz-adv-x="876" 
d="M459 -27q-180 0 -281.5 132t-101.5 395q0 256 99 393t284 137q89 0 157 -37t109 -104t61.5 -155t20.5 -195q0 -35 -4 -105h-529q7 -152 57 -219.5t142 -67.5q129 0 178 162l160 -76q-22 -57 -50 -100.5t-69 -81.5t-100 -58t-133 -20zM455 856q-164 0 -181 -264h338
q-3 264 -157 264zM455 1292l102 131h178v-6l-194 -243h-179l-188 243v6h184z" />
    <glyph glyph-name="Gcircumflex" unicode="&#x11c;" horiz-adv-x="1165" 
d="M575 -27q-230 0 -351.5 185t-121.5 561q0 389 126 564t388 177q173 0 283.5 -82t155.5 -274l-187 -74q-37 132 -97.5 185t-154.5 53q-76 0 -128.5 -25.5t-92 -86.5t-58 -169t-18.5 -268q0 -159 19 -269t58 -174t92 -92t126 -28q47 0 88 18t77.5 57t58.5 112.5t24 174.5
v43h-246v176h445v-737h-150l-22 178q-42 -98 -125.5 -151.5t-188.5 -53.5zM608 1741l-96 -135h-178v6l190 243h178l193 -243v-6h-186z" />
    <glyph glyph-name="gcircumflex" unicode="&#x11d;" horiz-adv-x="972" 
d="M449 1309l-97 -135h-178v6l191 243h178l192 -243v-6h-186zM645 520q0 168 -49.5 252t-134.5 84q-91 0 -136.5 -82t-45.5 -256q0 -346 176 -346q89 0 139.5 86.5t50.5 261.5zM442 -444q-150 0 -242 64t-141 192l170 88q54 -174 201 -174q213 0 213 294v152
q-36 -81 -100 -124.5t-144 -43.5q-151 0 -237 129.5t-86 380.5t90.5 383.5t255.5 132.5q157 0 244 -172l14 146h172v-971q0 -237 -109 -357t-301 -120z" />
    <glyph glyph-name="Gbreve" unicode="&#x11e;" horiz-adv-x="1165" 
d="M575 -27q-230 0 -351.5 185t-121.5 561q0 389 126 564t388 177q173 0 283.5 -82t155.5 -274l-187 -74q-37 132 -97.5 185t-154.5 53q-76 0 -128.5 -25.5t-92 -86.5t-58 -169t-18.5 -268q0 -159 19 -269t58 -174t92 -92t126 -28q47 0 88 18t77.5 57t58.5 112.5t24 174.5
v43h-246v176h445v-737h-150l-22 178q-42 -98 -125.5 -151.5t-188.5 -53.5zM725 1853h135q0 -143 -62.5 -202.5t-187.5 -59.5t-187.5 59.5t-62.5 202.5h136q0 -73 26.5 -103t85.5 -30q62 0 89.5 30t27.5 103z" />
    <glyph glyph-name="gbreve" unicode="&#x11f;" horiz-adv-x="972" 
d="M645 520q0 168 -49.5 252t-134.5 84q-91 0 -136.5 -82t-45.5 -256q0 -346 176 -346q89 0 139.5 86.5t50.5 261.5zM442 -444q-150 0 -242 64t-141 192l170 88q54 -174 201 -174q213 0 213 294v152q-36 -81 -100 -124.5t-144 -43.5q-151 0 -237 129.5t-86 380.5t90.5 383.5
t255.5 132.5q157 0 244 -172l14 146h172v-971q0 -237 -109 -357t-301 -120zM565 1421h135q0 -143 -62 -202.5t-187 -59.5t-187.5 59.5t-62.5 202.5h135q0 -73 27 -103t86 -30q61 0 88.5 30t27.5 103z" />
    <glyph glyph-name="Gdotaccent" unicode="&#x120;" horiz-adv-x="1165" 
d="M575 -27q-230 0 -351.5 185t-121.5 561q0 389 126 564t388 177q173 0 283.5 -82t155.5 -274l-187 -74q-37 132 -97.5 185t-154.5 53q-76 0 -128.5 -25.5t-92 -86.5t-58 -169t-18.5 -268q0 -159 19 -269t58 -174t92 -92t126 -28q47 0 88 18t77.5 57t58.5 112.5t24 174.5
v43h-246v176h445v-737h-150l-22 178q-42 -98 -125.5 -151.5t-188.5 -53.5zM485 1743q0 125 123 125q121 0 121 -125q0 -127 -121 -127q-59 0 -91 32.5t-32 94.5z" />
    <glyph glyph-name="gdotaccent" unicode="&#x121;" horiz-adv-x="972" 
d="M645 520q0 168 -49.5 252t-134.5 84q-91 0 -136.5 -82t-45.5 -256q0 -346 176 -346q89 0 139.5 86.5t50.5 261.5zM442 -444q-150 0 -242 64t-141 192l170 88q54 -174 201 -174q213 0 213 294v152q-36 -81 -100 -124.5t-144 -43.5q-151 0 -237 129.5t-86 380.5t90.5 383.5
t255.5 132.5q157 0 244 -172l14 146h172v-971q0 -237 -109 -357t-301 -120zM330 1311q0 125 123 125q120 0 120 -125q0 -127 -120 -127q-59 0 -91 32.5t-32 94.5z" />
    <glyph glyph-name="Gcommaaccent" unicode="&#x122;" horiz-adv-x="1165" 
d="M575 -27q-230 0 -351.5 185t-121.5 561q0 389 126 564t388 177q173 0 283.5 -82t155.5 -274l-187 -74q-37 132 -97.5 185t-154.5 53q-76 0 -128.5 -25.5t-92 -86.5t-58 -169t-18.5 -268q0 -159 19 -269t58 -174t92 -92t126 -28q47 0 88 18t77.5 57t58.5 112.5t24 174.5
v43h-246v176h445v-737h-150l-22 178q-42 -98 -125.5 -151.5t-188.5 -53.5zM713 -283q0 -122 -54.5 -210.5t-146.5 -124.5l-53 79q121 68 133 177q-54 -3 -86.5 26.5t-32.5 89.5q0 59 31.5 89t89.5 30q57 0 88 -40t31 -116z" />
    <glyph glyph-name="gcommaaccent" unicode="&#x123;" horiz-adv-x="972" 
d="M319 1311q0 123 54.5 211.5t146.5 124.5l53 -80q-55 -31 -91 -76t-42 -100q54 3 86.5 -27t32.5 -90q0 -59 -31.5 -89t-89.5 -30q-57 0 -88 40t-31 116zM645 520q0 168 -49.5 252t-134.5 84q-91 0 -136.5 -82t-45.5 -256q0 -346 176 -346q89 0 139.5 86.5t50.5 261.5z
M442 -444q-150 0 -242 64t-141 192l170 88q54 -174 201 -174q213 0 213 294v152q-36 -81 -100 -124.5t-144 -43.5q-151 0 -237 129.5t-86 380.5t90.5 383.5t255.5 132.5q157 0 244 -172l14 146h172v-971q0 -237 -109 -357t-301 -120z" />
    <glyph glyph-name="Hcircumflex" unicode="&#x124;" horiz-adv-x="1249" 
d="M879 0v621h-510v-621h-217v1434h217v-615h510v615h217v-1434h-217zM621 1741l-97 -135h-178v6l191 243h178l192 -243v-6h-186z" />
    <glyph glyph-name="hcircumflex" unicode="&#x125;" horiz-adv-x="999" 
d="M678 600q0 126 -38.5 184t-113.5 58q-89 0 -141 -88.5t-55 -251.5v-502h-207v1434h207v-621q41 111 113.5 164t164.5 53q139 0 208 -97.5t69 -281.5v-651h-207v600zM223 1739l-96 -135h-178v6l190 243h178l193 -243v-6h-186z" />
    <glyph glyph-name="Hbar" unicode="&#x126;" horiz-adv-x="1284" 
d="M389 819h510v193h-510v-193zM899 0v621h-510v-621h-217v1012h-104v139h104v283h217v-283h510v283h217v-283h103v-139h-103v-1012h-217z" />
    <glyph glyph-name="hbar" unicode="&#x127;" horiz-adv-x="1017" 
d="M352 498v-498h-209v1135h-104v133h104v166h209v-166h217v-133h-217v-326q40 111 112.5 166t164.5 55q137 0 205.5 -104.5t68.5 -300.5v-625h-207v573q0 263 -149 263q-89 0 -140.5 -87.5t-54.5 -250.5z" />
    <glyph glyph-name="Itilde" unicode="&#x128;" horiz-adv-x="522" 
d="M152 0v1434h217v-1434h-217zM399 1841h129q7 -115 -38.5 -168t-112.5 -53q-38 0 -78 20t-73 40t-56 20q-45 0 -45 -74h-133q-5 116 39 167.5t108 51.5q41 0 82 -19t75 -38t58 -19q27 0 36 19t9 53z" />
    <glyph glyph-name="itilde" unicode="&#x129;" horiz-adv-x="456" 
d="M123 1004h209v-1004h-209v1004zM367 1411h129q7 -115 -39 -168t-113 -53q-38 0 -78 20t-73 40t-56 20q-45 0 -45 -74h-133q-5 116 39 167.5t108 51.5q41 0 82.5 -19t75.5 -38t58 -19q27 0 36 19t9 53z" />
    <glyph glyph-name="Imacron" unicode="&#x12a;" horiz-adv-x="522" 
d="M152 0v1434h217v-1434h-217zM477 1794v-141h-430v141h430z" />
    <glyph glyph-name="imacron" unicode="&#x12b;" horiz-adv-x="458" 
d="M123 1004h209v-1004h-209v1004zM444 1364v-141h-430v141h430z" />
    <glyph glyph-name="Ibreve" unicode="&#x12c;" horiz-adv-x="522" 
d="M152 0v1434h217v-1434h-217zM377 1851h135q0 -143 -62.5 -202.5t-187.5 -59.5t-187.5 59.5t-62.5 202.5h135q0 -73 27 -103t86 -30q62 0 89.5 30t27.5 103z" />
    <glyph glyph-name="ibreve" unicode="&#x12d;" horiz-adv-x="456" 
d="M123 1004h209v-1004h-209v1004zM344 1421h135q0 -143 -62.5 -202.5t-187.5 -59.5t-187 59.5t-62 202.5h135q0 -73 26.5 -103t85.5 -30q62 0 89.5 30t27.5 103z" />
    <glyph glyph-name="Iogonek" unicode="&#x12e;" horiz-adv-x="520" 
d="M391 -385q-83 -61 -168 -61q-42 0 -79.5 12t-70.5 37.5t-52 73t-19 112.5q0 93 42.5 161t107.5 101v1383h217v-1434h-84q-72 -7 -112 -62t-40 -126q0 -60 31 -87.5t76 -27.5q51 0 92 35z" />
    <glyph glyph-name="iogonek" unicode="&#x12f;" horiz-adv-x="456" 
d="M100 1313q0 65 33 99t94 34t95 -34t34 -99q0 -64 -34 -98.5t-95 -34.5q-60 0 -93.5 34.5t-33.5 98.5zM354 -385q-83 -61 -170 -61q-42 0 -79 12t-69.5 37.5t-51.5 73t-19 112.5q0 95 44.5 165t113.5 105v945h209v-1004h-84q-73 -7 -113.5 -62t-40.5 -126q0 -60 31 -87.5
t76 -27.5q51 0 92 35z" />
    <glyph glyph-name="Idotaccent" unicode="&#x130;" horiz-adv-x="522" 
d="M152 0v1434h217v-1434h-217zM137 1741q0 125 123 125q121 0 121 -125q0 -127 -121 -127q-59 0 -91 32.5t-32 94.5z" />
    <glyph glyph-name="dotlessi" unicode="&#x131;" horiz-adv-x="456" 
d="M123 1004h209v-1004h-209v1004z" />
    <glyph glyph-name="IJ" unicode="&#x132;" horiz-adv-x="1355" 
d="M152 0v1434h217v-1434h-217zM1231 506q0 -533 -414 -533q-79 0 -157 27t-138 82l109 164q78 -78 186 -78q197 0 197 319v947h217v-928z" />
    <glyph glyph-name="ij" unicode="&#x133;" horiz-adv-x="905" 
d="M100 1313q0 65 33 99t94 34t95 -34t34 -99q0 -64 -34 -98.5t-95 -34.5q-60 0 -93.5 34.5t-33.5 98.5zM125 1004h207v-1004h-207v1004zM678 1180q-60 0 -93.5 34.5t-33.5 98.5q0 65 33 99t94 34t95 -34t34 -99q0 -64 -34 -98.5t-95 -34.5zM573 -76v1080h209v-1100
q0 -175 -73.5 -261.5t-202.5 -86.5q-100 0 -172 38l51 170q36 -20 82 -20q55 0 80.5 40t25.5 140z" />
    <glyph glyph-name="Jcircumflex" unicode="&#x134;" horiz-adv-x="827" 
d="M705 506q0 -533 -414 -533q-79 0 -157 27t-138 82l108 164q78 -78 187 -78q196 0 196 319v947h218v-928zM590 1739l-96 -135h-179v6l191 243h178l193 -243v-6h-187z" />
    <glyph glyph-name="jcircumflex" unicode="&#x135;" horiz-adv-x="456" 
d="M123 -76v1080h209v-1100q0 -174 -74 -261t-203 -87q-101 0 -172 36l51 175q44 -23 84 -23q54 0 79.5 40t25.5 140zM227 1309l-96 -135h-178v6l190 243h179l192 -243v-6h-186z" />
    <glyph glyph-name="Kcommaaccent" unicode="&#x136;" horiz-adv-x="1073" 
d="M371 401v-401h-219v1434h219l-4 -727l444 727h240l-406 -615l424 -819h-250l-309 606zM692 -283q0 -123 -54 -211t-146 -124l-54 79q121 68 133 177q-54 -3 -86 26.5t-32 89.5q0 119 120 119q57 0 88 -40t31 -116z" />
    <glyph glyph-name="kcommaaccent" unicode="&#x137;" horiz-adv-x="880" 
d="M330 246v-246h-207v1434h207l-4 -936l307 506h229l-303 -437l309 -567h-235l-199 395zM588 -283q0 -122 -54.5 -210.5t-146.5 -124.5l-53 79q121 68 133 177q-54 -3 -86.5 26.5t-32.5 89.5q0 59 31.5 89t89.5 30q57 0 88 -40t31 -116z" />
    <glyph glyph-name="kgreenlandic" unicode="&#x138;" horiz-adv-x="880" 
d="M330 246v-246h-207v1004h207l-4 -506l307 506h229l-301 -437l307 -567h-235l-201 397z" />
    <glyph glyph-name="Lacute" unicode="&#x139;" horiz-adv-x="995" 
d="M371 195h579v-195h-798v1434h219v-1239zM520 1839l-190 -235h-164v8l123 241h231v-14z" />
    <glyph glyph-name="lacute" unicode="&#x13a;" horiz-adv-x="456" 
d="M342 0q-106 0 -164.5 57.5t-58.5 188.5v1188h207v-1184q0 -40 19 -61t46 -21h76v-168h-125zM489 1839l-190 -235h-164v8l123 241h231v-14z" />
    <glyph glyph-name="Lcommaaccent" unicode="&#x13b;" horiz-adv-x="995" 
d="M371 195h579v-195h-798v1434h219v-1239zM670 -283q0 -122 -54.5 -210.5t-146.5 -124.5l-53 79q121 68 133 177q-54 -3 -86.5 26.5t-32.5 89.5q0 59 31.5 89t89.5 30q57 0 88 -40t31 -116z" />
    <glyph glyph-name="lcommaaccent" unicode="&#x13c;" horiz-adv-x="456" 
d="M342 0q-106 0 -164.5 57.5t-58.5 188.5v1188h207v-1184q0 -40 19 -61t46 -21h76v-168h-125zM349 -283q0 -122 -54.5 -210.5t-146.5 -124.5l-53 79q121 68 133 177q-54 -3 -86 26.5t-32 89.5q0 119 120 119q57 0 88 -40t31 -116z" />
    <glyph glyph-name="Lcaron" unicode="&#x13d;" horiz-adv-x="997" 
d="M758 958h-137l10 478h176zM371 195h579v-195h-798v1434h219v-1239z" />
    <glyph glyph-name="lcaron" unicode="&#x13e;" horiz-adv-x="604" 
d="M588 961h-137l10 477h176zM346 0q-106 0 -164.5 57.5t-58.5 188.5v1188h207v-1184q0 -40 19 -61t46 -21h76v-168h-125z" />
    <glyph glyph-name="Ldot" unicode="&#x13f;" horiz-adv-x="997" 
d="M371 195h579v-195h-798v1434h219v-1239zM616 735q0 125 123 125q121 0 121 -125q0 -127 -121 -127q-59 0 -91 32.5t-32 94.5z" />
    <glyph glyph-name="ldot" unicode="&#x140;" horiz-adv-x="651" 
d="M346 0q-106 0 -164.5 57.5t-58.5 188.5v1188h207v-1184q0 -40 19 -61t46 -21h76v-168h-125zM420 629q0 125 123 125q121 0 121 -125q0 -127 -121 -127q-59 0 -91 32.5t-32 94.5z" />
    <glyph glyph-name="Lslash" unicode="&#x141;" horiz-adv-x="1026" 
d="M981 0h-797v492l-145 -125v196l145 123v748h217v-613l263 215v-200l-263 -215v-426h580v-195z" />
    <glyph glyph-name="lslash" unicode="&#x142;" horiz-adv-x="514" 
d="M500 0h-125q-106 0 -164.5 57.5t-58.5 188.5v258l-132 -139v196l132 137v736h206v-557l146 151v-197l-146 -151v-430q0 -40 19.5 -61t46.5 -21h76v-168z" />
    <glyph glyph-name="Nacute" unicode="&#x143;" horiz-adv-x="1234" 
d="M885 0l-537 997l4 -997h-200v1434h190l547 -1014l-8 1014h202v-1434h-198zM879 1841l-191 -235h-164v8l123 241h232v-14z" />
    <glyph glyph-name="nacute" unicode="&#x144;" horiz-adv-x="999" 
d="M123 1004h176l18 -191q82 217 285 217q283 0 283 -379v-651h-207v604q0 124 -38 181t-114 57q-88 0 -141.5 -89.5t-54.5 -250.5v-502h-207v1004zM791 1409l-191 -235h-164v8l123 241h232v-14z" />
    <glyph glyph-name="Ncommaaccent" unicode="&#x145;" horiz-adv-x="1234" 
d="M885 0l-537 997l4 -997h-200v1434h190l547 -1014l-8 1014h202v-1434h-198zM737 -283q0 -123 -54 -211t-146 -124l-54 79q121 68 133 177q-54 -3 -86 26.5t-32 89.5q0 119 120 119q57 0 88 -40t31 -116z" />
    <glyph glyph-name="ncommaaccent" unicode="&#x146;" horiz-adv-x="999" 
d="M123 1004h176l18 -191q82 217 285 217q283 0 283 -379v-651h-207v604q0 124 -38 181t-114 57q-88 0 -141.5 -89.5t-54.5 -250.5v-502h-207v1004zM627 -283q0 -122 -54.5 -210.5t-146.5 -124.5l-53 79q121 68 133 177q-54 -3 -86.5 26.5t-32.5 89.5q0 59 31.5 89t89.5 30
q57 0 88 -40t31 -116z" />
    <glyph glyph-name="Ncaron" unicode="&#x147;" horiz-adv-x="1234" 
d="M885 0l-537 997l4 -997h-200v1434h190l547 -1014l-8 1014h202v-1434h-198zM623 1724l102 131h178v-6l-194 -243h-179l-188 243v6h184z" />
    <glyph glyph-name="ncaron" unicode="&#x148;" horiz-adv-x="999" 
d="M123 1004h176l18 -191q82 217 285 217q283 0 283 -379v-651h-207v604q0 124 -38 181t-114 57q-88 0 -141.5 -89.5t-54.5 -250.5v-502h-207v1004zM535 1292l102 131h178v-6l-194 -243h-179l-188 243v6h184z" />
    <glyph glyph-name="Eng" unicode="&#x14a;" horiz-adv-x="1234" 
d="M874 -72v86l-528 992l4 -1006h-198v1434h190l549 -1020l-8 1020h200v-1530q0 -175 -73.5 -261.5t-204.5 -86.5q-101 0 -166 32l47 179q48 -23 84 -23q54 0 79 40.5t25 143.5z" />
    <glyph glyph-name="eng" unicode="&#x14b;" horiz-adv-x="999" 
d="M676 -74v676q0 125 -37.5 182.5t-112.5 57.5q-88 0 -141.5 -90t-54.5 -252v-500h-207v1004h176l18 -185q82 211 285 211q283 0 283 -379v-755q0 -170 -74.5 -255t-204.5 -85q-101 0 -168 34l49 177q48 -23 84 -23q55 0 80 40.5t25 141.5z" />
    <glyph glyph-name="Omacron" unicode="&#x14c;" horiz-adv-x="1226" 
d="M614 -27q-267 0 -389.5 178.5t-122.5 567.5q0 385 125 563t387 178q268 0 389 -176t121 -565q0 -386 -125 -566t-385 -180zM614 1270q-101 0 -162.5 -48.5t-95.5 -172.5t-34 -334q0 -207 33.5 -331t96 -175t162.5 -51q74 0 126 27.5t90 91.5t56.5 173.5t18.5 268.5
q0 205 -34 328t-96 173t-161 50zM821 1796v-141h-430v141h430z" />
    <glyph glyph-name="omacron" unicode="&#x14d;" 
d="M76 506q0 266 101 395t290 129q198 0 294.5 -126t96.5 -398q0 -266 -99.5 -399.5t-291.5 -133.5q-196 0 -293.5 130.5t-97.5 402.5zM655 504q0 188 -44.5 268t-143.5 80q-101 0 -146 -80t-45 -268q0 -190 46 -271t145 -81q100 0 144 80.5t44 271.5zM682 1364v-141h-430
v141h430z" />
    <glyph glyph-name="Obreve" unicode="&#x14e;" horiz-adv-x="1226" 
d="M614 -27q-267 0 -389.5 178.5t-122.5 567.5q0 385 125 563t387 178q268 0 389 -176t121 -565q0 -386 -125 -566t-385 -180zM614 1270q-101 0 -162.5 -48.5t-95.5 -172.5t-34 -334q0 -207 33.5 -331t96 -175t162.5 -51q74 0 126 27.5t90 91.5t56.5 173.5t18.5 268.5
q0 205 -34 328t-96 173t-161 50zM723 1853h135q0 -143 -62.5 -202.5t-187.5 -59.5t-187.5 59.5t-62.5 202.5h136q0 -73 26.5 -103t85.5 -30q62 0 89.5 30t27.5 103z" />
    <glyph glyph-name="obreve" unicode="&#x14f;" 
d="M76 506q0 266 101 395t290 129q198 0 294.5 -126t96.5 -398q0 -266 -99.5 -399.5t-291.5 -133.5q-196 0 -293.5 130.5t-97.5 402.5zM655 504q0 188 -44.5 268t-143.5 80q-101 0 -146 -80t-45 -268q0 -190 46 -271t145 -81q100 0 144 80.5t44 271.5zM582 1421h135
q0 -143 -62.5 -202.5t-187.5 -59.5t-187.5 59.5t-62.5 202.5h135q0 -73 27 -103t86 -30q62 0 89.5 30t27.5 103z" />
    <glyph glyph-name="Ohungarumlaut" unicode="&#x150;" horiz-adv-x="1226" 
d="M614 -27q-267 0 -389.5 178.5t-122.5 567.5q0 385 125 563t387 178q268 0 389 -176t121 -565q0 -386 -125 -566t-385 -180zM614 1270q-101 0 -162.5 -48.5t-95.5 -172.5t-34 -334q0 -207 33.5 -331t96 -175t162.5 -51q74 0 126 27.5t90 91.5t56.5 173.5t18.5 268.5
q0 205 -34 328t-96 173t-161 50zM1026 1843l-201 -237h-151v8l125 241h227v-12zM715 1855v-12l-203 -237h-152v8l125 241h230z" />
    <glyph glyph-name="ohungarumlaut" unicode="&#x151;" 
d="M76 506q0 266 101 395t290 129q198 0 294.5 -126t96.5 -398q0 -266 -99.5 -399.5t-291.5 -133.5q-196 0 -293.5 130.5t-97.5 402.5zM655 504q0 188 -44.5 268t-143.5 80q-101 0 -146 -80t-45 -268q0 -190 46 -271t145 -81q100 0 144 80.5t44 271.5zM885 1411l-201 -237
h-152v8l125 241h228v-12zM573 1423v-12l-202 -237h-152v8l125 241h229z" />
    <glyph glyph-name="OE" unicode="&#x152;" horiz-adv-x="1703" 
d="M639 0q-270 0 -403.5 178t-133.5 545q0 368 131.5 539.5t407.5 171.5h981v-187h-592v-428h514v-192h-514v-439h608v-188h-999zM643 1243q-80 0 -138 -27t-100 -87.5t-62.5 -162t-20.5 -247.5q0 -286 79 -408.5t240 -122.5h178v1055h-176z" />
    <glyph glyph-name="oe" unicode="&#x153;" horiz-adv-x="1462" 
d="M1049 -27q-205 0 -289 183q-95 -183 -293 -183q-196 0 -293.5 130.5t-97.5 402.5q0 266 101 395t290 129q209 0 293 -184q94 184 289 184q117 0 196.5 -65.5t114 -173.5t33.5 -252q3 -47 -4 -105h-527q14 -287 199 -287q129 0 178 162l160 -76q-45 -120 -127 -190
t-223 -70zM1044 856q-168 0 -182 -266h338q-3 266 -156 266zM655 504q0 190 -43.5 270t-144.5 80t-147 -80.5t-46 -269.5q0 -191 46.5 -274t146.5 -83q99 0 143.5 82.5t44.5 274.5z" />
    <glyph glyph-name="Racute" unicode="&#x154;" horiz-adv-x="1087" 
d="M573 1245h-206v-532h206q109 0 168.5 69t59.5 201q0 262 -228 262zM152 0v1434h448q206 0 312 -116t106 -329q0 -310 -219 -416l227 -573h-231l-199 524q-10 -2 -33 -2h-196v-522h-215zM852 1839l-190 -235h-164v8l123 241h231v-14z" />
    <glyph glyph-name="racute" unicode="&#x155;" horiz-adv-x="628" 
d="M123 0v1004h174l18 -209q41 125 115 184.5t172 50.5l2 -215q-133 15 -202.5 -78t-71.5 -280v-457h-207zM670 1409l-191 -235h-164v8l123 241h232v-14z" />
    <glyph glyph-name="Rcommaaccent" unicode="&#x156;" horiz-adv-x="1087" 
d="M573 1245h-206v-532h206q109 0 168.5 69t59.5 201q0 262 -228 262zM152 0v1434h448q206 0 312 -116t106 -329q0 -310 -219 -416l227 -573h-231l-199 524q-10 -2 -33 -2h-196v-522h-215zM684 -283q0 -122 -54.5 -210.5t-146.5 -124.5l-53 79q121 68 133 177
q-54 -3 -86.5 26.5t-32.5 89.5q0 59 31.5 89t89.5 30q57 0 88 -40t31 -116z" />
    <glyph glyph-name="rcommaaccent" unicode="&#x157;" horiz-adv-x="628" 
d="M123 0v1004h174l18 -209q41 125 115 184.5t172 50.5l2 -215q-133 15 -202.5 -78t-71.5 -280v-457h-207zM344 -283q0 -122 -54.5 -210.5t-146.5 -124.5l-53 79q121 68 133 177q-54 -3 -86.5 26.5t-32.5 89.5q0 59 31.5 89t89.5 30q57 0 88 -40t31 -116z" />
    <glyph glyph-name="Rcaron" unicode="&#x158;" horiz-adv-x="1087" 
d="M573 1245h-206v-532h206q109 0 168.5 69t59.5 201q0 262 -228 262zM152 0v1434h448q206 0 312 -116t106 -329q0 -310 -219 -416l227 -573h-231l-199 524q-10 -2 -33 -2h-196v-522h-215zM596 1722l102 131h179v-6l-195 -243h-178l-189 243v6h185z" />
    <glyph glyph-name="rcaron" unicode="&#x159;" horiz-adv-x="628" 
d="M123 0v1004h174l18 -209q41 125 115 184.5t172 50.5l2 -215q-133 15 -202.5 -78t-71.5 -280v-457h-207zM414 1292l102 131h178v-6l-194 -243h-178l-189 243v6h184z" />
    <glyph glyph-name="Sacute" unicode="&#x15a;" horiz-adv-x="978" 
d="M889 1118l-180 -74q-65 230 -246 230q-85 0 -137 -48.5t-52 -138.5q0 -78 47.5 -134t147.5 -99l86 -37q178 -77 260 -178t82 -260q0 -193 -111.5 -299.5t-310.5 -106.5q-177 0 -292 84.5t-169 266.5l183 82q71 -250 278 -250q101 0 156 54.5t55 151.5q0 86 -46 141.5
t-159 102.5l-84 35q-329 137 -329 432q0 169 104.5 278t296.5 109q168 0 276.5 -87.5t143.5 -254.5zM731 1831l-190 -236h-164v9l123 241h231v-14z" />
    <glyph glyph-name="sacute" unicode="&#x15b;" horiz-adv-x="757" 
d="M373 133q71 0 107 32.5t36 90.5q0 51 -32 84.5t-101 60.5l-64 25q-133 51 -197.5 125.5t-64.5 189.5q0 130 84.5 210.5t237.5 80.5q124 0 204 -56t122 -175l-160 -80q-19 68 -63 106.5t-105 38.5q-58 0 -94.5 -27.5t-36.5 -84.5q0 -88 133 -140l76 -28
q124 -47 190 -122.5t66 -193.5q0 -125 -85.5 -210t-250.5 -85q-275 0 -357 246l160 78q51 -166 195 -166zM631 1409l-191 -235h-164v8l123 241h232v-14z" />
    <glyph glyph-name="Scircumflex" unicode="&#x15c;" horiz-adv-x="978" 
d="M889 1118l-180 -74q-65 230 -246 230q-85 0 -137 -48.5t-52 -138.5q0 -78 47.5 -134t147.5 -99l86 -37q178 -77 260 -178t82 -260q0 -193 -111.5 -299.5t-310.5 -106.5q-177 0 -292 84.5t-169 266.5l183 82q71 -250 278 -250q101 0 156 54.5t55 151.5q0 86 -46 141.5
t-159 102.5l-84 35q-329 137 -329 432q0 169 104.5 278t296.5 109q168 0 276.5 -87.5t143.5 -254.5zM467 1731l-96 -136h-178v7l190 243h178l193 -243v-7h-187z" />
    <glyph glyph-name="scircumflex" unicode="&#x15d;" horiz-adv-x="757" 
d="M373 133q71 0 107 32.5t36 90.5q0 51 -32 84.5t-101 60.5l-64 25q-133 51 -197.5 125.5t-64.5 189.5q0 130 84.5 210.5t237.5 80.5q124 0 204 -56t122 -175l-160 -80q-19 68 -63 106.5t-105 38.5q-58 0 -94.5 -27.5t-36.5 -84.5q0 -88 133 -140l76 -28
q124 -47 190 -122.5t66 -193.5q0 -125 -85.5 -210t-250.5 -85q-275 0 -357 246l160 78q51 -166 195 -166zM369 1309l-97 -135h-178v6l191 243h178l192 -243v-6h-186z" />
    <glyph glyph-name="Scedilla" unicode="&#x15e;" horiz-adv-x="978" 
d="M451 -502q-159 0 -224 140l105 67q41 -86 114 -86q36 0 59 22t23 58q0 37 -21.5 59.5t-57.5 22.5q-11 0 -35 -4l-33 30l37 168q-153 14 -253.5 98.5t-150.5 250.5l183 82q71 -250 278 -250q101 0 156 54.5t55 151.5q0 85 -46 139.5t-159 104.5l-84 35q-329 140 -329 432
q0 169 104.5 278t296.5 109q168 0 276.5 -87.5t143.5 -254.5l-180 -74q-65 230 -246 230q-85 0 -137 -48.5t-52 -138.5q0 -77 47.5 -132.5t147.5 -100.5l86 -37q178 -77 260 -178t82 -260q0 -177 -96.5 -282t-268.5 -120l-24 -104h4q64 -2 108 -47.5t44 -124.5
q0 -101 -59.5 -152t-153.5 -51z" />
    <glyph glyph-name="scedilla" unicode="&#x15f;" horiz-adv-x="757" 
d="M356 -494q-71 0 -130.5 34.5t-92.5 105.5l105 69q40 -88 116 -88q36 0 59 23t23 59t-22 58t-58 22q-10 0 -34 -4l-33 31l33 161q-230 19 -304 244l160 78q51 -166 195 -166q71 0 107 32.5t36 90.5q0 51 -31.5 83.5t-101.5 61.5l-64 25q-132 51 -196 125.5t-64 189.5
q0 130 84.5 210.5t235.5 80.5q124 0 204 -56t122 -175l-160 -80q-19 68 -63 106.5t-105 38.5q-58 0 -94.5 -27.5t-36.5 -84.5q0 -88 133 -140l76 -28q256 -94 256 -316q0 -111 -69.5 -192.5t-203.5 -97.5l-22 -99h4q64 0 107.5 -45.5t43.5 -126.5q0 -100 -60 -151.5
t-155 -51.5z" />
    <glyph glyph-name="Scaron" unicode="&#x160;" horiz-adv-x="978" 
d="M889 1118l-180 -74q-65 230 -246 230q-85 0 -137 -48.5t-52 -138.5q0 -78 47.5 -134t147.5 -99l86 -37q178 -77 260 -178t82 -260q0 -193 -111.5 -299.5t-310.5 -106.5q-177 0 -292 84.5t-169 266.5l183 82q71 -250 278 -250q101 0 156 54.5t55 151.5q0 86 -46 141.5
t-159 102.5l-84 35q-329 137 -329 432q0 169 104.5 278t296.5 109q168 0 276.5 -87.5t143.5 -254.5zM475 1714l103 131h178v-6l-195 -244h-178l-188 244v6h184z" />
    <glyph glyph-name="scaron" unicode="&#x161;" horiz-adv-x="757" 
d="M373 133q71 0 107 32.5t36 90.5q0 51 -32 84.5t-101 60.5l-64 25q-133 51 -197.5 125.5t-64.5 189.5q0 130 84.5 210.5t237.5 80.5q124 0 204 -56t122 -175l-160 -80q-19 68 -63 106.5t-105 38.5q-58 0 -94.5 -27.5t-36.5 -84.5q0 -88 133 -140l76 -28
q124 -47 190 -122.5t66 -193.5q0 -125 -85.5 -210t-250.5 -85q-275 0 -357 246l160 78q51 -166 195 -166zM375 1292l102 131h178v-6l-194 -243h-178l-189 243v6h185z" />
    <glyph glyph-name="Tcedilla" unicode="&#x162;" horiz-adv-x="942" 
d="M418 -215l-35 31l39 184h-60v1239h-337v195h890v-195h-335v-1239h-41l-27 -119h2q64 0 108 -45.5t44 -126.5q0 -99 -59.5 -151t-151.5 -52q-160 0 -226 140l105 69q40 -88 115 -88q37 0 59 22.5t22 59.5q0 36 -21 58t-56 22q-15 0 -35 -4z" />
    <glyph glyph-name="tcedilla" unicode="&#x163;" horiz-adv-x="616" 
d="M565 -291q0 -99 -59.5 -151t-151.5 -52q-159 0 -225 140l104 69q40 -88 115 -88q37 0 59.5 22.5t22.5 59.5q0 35 -21.5 57.5t-56.5 22.5q-15 0 -35 -4l-34 31l36 174q-167 54 -167 297v547h-121v170h121v292h206v-292h207v-170h-207v-525q0 -151 99 -151q52 0 88 26
l41 -166q-65 -45 -154 -45l-20 -92h2q64 0 107.5 -45.5t43.5 -126.5z" />
    <glyph glyph-name="Tcaron" unicode="&#x164;" horiz-adv-x="942" 
d="M25 1434h890v-195h-335v-1239h-218v1239h-337v195zM475 1722l103 131h178v-6l-195 -243h-178l-188 243v6h184z" />
    <glyph glyph-name="tcaron" unicode="&#x165;" horiz-adv-x="626" 
d="M575 1135h-133l13 401h168zM586 18q-65 -45 -162 -45q-126 0 -199 77t-73 237v547h-121v170h121v292h206v-292h207v-170h-207v-525q0 -151 99 -151q52 0 88 26z" />
    <glyph glyph-name="Tbar" unicode="&#x166;" horiz-adv-x="944" 
d="M25 1434h893v-195h-336v-451h260v-157h-260v-631h-217v631h-263v157h263v451h-340v195z" />
    <glyph glyph-name="tbar" unicode="&#x167;" horiz-adv-x="608" 
d="M594 18q-54 -45 -162 -45q-129 0 -203.5 76.5t-74.5 245.5v233h-121v138h121v168h-121v170h121v292h202v-292h209v-170h-209v-168h209v-138h-209v-215q0 -155 105 -155q52 0 94 28z" />
    <glyph glyph-name="Utilde" unicode="&#x168;" horiz-adv-x="1183" 
d="M842 473v961h217v-949q0 -250 -123 -381t-344 -131q-223 0 -344 130.5t-121 381.5v949h217v-961q0 -154 65 -228.5t183 -74.5q119 0 184.5 74.5t65.5 228.5zM733 1843h129q7 -115 -38.5 -168t-112.5 -53q-38 0 -78 20t-73 40t-56 20q-45 0 -45 -74h-133q-5 116 39 167.5
t108 51.5q41 0 82 -18.5t75 -37.5t58 -19q27 0 36 18.5t9 52.5z" />
    <glyph glyph-name="utilde" unicode="&#x169;" horiz-adv-x="993" 
d="M870 0h-176l-14 174q-41 -101 -112.5 -151t-159.5 -50q-149 0 -222 102t-73 285v644h206v-609q0 -239 156 -239q85 0 135.5 84.5t53.5 244.5v519h206v-1004zM629 1411h129q7 -115 -39 -168t-113 -53q-38 0 -78 20t-73 40t-56 20q-45 0 -45 -74h-133q-5 116 39.5 167.5
t108.5 51.5q41 0 82 -19t75 -38t58 -19q27 0 36 19t9 53z" />
    <glyph glyph-name="Umacron" unicode="&#x16a;" horiz-adv-x="1183" 
d="M842 473v961h217v-949q0 -250 -123 -381t-344 -131q-223 0 -344 130.5t-121 381.5v949h217v-961q0 -154 65 -228.5t183 -74.5q119 0 184.5 74.5t65.5 228.5zM809 1796v-141h-430v141h430z" />
    <glyph glyph-name="umacron" unicode="&#x16b;" horiz-adv-x="993" 
d="M870 0h-176l-14 174q-41 -101 -112.5 -151t-159.5 -50q-149 0 -222 102t-73 285v644h206v-609q0 -239 156 -239q85 0 135.5 84.5t53.5 244.5v519h206v-1004zM705 1364v-141h-431v141h431z" />
    <glyph glyph-name="Ubreve" unicode="&#x16c;" horiz-adv-x="1183" 
d="M842 473v961h217v-949q0 -250 -123 -381t-344 -131q-223 0 -344 130.5t-121 381.5v949h217v-961q0 -154 65 -228.5t183 -74.5q119 0 184.5 74.5t65.5 228.5zM711 1853h135q0 -143 -62.5 -202.5t-187.5 -59.5t-187.5 59.5t-62.5 202.5h135q0 -73 27 -103t86 -30
q62 0 89.5 30t27.5 103z" />
    <glyph glyph-name="ubreve" unicode="&#x16d;" horiz-adv-x="993" 
d="M870 0h-176l-14 174q-41 -101 -112.5 -151t-159.5 -50q-149 0 -222 102t-73 285v644h206v-609q0 -239 156 -239q85 0 135.5 84.5t53.5 244.5v519h206v-1004zM606 1421h135q0 -143 -62 -202.5t-187 -59.5t-187.5 59.5t-62.5 202.5h135q0 -73 26.5 -103t85.5 -30
q62 0 89.5 30t27.5 103z" />
    <glyph glyph-name="Uring" unicode="&#x16e;" horiz-adv-x="1183" 
d="M842 473v961h217v-949q0 -250 -123 -381t-344 -131q-223 0 -344 130.5t-121 381.5v949h217v-961q0 -154 65 -228.5t183 -74.5q119 0 184.5 74.5t65.5 228.5zM414 1755q0 92 50.5 144.5t131.5 52.5q79 0 128.5 -52.5t49.5 -144.5q0 -90 -50 -142t-128 -52q-81 0 -131.5 52
t-50.5 142zM514 1755q0 -46 22.5 -74t59.5 -28q34 0 58 28.5t24 73.5q0 46 -23.5 74.5t-58.5 28.5q-37 0 -59.5 -28t-22.5 -75z" />
    <glyph glyph-name="uring" unicode="&#x16f;" horiz-adv-x="993" 
d="M870 0h-176l-14 174q-41 -101 -112.5 -151t-159.5 -50q-149 0 -222 102t-73 285v644h206v-609q0 -239 156 -239q85 0 135.5 84.5t53.5 244.5v519h206v-1004zM309 1323q0 92 51 144.5t132 52.5q79 0 128.5 -52.5t49.5 -144.5q0 -90 -50 -142.5t-128 -52.5q-81 0 -132 52.5
t-51 142.5zM410 1323q0 -46 22.5 -74t59.5 -28q34 0 57.5 28.5t23.5 73.5q0 46 -23 74t-58 28q-37 0 -59.5 -27.5t-22.5 -74.5z" />
    <glyph glyph-name="Uhungarumlaut" unicode="&#x170;" horiz-adv-x="1183" 
d="M842 473v961h217v-949q0 -250 -123 -381t-344 -131q-223 0 -344 130.5t-121 381.5v949h217v-961q0 -154 65 -228.5t183 -74.5q119 0 184.5 74.5t65.5 228.5zM1014 1843l-201 -237h-151v8l124 241h228v-12zM702 1855v-12l-202 -237h-152v8l125 241h229z" />
    <glyph glyph-name="uhungarumlaut" unicode="&#x171;" horiz-adv-x="993" 
d="M870 0h-176l-14 174q-41 -101 -112.5 -151t-159.5 -50q-149 0 -222 102t-73 285v644h206v-609q0 -239 156 -239q85 0 135.5 84.5t53.5 244.5v519h206v-1004zM909 1411l-200 -237h-152v8l125 241h227v-12zM598 1423v-12l-203 -237h-151v8l125 241h229z" />
    <glyph glyph-name="Uogonek" unicode="&#x172;" horiz-adv-x="1183" 
d="M721 -446q-44 0 -81 12t-69 37.5t-50.5 73t-18.5 112.5q0 111 57 184q-209 9 -320.5 138.5t-111.5 369.5v953h217v-961q0 -154 65 -228.5t183 -74.5q250 0 250 303v961h217v-953q0 -209 -85.5 -333t-246.5 -160q-46 -26 -71 -72.5t-25 -103.5q0 -60 29.5 -87.5
t74.5 -27.5q53 0 94 35l60 -117q-80 -61 -168 -61z" />
    <glyph glyph-name="uogonek" unicode="&#x173;" horiz-adv-x="993" 
d="M942 -385q-80 -61 -168 -61q-44 0 -81 12t-69 37.5t-50.5 73t-18.5 112.5q0 88 37 153t98 103l-10 129q-41 -101 -112.5 -151t-159.5 -50q-149 0 -222 102t-73 285v644h209v-609q0 -239 153 -239q83 0 132 84.5t52 244.5v519h211v-1004h-32q-73 -7 -113.5 -62t-40.5 -126
q0 -60 29.5 -87.5t74.5 -27.5q54 0 95 35z" />
    <glyph glyph-name="Wcircumflex" unicode="&#x174;" horiz-adv-x="1472" 
d="M625 1430h229l199 -1082l200 1086h205l-301 -1434h-229l-193 1083l-188 -1083h-230l-303 1434h215l203 -1090zM733 1739l-96 -135h-178v6l190 243h178l193 -243v-6h-186z" />
    <glyph glyph-name="wcircumflex" unicode="&#x175;" horiz-adv-x="1202" 
d="M502 997h209l141 -729l139 736h195l-232 -1004h-215l-137 721l-137 -721h-211l-238 1004h207l137 -734zM596 1309l-96 -135h-178v6l190 243h178l193 -243v-6h-187z" />
    <glyph glyph-name="Ycircumflex" unicode="&#x176;" horiz-adv-x="1028" 
d="M406 559l-390 875h240l262 -662l266 662h228l-389 -875v-559h-217v559zM514 1741l-96 -135h-178v6l190 243h178l193 -243v-6h-187z" />
    <glyph glyph-name="ycircumflex" unicode="&#x177;" horiz-adv-x="851" 
d="M297 -119l25 101l-308 1022h222l194 -754l197 754h211l-361 -1194q-42 -140 -116 -198t-183 -58q-94 0 -170 36l45 168q64 -22 107 -22q56 0 87 32t50 113zM424 1309l-96 -135h-178v6l190 243h178l193 -243v-6h-187z" />
    <glyph glyph-name="Ydieresis" unicode="&#x178;" horiz-adv-x="1028" 
d="M406 559l-390 875h240l262 -662l266 662h228l-389 -875v-559h-217v559zM569 1745q0 123 115 123q121 0 121 -123q0 -127 -121 -127q-115 0 -115 127zM248 1745q0 61 31 92t88 31q118 0 118 -123q0 -127 -118 -127q-56 0 -87.5 32.5t-31.5 94.5z" />
    <glyph glyph-name="Zacute" unicode="&#x179;" 
d="M35 0v160l610 1085l-582 -4v193h826v-160l-608 -1086l614 5v-193h-860zM725 1839l-190 -235h-164v8l123 241h231v-14z" />
    <glyph glyph-name="zacute" unicode="&#x17a;" horiz-adv-x="772" 
d="M51 0v150l428 681h-422v173h650v-154l-426 -678h440v-172h-670zM645 1409l-190 -235h-164v8l123 241h231v-14z" />
    <glyph glyph-name="Zdotaccent" unicode="&#x17b;" 
d="M35 0v160l610 1085l-582 -4v193h826v-160l-608 -1086l614 5v-193h-860zM342 1741q0 125 123 125q121 0 121 -125q0 -127 -121 -127q-59 0 -91 32.5t-32 94.5z" />
    <glyph glyph-name="zdotaccent" unicode="&#x17c;" horiz-adv-x="772" 
d="M51 0v150l428 681h-422v173h650v-154l-426 -678h440v-172h-670zM260 1311q0 125 123 125q121 0 121 -125q0 -127 -121 -127q-59 0 -91 32.5t-32 94.5z" />
    <glyph glyph-name="Zcaron" unicode="&#x17d;" 
d="M35 0v160l610 1085l-582 -4v193h826v-160l-608 -1086l614 5v-193h-860zM469 1722l102 131h179v-6l-195 -243h-178l-189 243v6h185z" />
    <glyph glyph-name="zcaron" unicode="&#x17e;" horiz-adv-x="772" 
d="M51 0v150l428 681h-422v173h650v-154l-426 -678h440v-172h-670zM389 1292l103 131h178v-6l-195 -243h-178l-188 243v6h184z" />
    <glyph glyph-name="florin" unicode="&#x192;" horiz-adv-x="641" 
d="M-14 -444q-94 0 -146 32l51 168q34 -22 80 -22q52 0 80 43t41 155l76 672h-125l25 166h122l15 135q42 367 307 367q99 0 172 -41l-55 -166q-48 29 -86 29q-114 0 -135 -197l-15 -127h205l-27 -166h-202l-74 -686q-18 -181 -99.5 -271.5t-209.5 -90.5z" />
    <glyph glyph-name="Scommaaccent" unicode="&#x218;" horiz-adv-x="978" 
d="M889 1118l-180 -74q-65 230 -246 230q-85 0 -137 -48.5t-52 -138.5q0 -78 47.5 -134t147.5 -99l86 -37q178 -77 260 -178t82 -260q0 -193 -111.5 -299.5t-310.5 -106.5q-177 0 -292 84.5t-169 266.5l183 82q71 -250 278 -250q101 0 156 54.5t55 151.5q0 86 -46 141.5
t-159 102.5l-84 35q-329 137 -329 432q0 169 104.5 278t296.5 109q168 0 276.5 -87.5t143.5 -254.5zM590 -291q0 -123 -54.5 -211.5t-146.5 -124.5l-53 80q55 31 91 76t42 100q-54 -3 -86.5 27t-32.5 90q0 59 31.5 89t89.5 30q57 0 88 -40t31 -116z" />
    <glyph glyph-name="scommaaccent" unicode="&#x219;" horiz-adv-x="757" 
d="M373 133q71 0 107 32.5t36 90.5q0 51 -32 84.5t-101 60.5l-64 25q-133 51 -197.5 125.5t-64.5 189.5q0 130 84.5 210.5t237.5 80.5q124 0 204 -56t122 -175l-160 -80q-19 68 -63 106.5t-105 38.5q-58 0 -94.5 -27.5t-36.5 -84.5q0 -88 133 -140l76 -28
q124 -47 190 -122.5t66 -193.5q0 -125 -85.5 -210t-250.5 -85q-275 0 -357 246l160 78q51 -166 195 -166zM496 -283q0 -122 -54.5 -210.5t-146.5 -124.5l-53 79q121 68 133 177q-54 -3 -86.5 26.5t-32.5 89.5q0 59 31.5 89t89.5 30q57 0 88 -40t31 -116z" />
    <glyph glyph-name="uni021A" unicode="&#x21a;" horiz-adv-x="942" 
d="M25 1434h890v-195h-335v-1239h-218v1239h-337v195zM592 -283q0 -122 -54.5 -210.5t-146.5 -124.5l-53 79q121 68 133 177q-54 -3 -86.5 26.5t-32.5 89.5q0 59 31.5 89t89.5 30q57 0 88 -40t31 -116z" />
    <glyph glyph-name="uni021B" unicode="&#x21b;" horiz-adv-x="616" 
d="M586 18q-65 -45 -162 -45q-126 0 -199 77t-73 237v547h-121v170h121v292h206v-292h207v-170h-207v-525q0 -151 99 -151q52 0 88 26zM494 -283q0 -122 -54.5 -210.5t-146.5 -124.5l-53 79q121 68 133 177q-54 -3 -86.5 26.5t-32.5 89.5q0 59 31.5 89t89.5 30q57 0 88 -40
t31 -116z" />
    <glyph glyph-name="dotlessj" unicode="&#x237;" horiz-adv-x="456" 
d="M123 -76v1080h209v-1100q0 -174 -74 -261t-203 -87q-101 0 -172 36l51 175q44 -23 84 -23q54 0 79.5 40t25.5 140z" />
    <glyph glyph-name="circumflex" unicode="&#x2c6;" 
d="M463 1309l-96 -135h-179v6l191 243h178l193 -243v-6h-187z" />
    <glyph glyph-name="caron" unicode="&#x2c7;" 
d="M467 1292l102 131h179v-6l-195 -243h-178l-189 243v6h185z" />
    <glyph glyph-name="breve" unicode="&#x2d8;" 
d="M582 1421h135q0 -143 -62.5 -202.5t-187.5 -59.5t-187.5 59.5t-62.5 202.5h135q0 -73 27 -103t86 -30q62 0 89.5 30t27.5 103z" />
    <glyph glyph-name="dotaccent" unicode="&#x2d9;" 
d="M346 1311q0 125 123 125q121 0 121 -125q0 -127 -121 -127q-59 0 -91 32.5t-32 94.5z" />
    <glyph glyph-name="ring" unicode="&#x2da;" 
d="M289 1323q0 92 50.5 144.5t131.5 52.5q79 0 128.5 -52.5t49.5 -144.5q0 -90 -50 -142.5t-128 -52.5q-81 0 -131.5 52t-50.5 143zM389 1323q0 -46 22.5 -74t59.5 -28q34 0 58 28.5t24 73.5q0 46 -23.5 74t-58.5 28q-37 0 -59.5 -27.5t-22.5 -74.5z" />
    <glyph glyph-name="ogonek" unicode="&#x2db;" 
d="M496 -446q-42 0 -79.5 12t-70 37.5t-51.5 73t-19 112.5q0 93 43 163t105.5 102t128.5 28l4 -82q-72 -7 -111.5 -62t-39.5 -126q0 -60 29.5 -87.5t74.5 -27.5q53 0 94 35l58 -117q-77 -61 -166 -61z" />
    <glyph glyph-name="tilde" unicode="&#x2dc;" 
d="M614 1411h129q7 -115 -38.5 -168t-112.5 -53q-38 0 -78 20t-73 40t-56 20q-45 0 -45 -74h-133q-5 116 39 167.5t108 51.5q41 0 82 -19t75 -38t58 -19q27 0 36 19t9 53z" />
    <glyph glyph-name="hungarumlaut" unicode="&#x2dd;" 
d="M893 1411l-201 -237h-151v8l125 241h227v-12zM582 1423v-12l-203 -237h-152v8l125 241h230z" />
    <glyph glyph-name="mu" unicode="&#x3bc;" horiz-adv-x="514" 
d="M258 1458q-72 0 -120 -47.5t-48 -118.5q0 -69 48 -116.5t120 -47.5q70 0 118 47.5t48 116.5q0 70 -48 118t-118 48zM258 1384q38 0 63 -26t25 -66q0 -38 -25 -64t-63 -26t-64 26t-26 64q0 40 26 66t64 26z" />
    <glyph glyph-name="Wgrave" unicode="&#x1e80;" horiz-adv-x="1472" 
d="M625 1430h229l199 -1082l200 1086h205l-301 -1434h-229l-193 1083l-188 -1083h-230l-303 1434h215l203 -1090zM672 1608l-195 235v15h238l123 -242v-8h-166z" />
    <glyph glyph-name="wgrave" unicode="&#x1e81;" horiz-adv-x="1202" 
d="M502 997h209l141 -729l139 736h195l-232 -1004h-215l-137 721l-137 -721h-211l-238 1004h207l137 -734zM532 1178l-194 235v14h237l123 -241v-8h-166z" />
    <glyph glyph-name="Wacute" unicode="&#x1e82;" horiz-adv-x="1472" 
d="M625 1430h229l199 -1082l200 1086h205l-301 -1434h-229l-193 1083l-188 -1083h-230l-303 1434h215l203 -1090zM997 1839l-190 -235h-164v8l123 241h231v-14z" />
    <glyph glyph-name="wacute" unicode="&#x1e83;" horiz-adv-x="1202" 
d="M502 997h209l141 -729l139 736h195l-232 -1004h-215l-137 721l-137 -721h-211l-238 1004h207l137 -734zM858 1409l-190 -235h-164v8l123 241h231v-14z" />
    <glyph glyph-name="Wdieresis" unicode="&#x1e84;" horiz-adv-x="1472" 
d="M625 1430h229l199 -1082l200 1086h205l-301 -1434h-229l-193 1083l-188 -1083h-230l-303 1434h215l203 -1090zM788 1743q0 123 115 123q121 0 121 -123q0 -127 -121 -127q-115 0 -115 127zM467 1743q0 61 31.5 92t87.5 31q119 0 119 -123q0 -62 -30.5 -94.5t-88.5 -32.5
q-56 0 -87.5 32.5t-31.5 94.5z" />
    <glyph glyph-name="wdieresis" unicode="&#x1e85;" horiz-adv-x="1202" 
d="M502 997h209l141 -729l139 736h195l-232 -1004h-215l-137 721l-137 -721h-211l-238 1004h207l137 -734zM649 1313q0 123 115 123q121 0 121 -123q0 -127 -121 -127q-115 0 -115 127zM328 1313q0 61 31 92t87 31q119 0 119 -123q0 -62 -30.5 -94.5t-88.5 -32.5
q-56 0 -87 32.5t-31 94.5z" />
    <glyph glyph-name="enspace" unicode="&#x2002;" horiz-adv-x="772" 
 />
    <glyph glyph-name="emspace" unicode="&#x2003;" horiz-adv-x="1542" 
 />
    <glyph glyph-name="threeperemspace" unicode="&#x2004;" horiz-adv-x="514" 
 />
    <glyph glyph-name="fourperemspace" unicode="&#x2005;" horiz-adv-x="387" 
 />
    <glyph glyph-name="sixperemspace" unicode="&#x2006;" horiz-adv-x="258" 
 />
    <glyph glyph-name="figurespace" unicode="&#x2007;" horiz-adv-x="966" 
 />
    <glyph glyph-name="punctuationspace" unicode="&#x2008;" horiz-adv-x="382" 
 />
    <glyph glyph-name="thinspace" unicode="&#x2009;" horiz-adv-x="309" 
 />
    <glyph glyph-name="hairspace" unicode="&#x200a;" horiz-adv-x="153" 
 />
    <glyph glyph-name="zerowidthspace" unicode="&#x200b;" horiz-adv-x="0" 
 />
    <glyph glyph-name="figuredash" unicode="&#x2012;" horiz-adv-x="915" 
d="M838 618v-180h-760v180h760z" />
    <glyph glyph-name="endash" unicode="&#x2013;" horiz-adv-x="915" 
d="M838 618v-180h-760v180h760z" />
    <glyph glyph-name="emdash" unicode="&#x2014;" horiz-adv-x="1222" 
d="M1145 618v-180h-1067v180h1067z" />
    <glyph glyph-name="uni2015" unicode="&#x2015;" horiz-adv-x="1679" 
d="M1602 618v-180h-1524v180h1524z" />
    <glyph glyph-name="quoteleft" unicode="&#x2018;" horiz-adv-x="378" 
d="M263 1514l54 -91q-120 -60 -132 -178q52 2 84 -31t32 -96t-31.5 -95.5t-88.5 -32.5q-125 0 -125 164q0 126 53.5 222t153.5 138z" />
    <glyph glyph-name="quoteright" unicode="&#x2019;" horiz-adv-x="378" 
d="M112 968l-54 91q57 29 91 74.5t40 103.5q-51 -2 -83 31.5t-32 96.5t31 95t88 32q126 0 126 -164q0 -126 -54 -222t-153 -138z" />
    <glyph glyph-name="quotesinglbase" unicode="&#x201a;" horiz-adv-x="378" 
d="M110 -268l-53 89q118 60 130 175q-51 -2 -82.5 30.5t-31.5 94.5q0 61 31 93.5t87 32.5q123 0 123 -161q0 -124 -53 -218.5t-151 -135.5z" />
    <glyph glyph-name="quotedblleft" unicode="&#x201c;" horiz-adv-x="688" 
d="M263 1514l54 -91q-120 -60 -132 -178q52 2 84 -31t32 -96t-31.5 -95.5t-88.5 -32.5q-125 0 -125 164q0 126 53.5 222t153.5 138zM572 1514l54 -91q-57 -29 -91 -74.5t-40 -103.5q52 2 83.5 -31t31.5 -96t-31.5 -95.5t-87.5 -32.5q-126 0 -126 164q0 126 53.5 222
t153.5 138z" />
    <glyph glyph-name="quotedblright" unicode="&#x201d;" horiz-adv-x="688" 
d="M108 966l-54 91q57 29 91 74.5t40 103.5q-52 -2 -83.5 31t-31.5 96t31.5 95.5t87.5 32.5q126 0 126 -164q0 -126 -54 -222t-153 -138zM419 966l-54 91q57 29 91 74.5t40 103.5q-51 -2 -83 31.5t-32 96.5t31 95t88 32q126 0 126 -164q0 -126 -54 -222t-153 -138z" />
    <glyph glyph-name="quotedblbase" unicode="&#x201e;" horiz-adv-x="684" 
d="M110 -270l-53 89q118 60 130 175q-51 -2 -82.5 30.5t-31.5 94.5q0 61 31 93.5t87 32.5q123 0 123 -162q0 -124 -53 -218t-151 -135zM417 -270l-53 89q118 60 130 175q-51 -2 -82.5 30.5t-31.5 94.5q0 61 31 93.5t87 32.5q124 0 124 -162q0 -123 -53 -217.5t-152 -135.5z
" />
    <glyph glyph-name="dagger" unicode="&#x2020;" horiz-adv-x="491" 
d="M430 1061h-100l-4 -469h-164v469h-103v151h101l-2 242h176l-4 -242h100v-151z" />
    <glyph glyph-name="daggerdbl" unicode="&#x2021;" horiz-adv-x="491" 
d="M59 969h105v121h-105v149h103l-4 215h176l-6 -215h102v-149h-102v-121h102v-152h-102l6 -225h-176l2 225h-101v152z" />
    <glyph glyph-name="bullet" unicode="&#x2022;" horiz-adv-x="671" 
d="M76 670q0 125 69.5 202.5t190.5 77.5t191.5 -77.5t70.5 -202.5q0 -126 -70.5 -203.5t-191.5 -77.5t-190.5 77t-69.5 204z" />
    <glyph glyph-name="ellipsis" unicode="&#x2026;" horiz-adv-x="1163" 
d="M967 -12q-58 0 -90.5 35.5t-32.5 97.5q0 64 32 97.5t91 33.5q123 0 123 -131q0 -62 -32 -97.5t-91 -35.5zM584 -12q-59 0 -92 35.5t-33 97.5q0 64 32.5 97.5t92.5 33.5q59 0 90 -33.5t31 -97.5q0 -62 -31.5 -97.5t-89.5 -35.5zM197 -12q-59 0 -91 35.5t-32 97.5
q0 131 123 131q60 0 92.5 -33.5t32.5 -97.5q0 -62 -33 -97.5t-92 -35.5z" />
    <glyph glyph-name="perthousand" unicode="&#x2030;" horiz-adv-x="2322" 
d="M1020 420q0 228 68 333t217 105q147 0 213.5 -105t66.5 -333q0 -227 -66.5 -331.5t-213.5 -104.5q-148 0 -216.5 106t-68.5 330zM1430 420q0 165 -31.5 235t-93.5 70q-64 0 -95.5 -70t-31.5 -233q0 -167 31.5 -237t95.5 -70q62 0 93.5 70t31.5 235zM57 1020q0 228 68 333
t217 105q147 0 214 -105t67 -333q0 -227 -67 -331.5t-214 -104.5q-148 0 -216.5 106t-68.5 330zM467 1020q0 165 -31.5 235t-93.5 70q-64 0 -95.5 -70t-31.5 -233q0 -167 31.5 -237t95.5 -70q62 0 93.5 70t31.5 235zM1690 420q0 228 67.5 333t216.5 105q147 0 214 -105
t67 -333q0 -227 -67 -331.5t-214 -104.5q-148 0 -216 106t-68 330zM2099 420q0 165 -31.5 235t-93.5 70q-64 0 -95.5 -70t-31.5 -233q0 -167 31.5 -237t95.5 -70q62 0 93.5 70t31.5 235zM1176 1434l-529 -1434h-182l530 1434h181z" />
    <glyph glyph-name="guilsinglleft" unicode="&#x2039;" horiz-adv-x="665" 
d="M371 0l-297 498v6l297 500h213l-299 -498l305 -506h-219z" />
    <glyph glyph-name="guilsinglright" unicode="&#x203a;" horiz-adv-x="665" 
d="M287 1001l297 -497v-6l-297 -500h-213l299 498l-305 505h219z" />
    <glyph glyph-name="fraction" unicode="&#x2044;" horiz-adv-x="841" 
d="M766 1434l-528 -1434h-183l531 1434h180z" />
    <glyph glyph-name="uni2070" unicode="&#x2070;" horiz-adv-x="681" 
d="M57 1022q0 228 68 333t217 105q147 0 214 -105t67 -333q0 -227 -67 -331.5t-214 -104.5q-148 0 -216.5 106t-68.5 330zM467 1022q0 165 -31.5 235t-93.5 70q-64 0 -95.5 -70t-31.5 -233q0 -167 31.5 -237t95.5 -70q62 0 93.5 70t31.5 235z" />
    <glyph glyph-name="uni2074" unicode="&#x2074;" horiz-adv-x="641" 
d="M33 795v114l190 535h156l-189 -508h195v299h150v-299h81v-141h-81v-193h-150v193h-352z" />
    <glyph glyph-name="uni2075" unicode="&#x2075;" horiz-adv-x="591" 
d="M209 1309l-12 -203q45 37 125 37q100 0 161.5 -66.5t61.5 -199.5q0 -135 -71.5 -213t-199.5 -78q-199 0 -260 176l121 61q36 -106 135 -106q57 0 87 41.5t30 115.5q0 146 -115 146q-68 0 -112 -59l-109 49l29 434h432v-135h-303z" />
    <glyph glyph-name="uni2076" unicode="&#x2076;" horiz-adv-x="643" 
d="M346 586q-289 0 -289 434q0 440 291 440q94 0 151.5 -37t88.5 -118l-115 -64q-38 90 -113 90q-74 0 -110.5 -70.5t-36.5 -238.5v-25q19 62 63.5 97.5t108.5 35.5q94 0 150.5 -68t56.5 -194q0 -131 -62 -206.5t-184 -75.5zM233 860q0 -68 28 -107.5t77 -39.5q48 0 75 37.5
t27 111.5q0 70 -26 108t-72 38q-50 0 -79.5 -40.5t-29.5 -107.5z" />
    <glyph glyph-name="uni2077" unicode="&#x2077;" horiz-adv-x="522" 
d="M307 602h-172q0 222 60.5 408t156.5 295l-327 -5v144h483v-125q-102 -121 -151.5 -291t-49.5 -426z" />
    <glyph glyph-name="uni2078" unicode="&#x2078;" horiz-adv-x="632" 
d="M317 586q-124 0 -192 66t-68 182q0 76 31.5 130t85.5 78q-43 30 -68.5 78.5t-25.5 106.5q0 110 62.5 171.5t174.5 61.5t174 -61.5t62 -171.5q0 -58 -25.5 -106.5t-68.5 -78.5q53 -26 84.5 -79.5t31.5 -128.5q0 -115 -67.5 -181.5t-190.5 -66.5zM410 1219q0 47 -25 79.5
t-66 32.5q-47 0 -71.5 -31.5t-24.5 -80.5q0 -48 25 -81.5t69 -33.5q43 0 68 33t25 82zM424 840q0 55 -29.5 92t-77.5 37q-51 0 -79.5 -36.5t-28.5 -92.5q0 -59 28.5 -95t79.5 -36q50 0 78.5 36t28.5 95z" />
    <glyph glyph-name="uni2079" unicode="&#x2079;" horiz-adv-x="638" 
d="M406 1182q0 66 -29.5 107.5t-75.5 41.5q-47 0 -74.5 -38.5t-27.5 -110.5q0 -71 26.5 -111.5t73.5 -40.5q48 0 77.5 41.5t29.5 110.5zM295 1460q143 0 215 -106t72 -330q0 -438 -295 -438q-182 0 -238 135l103 80q24 -47 53 -68.5t71 -21.5q76 0 113 71t37 238v22
q-19 -65 -63 -101t-105 -36q-97 0 -154 70.5t-57 198.5q0 130 63.5 208t184.5 78z" />
    <glyph glyph-name="uni207A" unicode="&#x207a;" horiz-adv-x="491" 
d="M307 729h-121v189h-137v116h137v191h121v-191h135v-116h-135v-189z" />
    <glyph glyph-name="uni207B" unicode="&#x207b;" horiz-adv-x="491" 
d="M442 1038v-123h-393v123h393z" />
    <glyph glyph-name="uni207C" unicode="&#x207c;" horiz-adv-x="491" 
d="M442 1133v-127h-393v127h393zM442 944v-125h-393v125h393z" />
    <glyph glyph-name="uni207D" unicode="&#x207d;" horiz-adv-x="350" 
d="M324 588l-29 -135q-258 43 -258 512q0 472 254 512l33 -134q-55 -15 -88 -52.5t-51.5 -117t-18.5 -208.5q0 -188 38 -272t120 -105z" />
    <glyph glyph-name="uni207E" unicode="&#x207e;" horiz-adv-x="350" 
d="M55 453l-28 135q82 21 119.5 105t37.5 272q0 129 -18 208.5t-51 117t-88 52.5l32 134q254 -40 254 -512q0 -469 -258 -512z" />
    <glyph glyph-name="uni2080" unicode="&#x2080;" horiz-adv-x="681" 
d="M57 420q0 228 68 333t217 105q147 0 214 -105t67 -333q0 -227 -67 -331.5t-214 -104.5q-148 0 -216.5 106t-68.5 330zM467 420q0 165 -31.5 235t-93.5 70q-64 0 -95.5 -70t-31.5 -233q0 -167 31.5 -237t95.5 -70q62 0 93.5 70t31.5 235z" />
    <glyph glyph-name="uni2081" unicode="&#x2081;" horiz-adv-x="393" 
d="M305 0h-155v639l-76 -57l-62 129l189 137h104v-848z" />
    <glyph glyph-name="uni2082" unicode="&#x2082;" horiz-adv-x="561" 
d="M41 0v117l238 329q73 106 73 175q0 98 -86 98q-46 0 -77.5 -26t-55.5 -87l-121 51q62 201 267 201q110 0 171.5 -56.5t61.5 -160.5q0 -63 -29 -127t-98 -164l-152 -215l297 6v-141h-489z" />
    <glyph glyph-name="uni2083" unicode="&#x2083;" horiz-adv-x="585" 
d="M279 -16q-199 0 -259 180l121 61q39 -112 129 -112q53 0 82 34t29 97q0 60 -29.5 91.5t-83.5 31.5h-59v129h59q43 0 70 31t27 85q0 51 -26.5 81t-72.5 30q-91 0 -116 -105l-123 52q54 188 258 188q116 0 177.5 -59t61.5 -158q0 -131 -104 -205q117 -54 117 -200
q0 -115 -67.5 -183.5t-190.5 -68.5z" />
    <glyph glyph-name="uni2084" unicode="&#x2084;" horiz-adv-x="641" 
d="M33 193v114l190 535h156l-189 -508h195v299h150v-299h81v-141h-81v-193h-150v193h-352z" />
    <glyph glyph-name="uni2085" unicode="&#x2085;" horiz-adv-x="591" 
d="M209 707l-12 -203q45 37 125 37q100 0 161.5 -67t61.5 -200q0 -135 -71.5 -212.5t-199.5 -77.5q-199 0 -260 176l121 61q36 -106 135 -106q57 0 87 41.5t30 115.5q0 146 -115 146q-67 0 -112 -60l-109 50l29 434h432v-135h-303z" />
    <glyph glyph-name="uni2086" unicode="&#x2086;" horiz-adv-x="643" 
d="M346 -16q-289 0 -289 434q0 440 291 440q94 0 151.5 -37.5t88.5 -118.5l-115 -63q-38 90 -113 90q-74 0 -110.5 -70.5t-36.5 -238.5v-25q19 62 63.5 97.5t108.5 35.5q94 0 150.5 -68t56.5 -194q0 -131 -62 -206.5t-184 -75.5zM233 258q0 -68 28 -107.5t77 -39.5
q48 0 75 37.5t27 111.5q0 70 -26 108t-72 38q-50 0 -79.5 -40.5t-29.5 -107.5z" />
    <glyph glyph-name="uni2087" unicode="&#x2087;" horiz-adv-x="522" 
d="M307 0h-172q0 222 60 407.5t157 294.5l-327 -4v144h483v-125q-102 -121 -151.5 -291t-49.5 -426z" />
    <glyph glyph-name="uni2088" unicode="&#x2088;" horiz-adv-x="632" 
d="M317 -16q-125 0 -192.5 66t-67.5 181q0 76 31.5 130.5t85.5 78.5q-43 30 -68.5 78.5t-25.5 106.5q0 110 62.5 171.5t174.5 61.5t174 -61.5t62 -171.5q0 -58 -25.5 -106.5t-68.5 -78.5q53 -26 84.5 -80t31.5 -129q0 -115 -67.5 -181t-190.5 -66zM410 616q0 48 -25 80.5
t-66 32.5q-47 0 -71.5 -32t-24.5 -81q0 -48 25 -81t69 -33q43 0 68 32.5t25 81.5zM424 238q0 55 -29.5 92t-77.5 37q-51 0 -79.5 -36.5t-28.5 -92.5q0 -59 28.5 -95.5t79.5 -36.5q50 0 78.5 36t28.5 96z" />
    <glyph glyph-name="uni2089" unicode="&#x2089;" horiz-adv-x="638" 
d="M406 580q0 66 -29.5 107.5t-75.5 41.5q-47 0 -74.5 -38.5t-27.5 -110.5q0 -71 26.5 -111.5t73.5 -40.5q48 0 77.5 41.5t29.5 110.5zM295 858q143 0 215 -106t72 -330q0 -438 -295 -438q-182 0 -238 135l103 80q24 -47 53 -68.5t71 -21.5q76 0 113 71t37 238v22
q-19 -65 -63 -101t-105 -36q-97 0 -154 70t-57 198q0 131 63.5 209t184.5 78z" />
    <glyph glyph-name="uni208A" unicode="&#x208a;" horiz-adv-x="491" 
d="M307 123h-121v188h-137v117h137v190h121v-190h135v-117h-135v-188z" />
    <glyph glyph-name="uni208B" unicode="&#x208b;" horiz-adv-x="491" 
d="M442 432v-123h-393v123h393z" />
    <glyph glyph-name="uni208C" unicode="&#x208c;" horiz-adv-x="491" 
d="M442 526v-127h-393v127h393zM442 338v-125h-393v125h393z" />
    <glyph glyph-name="uni208D" unicode="&#x208d;" horiz-adv-x="350" 
d="M324 -18l-29 -136q-258 43 -258 512q0 472 254 512l33 -133q-55 -15 -88 -53t-51.5 -117.5t-18.5 -208.5q0 -188 38 -271.5t120 -104.5z" />
    <glyph glyph-name="uni208E" unicode="&#x208e;" horiz-adv-x="350" 
d="M55 -154l-28 136q82 21 119.5 104.5t37.5 271.5q0 129 -18 208.5t-51.5 117.5t-87.5 53l32 133q254 -40 254 -512q0 -469 -258 -512z" />
    <glyph glyph-name="Euro" unicode="&#x20ac;" horiz-adv-x="1095" 
d="M1063 324q-50 -181 -162 -266t-289 -85q-204 0 -319.5 126t-147.5 388h-133v148h121q-2 33 -2 106h-119v148h125q26 292 150 431.5t344 139.5q167 0 271 -81.5t151 -278.5l-191 -68q-30 131 -88.5 186.5t-152.5 55.5q-117 0 -185 -88t-86 -297h414l-31 -148h-389
q0 -69 2 -106h369l-33 -148h-322q22 -175 87 -252t171 -77q95 0 162 60t94 185z" />
    <glyph glyph-name="trademark" unicode="&#x2122;" horiz-adv-x="1110" 
d="M31 1434h415v-115h-143v-488h-123v488h-149v115zM500 831v603h133l143 -455l146 455h129v-603h-113l4 369l-119 -369h-98l-115 361l2 -361h-112z" />
    <glyph glyph-name="uni2153" unicode="&#x2153;" horiz-adv-x="1366" 
d="M1047 -16q-199 0 -259 180l121 61q39 -112 129 -112q53 0 82 34t29 97q0 60 -29.5 91.5t-83.5 31.5h-59v129h59q43 0 70 31t27 85q0 51 -26.5 81t-72.5 30q-91 0 -116 -105l-123 52q54 188 258 188q116 0 177.5 -59t61.5 -158q0 -131 -104 -205q117 -54 117 -200
q0 -115 -67.5 -183.5t-190.5 -68.5zM305 600h-155v639l-76 -57l-62 129l189 137h104v-848zM942 1434l-528 -1434h-183l531 1434h180z" />
    <glyph glyph-name="uni2154" unicode="&#x2154;" horiz-adv-x="1554" 
d="M1235 -16q-198 0 -258 180l121 61q39 -112 129 -112q53 0 81.5 34t28.5 97q0 61 -29.5 92t-82.5 31h-60v129h60q42 0 69 31t27 85q0 51 -26 81t-72 30q-92 0 -117 -105l-123 52q54 188 258 188q116 0 178 -59t62 -158q0 -130 -105 -205q117 -54 117 -200
q0 -115 -67.5 -183.5t-190.5 -68.5zM41 600v117l238 330q73 106 73 174q0 98 -86 98q-46 0 -77.5 -26t-55.5 -87l-121 51q62 201 267 201q110 0 171.5 -56.5t61.5 -160.5q0 -63 -29 -127t-98 -164l-152 -215l297 6v-141h-489zM1130 1434l-528 -1434h-182l530 1434h180z" />
    <glyph glyph-name="uni2155" unicode="&#x2155;" horiz-adv-x="1361" 
d="M305 600h-155v639l-76 -57l-62 129l189 137h104v-848zM987 707l-12 -203q45 37 125 37q100 0 161.5 -67t61.5 -200q0 -135 -71 -212.5t-199 -77.5q-199 0 -260 176l120 61q36 -106 136 -106q57 0 86.5 41.5t29.5 115.5q0 146 -114 146q-68 0 -113 -60l-109 50l29 434h432
v-135h-303zM942 1434l-528 -1434h-183l531 1434h180z" />
    <glyph glyph-name="uni2156" unicode="&#x2156;" horiz-adv-x="1550" 
d="M41 600v117l238 330q73 106 73 174q0 98 -86 98q-46 0 -77.5 -26t-55.5 -87l-121 51q62 201 267 201q110 0 171.5 -56.5t61.5 -160.5q0 -63 -29 -127t-98 -164l-152 -215l297 6v-141h-489zM1174 707l-13 -203q45 37 125 37q100 0 161.5 -67t61.5 -200q0 -135 -71 -212.5
t-199 -77.5q-199 0 -260 176l121 61q36 -106 135 -106q57 0 87 41.5t30 115.5q0 146 -115 146q-68 0 -113 -60l-108 50l28 434h433v-135h-303zM1130 1434l-528 -1434h-182l530 1434h180z" />
    <glyph glyph-name="uni2157" unicode="&#x2157;" horiz-adv-x="1529" 
d="M279 584q-199 0 -259 180l121 61q39 -112 129 -112q53 0 82 34t29 97q0 60 -29.5 91.5t-83.5 31.5h-59v129h59q43 0 70 31t27 85q0 51 -26.5 81t-72.5 30q-92 0 -116 -104l-123 51q54 188 258 188q116 0 177.5 -59t61.5 -158q0 -131 -104 -205q117 -54 117 -200
q0 -115 -67.5 -183.5t-190.5 -68.5zM1153 707l-12 -203q45 37 125 37q100 0 161.5 -67t61.5 -200q0 -135 -71 -212.5t-199 -77.5q-200 0 -261 176l121 61q36 -106 135 -106q57 0 87 41.5t30 115.5q0 146 -114 146q-68 0 -113 -60l-109 50l29 434h432v-135h-303zM1110 1434
l-528 -1434h-183l531 1434h180z" />
    <glyph glyph-name="uni2158" unicode="&#x2158;" horiz-adv-x="1587" 
d="M1212 707l-12 -203q45 37 125 37q100 0 161.5 -67t61.5 -200q0 -135 -71 -212.5t-199 -77.5q-199 0 -260 176l121 61q36 -106 135 -106q57 0 87 41.5t30 115.5q0 146 -115 146q-68 0 -113 -60l-108 50l28 434h433v-135h-304zM1167 1434l-528 -1434h-182l530 1434h180z
M33 793v114l190 535h156l-189 -508h195v299h150v-299h81v-141h-81v-193h-150v193h-352z" />
    <glyph glyph-name="uni2159" unicode="&#x2159;" horiz-adv-x="1402" 
d="M305 600h-155v639l-76 -57l-62 129l189 137h104v-848zM1098 -16q-289 0 -289 434q0 440 291 440q94 0 151 -37t88 -119l-114 -63q-38 90 -113 90q-74 0 -110.5 -70.5t-36.5 -238.5v-25q19 62 63.5 97.5t108.5 35.5q93 0 149.5 -68t56.5 -194q0 -131 -61.5 -206.5
t-183.5 -75.5zM985 258q0 -68 28 -107.5t77 -39.5q48 0 75 37.5t27 111.5q0 70 -26 108t-72 38q-50 0 -79.5 -40.5t-29.5 -107.5zM942 1434l-528 -1434h-183l531 1434h180z" />
    <glyph glyph-name="uni215A" unicode="&#x215a;" horiz-adv-x="1570" 
d="M209 1307l-12 -203q45 37 125 37q100 0 161.5 -67t61.5 -200q0 -135 -71.5 -212.5t-199.5 -77.5q-199 0 -260 176l121 61q36 -106 135 -106q57 0 87 41.5t30 115.5q0 146 -115 146q-67 0 -112 -60l-109 50l29 434h432v-135h-303zM1268 -16q-289 0 -289 434q0 440 291 440
q94 0 151 -37t88 -119l-114 -63q-38 90 -113 90q-74 0 -110.5 -70.5t-36.5 -238.5v-25q19 62 63.5 97.5t108.5 35.5q93 0 149.5 -68t56.5 -194q0 -131 -61.5 -206.5t-183.5 -75.5zM1155 258q0 -68 28 -107.5t77 -39.5q48 0 75 37.5t27 111.5q0 70 -26 108t-72 38
q-50 0 -79.5 -40.5t-29.5 -107.5zM1110 1434l-528 -1434h-183l531 1434h180z" />
    <glyph glyph-name="uni215B" unicode="&#x215b;" horiz-adv-x="1392" 
d="M305 600h-155v639l-76 -57l-62 129l189 137h104v-848zM1079 -16q-125 0 -192.5 66t-67.5 181q0 76 31.5 130.5t85.5 78.5q-43 30 -68.5 78.5t-25.5 106.5q0 110 62.5 171.5t174.5 61.5t174 -61.5t62 -171.5q0 -58 -25.5 -106.5t-68.5 -78.5q53 -26 84.5 -80t31.5 -129
q0 -115 -67.5 -181t-190.5 -66zM1171 616q0 48 -24.5 80.5t-65.5 32.5q-47 0 -71.5 -32t-24.5 -81q0 -48 25 -81t69 -33q43 0 67.5 32.5t24.5 81.5zM1186 238q0 55 -29.5 92t-77.5 37q-51 0 -79.5 -36.5t-28.5 -92.5q0 -59 28.5 -95.5t79.5 -36.5q50 0 78.5 36t28.5 96z
M942 1434l-528 -1434h-183l531 1434h180z" />
    <glyph glyph-name="uni215C" unicode="&#x215c;" horiz-adv-x="1558" 
d="M279 584q-199 0 -259 180l121 61q39 -112 129 -112q53 0 82 34t29 97q0 60 -29.5 91.5t-83.5 31.5h-59v129h59q43 0 70 31t27 85q0 51 -26.5 81t-72.5 30q-92 0 -116 -104l-123 51q54 188 258 188q116 0 177.5 -59t61.5 -158q0 -131 -104 -205q117 -54 117 -200
q0 -115 -67.5 -183.5t-190.5 -68.5zM1245 -16q-125 0 -192.5 66t-67.5 181q0 76 31.5 130.5t85.5 78.5q-43 30 -68.5 78.5t-25.5 106.5q0 110 62.5 171.5t174.5 61.5t174 -61.5t62 -171.5q0 -58 -26 -106t-69 -79q53 -26 85 -80t32 -129q0 -115 -67.5 -181t-190.5 -66z
M1337 616q0 48 -24.5 80.5t-65.5 32.5q-47 0 -71.5 -32t-24.5 -81q0 -48 25 -81t69 -33q43 0 67.5 32.5t24.5 81.5zM1352 238q0 55 -29.5 92t-77.5 37q-51 0 -79.5 -36.5t-28.5 -92.5q0 -59 28.5 -95.5t79.5 -36.5q50 0 78.5 36t28.5 96zM1110 1434l-528 -1434h-183
l531 1434h180z" />
    <glyph glyph-name="uni215D" unicode="&#x215d;" horiz-adv-x="1558" 
d="M1245 -16q-125 0 -192.5 66t-67.5 181q0 76 31.5 130.5t85.5 78.5q-43 30 -68.5 78.5t-25.5 106.5q0 110 62.5 171.5t174.5 61.5t174 -61.5t62 -171.5q0 -58 -26 -106t-69 -79q53 -26 85 -80t32 -129q0 -115 -67.5 -181t-190.5 -66zM1337 616q0 48 -24.5 80.5t-65.5 32.5
q-47 0 -71.5 -32t-24.5 -81q0 -48 25 -81t69 -33q43 0 67.5 32.5t24.5 81.5zM1352 238q0 55 -29.5 92t-77.5 37q-51 0 -79.5 -36.5t-28.5 -92.5q0 -59 28.5 -95.5t79.5 -36.5q50 0 78.5 36t28.5 96zM209 1307l-12 -203q45 37 125 37q100 0 161.5 -67t61.5 -200
q0 -135 -71.5 -212.5t-199.5 -77.5q-199 0 -260 176l121 61q36 -106 135 -106q57 0 87 41.5t30 115.5q0 146 -115 146q-67 0 -112 -60l-109 50l29 434h432v-135h-303zM1110 1434l-528 -1434h-183l531 1434h180z" />
    <glyph glyph-name="uni215E" unicode="&#x215e;" horiz-adv-x="1449" 
d="M1135 -16q-125 0 -193 66t-68 181q0 76 31.5 130.5t85.5 78.5q-43 30 -68.5 78.5t-25.5 106.5q0 110 62.5 171.5t175.5 61.5q112 0 173.5 -61t61.5 -172q0 -58 -25.5 -106.5t-68.5 -78.5q53 -26 85 -80t32 -129q0 -115 -67.5 -181t-190.5 -66zM1227 616q0 48 -24.5 80.5
t-65.5 32.5q-47 0 -72 -32t-25 -81q0 -48 25.5 -81t69.5 -33q43 0 67.5 32.5t24.5 81.5zM1241 238q0 56 -29 92.5t-77 36.5q-51 0 -80 -36.5t-29 -92.5q0 -59 29 -95.5t80 -36.5q50 0 78 36t28 96zM307 600h-172q0 222 60.5 408t156.5 295l-327 -5v144h483v-125
q-102 -121 -151.5 -291t-49.5 -426zM1001 1434l-528 -1434h-182l530 1434h180z" />
    <glyph glyph-name="uni215F" unicode="&#x215f;" horiz-adv-x="1290" 
d="M305 600h-155v639l-76 -57l-62 129l189 137h104v-848zM942 1434l-528 -1434h-183l531 1434h180z" />
    <glyph glyph-name="minus" unicode="&#x2212;" horiz-adv-x="792" 
d="M713 713v-154h-631v154h631z" />
    <glyph glyph-name="approxequal" unicode="&#x2248;" horiz-adv-x="792" 
d="M543 821q39 0 86.5 14t83.5 46v-160q-32 -25 -84 -39t-99 -14q-57 0 -141 34.5t-133 34.5q-107 0 -174 -57v160q66 51 176 51q59 0 146.5 -35t138.5 -35zM543 514q103 0 170 59v-161q-32 -25 -84 -39.5t-99 -14.5q-57 0 -141 35t-133 35q-107 0 -174 -57v161
q67 52 176 52q59 0 146.5 -35t138.5 -35z" />
    <glyph glyph-name="notequal" unicode="&#x2260;" horiz-adv-x="792" 
d="M82 702v160h369l88 166h137l-88 -166h125v-160h-209l-76 -137h285v-159h-369l-88 -164h-139l90 164h-125v159h209l74 137h-283z" />
    <glyph glyph-name="lessequal" unicode="&#x2264;" horiz-adv-x="919" 
d="M662 1081l86 -131l-353 -260l353 -260l-86 -139l-482 348v94zM160 0v160h600v-160h-600z" />
    <glyph glyph-name="greaterequal" unicode="&#x2265;" horiz-adv-x="919" 
d="M268 291l-86 133l353 262l-355 258l88 137l482 -346v-92zM760 160v-160h-600v160h600z" />
    <glyph glyph-name="commaaccent" unicode="&#xf6c3;" 
d="M586 -283q0 -122 -54.5 -210.5t-146.5 -124.5l-53 79q121 68 133 177q-54 -3 -86.5 26.5t-32.5 89.5q0 59 31.5 89t89.5 30q57 0 88 -40t31 -116z" />
    <glyph glyph-name="doublebar" horiz-adv-x="778" 
d="M442 -133v1702h189v-1702h-189zM147 -133v1702h189v-1702h-189z" />
    <glyph glyph-name="reversequoteleft" horiz-adv-x="378" 
d="M263 968l54 91q-57 29 -91 74.5t-40 103.5q51 -2 83 31.5t32 96.5t-31 95t-88 32q-126 0 -126 -164q0 -126 54 -222t153 -138z" />
    <glyph glyph-name="reversequotedblleft" horiz-adv-x="686" 
d="M261 966l54 91q-57 29 -91 74.5t-40 103.5q52 -2 83.5 31t31.5 96t-31.5 95.5t-87.5 32.5q-126 0 -126 -164q0 -126 54 -222t153 -138zM570 966l54 91q-57 29 -91 74.5t-40 103.5q52 -2 83.5 31t31.5 96t-31.5 95.5t-87.5 32.5q-126 0 -126 -164q0 -126 54 -222t153 -138
z" />
    <glyph glyph-name="aogonek.school" horiz-adv-x="972" 
d="M938 -385q-77 -61 -166 -61q-42 0 -79 12t-69.5 37.5t-51.5 73t-19 112.5q0 83 33 147t88 101l-12 123q-87 -187 -269 -187q-150 0 -233.5 136.5t-83.5 390.5q0 258 88 394t244 136q180 0 256 -184l16 158h168v-1004h-14q-72 -7 -112 -62t-40 -126q0 -60 29.5 -87.5
t74.5 -27.5q54 0 95 35zM643 498q0 360 -188 360q-176 0 -176 -356q0 -183 43.5 -270t132.5 -87q88 0 138 87.5t50 265.5z" />
    <glyph glyph-name="a.school" horiz-adv-x="970" 
d="M643 498q0 360 -188 360q-176 0 -176 -356q0 -183 43.5 -270t132.5 -87q88 0 138 87.5t50 265.5zM393 -27q-150 0 -233.5 136.5t-83.5 390.5q0 258 88 394t244 136q180 0 256 -184l16 158h168v-1004h-170l-16 160q-87 -187 -269 -187z" />
    <glyph glyph-name="agrave.school" horiz-adv-x="970" 
d="M643 498q0 360 -188 360q-176 0 -176 -356q0 -183 43.5 -270t132.5 -87q88 0 138 87.5t50 265.5zM393 -27q-150 0 -233.5 136.5t-83.5 390.5q0 258 88 394t244 136q180 0 256 -184l16 158h168v-1004h-170l-16 160q-87 -187 -269 -187zM389 1178l-194 235v14h237l123 -241
v-8h-166z" />
    <glyph glyph-name="aacute.school" horiz-adv-x="970" 
d="M643 498q0 360 -188 360q-176 0 -176 -356q0 -183 43.5 -270t132.5 -87q88 0 138 87.5t50 265.5zM393 -27q-150 0 -233.5 136.5t-83.5 390.5q0 258 88 394t244 136q180 0 256 -184l16 158h168v-1004h-170l-16 160q-87 -187 -269 -187zM711 1409l-191 -235h-164v8l123 241
h232v-14z" />
    <glyph glyph-name="acircumflex.school" horiz-adv-x="970" 
d="M451 1309l-97 -135h-178v6l191 243h178l192 -243v-6h-186zM643 498q0 360 -188 360q-176 0 -176 -356q0 -183 43.5 -270t132.5 -87q88 0 138 87.5t50 265.5zM393 -27q-150 0 -233.5 136.5t-83.5 390.5q0 258 88 394t244 136q180 0 256 -184l16 158h168v-1004h-170
l-16 160q-87 -187 -269 -187z" />
    <glyph glyph-name="adieresis.school" horiz-adv-x="970" 
d="M496 1313q0 123 114 123q121 0 121 -123q0 -127 -121 -127q-114 0 -114 127zM174 1313q0 61 31 92t88 31q119 0 119 -123q0 -62 -30.5 -94.5t-88.5 -32.5q-56 0 -87.5 32.5t-31.5 94.5zM643 498q0 360 -188 360q-176 0 -176 -356q0 -183 43.5 -270t132.5 -87
q88 0 138 87.5t50 265.5zM393 -27q-150 0 -233.5 136.5t-83.5 390.5q0 258 88 394t244 136q180 0 256 -184l16 158h168v-1004h-170l-16 160q-87 -187 -269 -187z" />
    <glyph glyph-name="atilde.school" horiz-adv-x="970" 
d="M643 498q0 360 -188 360q-176 0 -176 -356q0 -183 43.5 -270t132.5 -87q88 0 138 87.5t50 265.5zM393 -27q-150 0 -233.5 136.5t-83.5 390.5q0 258 88 394t244 136q180 0 256 -184l16 158h168v-1004h-170l-16 160q-87 -187 -269 -187zM590 1411h129q7 -115 -39 -168
t-113 -53q-38 0 -78 20t-73 40t-56 20q-45 0 -45 -74h-133q-5 116 39.5 167.5t108.5 51.5q41 0 82 -19t75 -38t58 -19q27 0 36 19t9 53z" />
    <glyph glyph-name="aring.school" horiz-adv-x="970" 
d="M643 498q0 360 -188 360q-176 0 -176 -356q0 -183 43.5 -270t132.5 -87q88 0 138 87.5t50 265.5zM393 -27q-150 0 -233.5 136.5t-83.5 390.5q0 258 88 394t244 136q180 0 256 -184l16 158h168v-1004h-170l-16 160q-87 -187 -269 -187zM270 1323q0 92 51 144.5t132 52.5
q79 0 128.5 -52.5t49.5 -144.5q0 -90 -50 -142.5t-128 -52.5q-81 0 -132 52.5t-51 142.5zM371 1323q0 -46 22.5 -74t59.5 -28q34 0 58 28.5t24 73.5q0 46 -23.5 74t-58.5 28q-37 0 -59.5 -27.5t-22.5 -74.5z" />
    <glyph glyph-name="amacron.school" horiz-adv-x="970" 
d="M643 498q0 360 -188 360q-176 0 -176 -356q0 -183 43.5 -270t132.5 -87q88 0 138 87.5t50 265.5zM393 -27q-150 0 -233.5 136.5t-83.5 390.5q0 258 88 394t244 136q180 0 256 -184l16 158h168v-1004h-170l-16 160q-87 -187 -269 -187zM670 1364v-141h-430v141h430z" />
    <glyph glyph-name="abreve.school" horiz-adv-x="970" 
d="M643 498q0 360 -188 360q-176 0 -176 -356q0 -183 43.5 -270t132.5 -87q88 0 138 87.5t50 265.5zM393 -27q-150 0 -233.5 136.5t-83.5 390.5q0 258 88 394t244 136q180 0 256 -184l16 158h168v-1004h-170l-16 160q-87 -187 -269 -187zM567 1421h135q0 -143 -62 -202.5
t-187 -59.5t-187.5 59.5t-62.5 202.5h135q0 -73 27 -103t86 -30q61 0 88.5 30t27.5 103z" />
    <glyph glyph-name="y.school" horiz-adv-x="968" 
d="M436 -444q-150 0 -241 64t-140 192l168 88q57 -174 199 -174q213 0 213 294v146q-79 -162 -244 -162q-142 0 -210 98t-68 279v623h206v-588q0 -236 138 -236q81 0 129 86.5t49 247.5v490h211v-977q0 -232 -110 -351.5t-300 -119.5z" />
    <glyph glyph-name="yacute.school" horiz-adv-x="968" 
d="M436 -444q-150 0 -241 64t-140 192l168 88q57 -174 199 -174q213 0 213 294v146q-79 -162 -244 -162q-142 0 -210 98t-68 279v623h206v-588q0 -236 138 -236q81 0 129 86.5t49 247.5v490h211v-977q0 -232 -110 -351.5t-300 -119.5zM705 1409l-191 -235h-164v8l123 241
h232v-14z" />
    <glyph glyph-name="ycircumflex.school" horiz-adv-x="968" 
d="M481 1309l-96 -135h-178v6l190 243h178l193 -243v-6h-186zM436 -444q-150 0 -241 64t-140 192l168 88q57 -174 199 -174q213 0 213 294v146q-79 -162 -244 -162q-142 0 -210 98t-68 279v623h206v-588q0 -236 138 -236q81 0 129 86.5t49 247.5v490h211v-977
q0 -232 -110 -351.5t-300 -119.5z" />
    <glyph glyph-name="ydieresis.school" horiz-adv-x="968" 
d="M528 1313q0 123 115 123q121 0 121 -123q0 -127 -121 -127q-115 0 -115 127zM207 1313q0 61 31.5 92t87.5 31q118 0 118 -123q0 -127 -118 -127q-56 0 -87.5 32.5t-31.5 94.5zM436 -444q-150 0 -241 64t-140 192l168 88q57 -174 199 -174q213 0 213 294v146
q-79 -162 -244 -162q-142 0 -210 98t-68 279v623h206v-588q0 -236 138 -236q81 0 129 86.5t49 247.5v490h211v-977q0 -232 -110 -351.5t-300 -119.5z" />
    <glyph glyph-name="cordinal" horiz-adv-x="620" 
d="M328 707q-273 0 -273 376q0 191 72 284t207 93q179 0 237 -164l-116 -77q-39 108 -121 108q-67 0 -98 -55.5t-31 -188.5q0 -129 31.5 -186t99.5 -57q48 0 77 25.5t46 84.5l116 -63q-67 -180 -247 -180z" />
    <glyph glyph-name="ordfeminine.school" horiz-adv-x="702" 
d="M459 1083q0 124 -34.5 185t-92.5 61q-125 0 -125 -246q0 -243 125 -243q59 0 93 60.5t34 182.5zM477 729l-12 117q-26 -68 -72.5 -103.5t-107.5 -35.5q-108 0 -169 96t-61 276q0 187 63.5 284t176.5 97q124 0 176 -131l12 109h125v-709h-131z" />
    <glyph glyph-name="caronSlovak" 
d="M541 958h-138l11 478h176z" />
    <glyph glyph-name="exclamdown.cap" horiz-adv-x="387" 
d="M78 0l33 1022h153l31 -1022h-217zM186 1446q58 0 90.5 -35.5t32.5 -97.5q0 -64 -32 -97.5t-91 -33.5q-60 0 -92.5 33.5t-32.5 97.5q0 62 33 97.5t92 35.5z" />
    <glyph glyph-name="questiondown.cap" horiz-adv-x="808" 
d="M479 1030l10 -330h-73q-103 0 -162 -72.5t-59 -209.5q0 -127 55 -192.5t158 -65.5q92 0 149.5 50t83.5 157l160 -70q-71 -320 -410 -320q-189 0 -290 114t-101 317q0 184 80.5 293.5t220.5 134.5l12 194h166zM401 1454q57 0 89 -35.5t32 -97.5q0 -64 -31.5 -97.5
t-89.5 -33.5q-125 0 -125 131q0 62 32 97.5t93 35.5z" />
    <glyph glyph-name="onethirdemdash" horiz-adv-x="593" 
d="M516 618v-180h-436v180h436z" />
    <glyph glyph-name="threequarteremdash" horiz-adv-x="1079" 
d="M1001 618v-180h-921v180h921z" />
    <glyph glyph-name="G.alt" horiz-adv-x="1167" 
d="M618 561v176h453v-145q0 -313 -119.5 -466t-343.5 -153q-506 0 -506 746q0 389 126.5 565t387.5 176q170 0 280 -82t157 -274l-187 -74q-38 132 -98.5 185t-153.5 53q-74 0 -126 -25.5t-91.5 -86.5t-58.5 -169.5t-19 -267.5q0 -210 35.5 -336.5t98 -176.5t159.5 -50
q253 0 250 405h-244z" />
    <glyph glyph-name="K.alt" horiz-adv-x="1069" 
d="M152 0v1434h221v-1434h-221zM801 0l-400 692v13l402 729h237l-409 -711l430 -723h-260z" />
    <glyph glyph-name="k.alt" horiz-adv-x="878" 
d="M121 0v1434h209v-1434h-209zM629 0l-279 475v29l279 500h221l-287 -490l305 -514h-239z" />
    <glyph glyph-name="at.cap" horiz-adv-x="1267" 
d="M645 12q-258 0 -408.5 190.5t-150.5 514.5q0 328 149.5 516t409.5 188q253 0 395 -172t142 -467q0 -185 -72 -291t-197 -106q-118 0 -159 109q-66 -123 -191 -123q-80 0 -130 51.5t-50 140.5q0 105 75.5 170.5t200.5 65.5h72q-1 89 -35.5 128.5t-85.5 39.5
q-86 0 -121 -101l-102 68q25 68 85 109.5t157 41.5q239 0 239 -280v-205q0 -125 80 -125q63 0 103.5 79.5t40.5 223.5q0 271 -123 415t-324 144q-210 0 -340.5 -161t-130.5 -459q0 -151 37 -271t101.5 -196t150 -116t184.5 -40q233 0 354 168l66 -51q-144 -199 -422 -199z
M592 481q63 0 101 52.5t38 144.5v22h-57q-77 0 -119.5 -36.5t-42.5 -92.5q0 -41 22 -65.5t58 -24.5z" />
    <glyph glyph-name="zero.LP" horiz-adv-x="1118" 
d="M102 717q0 389 109.5 566t349.5 177q236 0 345.5 -177.5t109.5 -565.5q0 -387 -110 -565.5t-345 -178.5q-239 0 -349 179.5t-110 564.5zM803 715q0 209 -29 335t-80.5 177t-132.5 51q-125 0 -185.5 -128.5t-60.5 -430.5q0 -212 29 -338.5t81.5 -176.5t135.5 -50
q81 0 132.5 50t80.5 175.5t29 335.5z" />
    <glyph glyph-name="one.LP" horiz-adv-x="600" 
d="M449 0h-216v1151l-133 -111l-86 172l291 228h144v-1440z" />
    <glyph glyph-name="two.LP" horiz-adv-x="905" 
d="M59 0v166l402 573q143 202 143 340q0 96 -45 146.5t-125 50.5q-91 0 -152 -51t-102 -166l-164 74q59 173 167.5 250t265.5 77q173 0 270.5 -93t97.5 -261q0 -102 -45.5 -209.5t-150.5 -265.5l-314 -449l551 8v-190h-799z" />
    <glyph glyph-name="three.LP" horiz-adv-x="954" 
d="M442 150q98 0 155.5 68.5t57.5 193.5q0 116 -55 176.5t-154 60.5h-104v182h100q80 0 134.5 64.5t54.5 169.5q0 100 -52.5 155.5t-144.5 55.5q-87 0 -140.5 -50t-80.5 -149l-170 74q86 309 416 309q186 0 283.5 -96.5t97.5 -265.5q0 -225 -174 -350q94 -36 147 -125
t53 -222q0 -193 -106.5 -311.5t-310.5 -118.5q-155 0 -262.5 73.5t-153.5 225.5l172 82q58 -202 237 -202z" />
    <glyph glyph-name="four.LP" horiz-adv-x="1026" 
d="M47 354v156l338 924h207l-330 -889h377v588h207v-588h147v-191h-147v-354h-207v354h-592z" />
    <glyph glyph-name="five.LP" horiz-adv-x="962" 
d="M444 -29q-155 0 -264 72.5t-153 228.5l170 80q55 -202 241 -202q113 0 171.5 83.5t58.5 227.5q0 140 -57.5 210t-166.5 70q-128 0 -219 -108l-143 63l49 738h686v-187h-510l-24 -403q89 74 221 74q169 0 272 -111t103 -342q0 -222 -112.5 -358t-322.5 -136z" />
    <glyph glyph-name="six.LP" horiz-adv-x="1052" 
d="M561 -29q-459 0 -459 742q0 382 120 564.5t358 182.5q143 0 236 -62t142 -194l-161 -92q-37 89 -88 130.5t-125 41.5q-65 0 -113 -28t-85 -92.5t-56 -179t-19 -279.5v-43q32 112 112 174.5t193 62.5q159 0 255 -116t96 -330q0 -220 -104.5 -351t-301.5 -131zM555 150
q94 0 148.5 72.5t54.5 217.5q0 140 -51 214.5t-146 74.5q-98 0 -156.5 -81.5t-58.5 -213.5q0 -130 56 -207t153 -77z" />
    <glyph glyph-name="seven.LP" horiz-adv-x="827" 
d="M221 0q0 385 99 719.5t262 525.5l-549 -4v193h776v-181q-175 -182 -268 -501.5t-90 -751.5h-230z" />
    <glyph glyph-name="eight.LP" horiz-adv-x="1040" 
d="M520 -27q-196 0 -307 113.5t-111 306.5q0 130 55 225t144 136q-73 47 -116.5 130t-43.5 185q0 184 101 287.5t278 103.5t278 -103.5t101 -287.5q0 -102 -44 -185t-118 -130q91 -41 146 -135.5t55 -225.5q0 -193 -111 -306.5t-307 -113.5zM705 1063q0 95 -48.5 159
t-134.5 64q-87 0 -136.5 -64t-49.5 -159q0 -97 48.5 -160t135.5 -63q86 0 135.5 63.5t49.5 159.5zM522 147q98 0 153.5 70t55.5 186q0 109 -56.5 179.5t-152.5 70.5q-99 0 -156 -70.5t-57 -179.5q0 -115 56 -185.5t157 -70.5z" />
    <glyph glyph-name="nine.LP" horiz-adv-x="1046" 
d="M492 1284q-94 0 -148.5 -75t-54.5 -220q0 -140 51.5 -217.5t146.5 -77.5q96 0 154.5 83.5t58.5 217.5q0 130 -57 209.5t-151 79.5zM489 1460q455 0 455 -739q0 -382 -119 -565t-356 -183q-143 0 -237 61t-144 193l164 92q36 -89 87.5 -129t125.5 -40q52 0 92 17t74.5 58
t56.5 106.5t34.5 165t12.5 230.5v41q-32 -116 -111.5 -180t-189.5 -64q-163 0 -257.5 117.5t-94.5 335.5q0 220 105 351.5t302 131.5z" />
    <glyph glyph-name="zero.OT" horiz-adv-x="1095" 
d="M547 1255q208 0 313 -156t105 -487q0 -639 -418 -639q-414 0 -414 641q0 330 104.5 485.5t309.5 155.5zM547 1075q-70 0 -113.5 -40.5t-68.5 -144t-25 -276.5q0 -171 24.5 -274.5t69 -144.5t113.5 -41q72 0 117.5 41t70.5 143.5t25 275.5q0 170 -25 273t-70.5 145.5
t-117.5 42.5z" />
    <glyph glyph-name="one.OT" horiz-adv-x="1095" 
d="M946 0h-794v182h292v764l-125 -110l-81 172l278 227h137v-1053h293v-182z" />
    <glyph glyph-name="two.OT" horiz-adv-x="1095" 
d="M182 0v145l342 445q109 142 151 216t42 138q0 65 -43.5 97t-116.5 32q-77 0 -133.5 -45t-85.5 -135l-162 76q96 286 404 286q162 0 254 -76t92 -212q0 -95 -53.5 -193t-184.5 -272l-250 -330l514 8v-180h-770z" />
    <glyph glyph-name="three.OT" horiz-adv-x="1095" 
d="M541 -55q98 0 155.5 68.5t57.5 193.5q0 116 -55 176.5t-154 60.5h-105v183h101q80 0 134 64t54 169q0 100 -52.5 155.5t-144.5 55.5q-87 0 -140.5 -50t-80.5 -149l-170 74q86 309 416 309q186 0 283.5 -96.5t97.5 -265.5q0 -225 -174 -350q94 -36 147.5 -125t53.5 -221
q0 -193 -106.5 -311.5t-311.5 -118.5q-155 0 -262.5 73.5t-153.5 225.5l172 81q58 -202 238 -202z" />
    <glyph glyph-name="four.OT" horiz-adv-x="1095" 
d="M76 150v155l338 924h207l-330 -889h377v588h206v-588h148v-190h-148v-355h-206v355h-592z" />
    <glyph glyph-name="five.OT" horiz-adv-x="1095" 
d="M541 -233q-155 0 -264.5 72.5t-153.5 228.5l170 79q55 -202 242 -202q112 0 170.5 83.5t58.5 227.5q0 141 -57 211t-166 70q-128 0 -219 -109l-144 64l49 737h686v-187h-510l-24 -403q89 74 221 74q169 0 272 -111t103 -342q0 -222 -112 -357.5t-322 -135.5z" />
    <glyph glyph-name="six.OT" horiz-adv-x="1095" 
d="M575 -29q-458 0 -458 742q0 382 119.5 564.5t357.5 182.5q143 0 236.5 -62t142.5 -194l-162 -92q-37 89 -88 130.5t-125 41.5q-65 0 -113 -28t-85 -92.5t-55.5 -179t-18.5 -279.5v-43q32 112 112 174.5t193 62.5q158 0 254 -116t96 -330q0 -220 -104.5 -351t-301.5 -131z
M569 150q94 0 148.5 72.5t54.5 217.5q0 140 -51 214.5t-146 74.5q-98 0 -156.5 -81.5t-58.5 -213.5q0 -130 56 -207t153 -77z" />
    <glyph glyph-name="seven.OT" horiz-adv-x="1095" 
d="M348 -205q0 385 99 719.5t262 525.5l-549 -4v193h776v-180q-175 -182 -268 -502t-90 -752h-230z" />
    <glyph glyph-name="eight.OT" horiz-adv-x="1095" 
d="M549 -27q-196 0 -307 113.5t-111 306.5q0 130 55 225t144 136q-73 47 -116.5 130t-43.5 185q0 184 101 287.5t278 103.5t278 -103.5t101 -287.5q0 -102 -44 -185t-118 -130q91 -41 146 -135.5t55 -225.5q0 -193 -111 -306.5t-307 -113.5zM733 1063q0 95 -48 159t-134 64
q-87 0 -136.5 -64t-49.5 -159q0 -97 48.5 -160t135.5 -63q86 0 135 63.5t49 159.5zM551 147q98 0 153.5 70t55.5 186q0 109 -56.5 179.5t-152.5 70.5q-99 0 -156 -70.5t-57 -179.5q0 -115 56 -185.5t157 -70.5z" />
    <glyph glyph-name="nine.OT" horiz-adv-x="1095" 
d="M526 1079q-94 0 -148 -75t-54 -220q0 -140 51.5 -217.5t146.5 -77.5q96 0 154.5 84t58.5 218q0 130 -57.5 209t-151.5 79zM524 1255q455 0 455 -739q0 -381 -119 -564t-356 -183q-143 0 -237 61t-144 193l164 92q37 -89 88 -129.5t125 -40.5q52 0 92 17t74.5 58
t56.5 106.5t34.5 165t12.5 230.5v41q-32 -116 -111.5 -180t-189.5 -64q-163 0 -257.5 117.5t-94.5 335.5q0 220 105 351.5t302 131.5z" />
    <glyph glyph-name="zero.OP" horiz-adv-x="985" 
d="M489 1255q208 0 313 -156t105 -487q0 -639 -418 -639q-413 0 -413 641q0 331 104 486t309 155zM489 1075q-69 0 -113 -40.5t-68.5 -144t-24.5 -276.5q0 -253 50.5 -356.5t155.5 -103.5q72 0 117.5 41t70.5 143.5t25 275.5q0 170 -25 273t-70.5 145.5t-117.5 42.5z" />
    <glyph glyph-name="one.OP" horiz-adv-x="550" 
d="M428 0h-209v946l-125 -110l-82 172l279 227h137v-1235z" />
    <glyph glyph-name="two.OP" horiz-adv-x="866" 
d="M57 0v145l332 445q105 141 143.5 208t38.5 126q0 75 -40.5 112t-108.5 37q-152 0 -209 -180l-162 76q96 286 393 286q157 0 246.5 -80.5t89.5 -222.5q0 -92 -51.5 -189t-175.5 -261l-250 -330l504 8v-180h-750z" />
    <glyph glyph-name="three.OP" horiz-adv-x="919" 
d="M422 -57q100 0 156.5 68t56.5 194q0 117 -54.5 178t-154.5 61h-104v183h100q82 0 135 62.5t53 170.5q0 102 -50.5 158.5t-141.5 56.5q-167 0 -221 -198l-168 69q88 309 409 309q180 0 280.5 -98.5t100.5 -269.5q0 -224 -172 -344q92 -35 144.5 -124t52.5 -222
q0 -193 -106 -311.5t-308 -118.5q-150 0 -258 73t-152 228l168 79q58 -204 234 -204z" />
    <glyph glyph-name="four.OP" horiz-adv-x="995" 
d="M55 150v151l324 928h203l-320 -893h359v590h202v-590h135v-186h-135v-355h-202v355h-566z" />
    <glyph glyph-name="five.OP" horiz-adv-x="929" 
d="M428 -233q-152 0 -258.5 74t-149.5 225l173 81q55 -204 233 -204q108 0 166.5 84.5t58.5 228.5q0 140 -55.5 210.5t-157.5 70.5q-124 0 -209 -109l-147 64l53 737h672v-187h-496l-26 -403q87 74 215 74q77 0 140.5 -26t113 -78.5t77 -141.5t27.5 -207q0 -227 -110 -360
t-320 -133z" />
    <glyph glyph-name="six.OP" horiz-adv-x="983" 
d="M522 -27q-220 0 -333 179.5t-113 560.5q0 383 116.5 565t352.5 182q273 0 366 -258l-163 -90q-37 91 -85.5 131.5t-121.5 40.5q-62 0 -107.5 -28.5t-80.5 -93.5t-52.5 -179t-17.5 -278v-37q29 109 106 170t184 61q158 0 251.5 -116.5t93.5 -329.5q0 -220 -102 -350
t-294 -130zM516 150q91 0 143 72.5t52 217.5q0 139 -49 214t-144 75q-92 0 -147.5 -82t-55.5 -213q0 -130 54 -207t147 -77z" />
    <glyph glyph-name="seven.OP" horiz-adv-x="804" 
d="M221 -205q0 359 90 691.5t260 553.5l-534 -4v193h756v-180q-163 -169 -256.5 -495.5t-92.5 -758.5h-223z" />
    <glyph glyph-name="eight.OP" horiz-adv-x="966" 
d="M483 -27q-192 0 -299.5 114t-107.5 306q0 130 53.5 225t142.5 136q-72 47 -114.5 130t-42.5 187q0 182 97.5 285.5t270.5 103.5q172 0 270.5 -104t98.5 -285q0 -103 -43.5 -186.5t-116.5 -130.5q90 -41 143.5 -135t53.5 -226q0 -192 -107.5 -306t-298.5 -114zM659 1065
q0 99 -46 161t-130 62t-132 -62.5t-48 -160.5q0 -99 48 -162t132 -63t130 62.5t46 162.5zM483 147q95 0 149 69.5t54 184.5q0 110 -55 181t-148 71q-94 0 -148 -70.5t-54 -181.5q0 -115 53.5 -184.5t148.5 -69.5z" />
    <glyph glyph-name="nine.OP" horiz-adv-x="983" 
d="M469 1077q-93 0 -145 -73.5t-52 -217.5q0 -137 50 -212.5t143 -75.5q92 0 147.5 82t55.5 213q0 130 -53.5 207t-145.5 77zM465 1253q220 0 331 -179t111 -560q0 -383 -116.5 -565t-352.5 -182q-272 0 -366 256l164 92q37 -91 85.5 -131.5t122.5 -40.5q49 0 87 17
t70.5 58.5t53.5 107t33 165t12 231.5v37q-29 -108 -106.5 -169.5t-183.5 -61.5q-151 0 -247.5 117t-96.5 329q0 219 103.5 349t295.5 130z" />
    <glyph glyph-name="zero.inf" horiz-adv-x="681" 
d="M57 10q0 228 68 333.5t217 105.5q147 0 214 -105.5t67 -333.5q0 -227 -67 -331.5t-214 -104.5q-148 0 -216.5 106t-68.5 330zM467 10q0 165 -31.5 235t-93.5 70q-64 0 -95.5 -70t-31.5 -233q0 -167 31.5 -237t95.5 -70q62 0 93.5 70t31.5 235z" />
    <glyph glyph-name="one.inf" horiz-adv-x="393" 
d="M305 -410h-155v639l-76 -57l-62 129l189 137h104v-848z" />
    <glyph glyph-name="two.inf" horiz-adv-x="561" 
d="M41 -410v117l238 330q73 106 73 174q0 98 -86 98q-46 0 -77.5 -25.5t-55.5 -86.5l-121 51q62 201 267 201q109 0 171 -57t62 -161q0 -63 -29 -126.5t-98 -163.5l-152 -215l297 6v-142h-489z" />
    <glyph glyph-name="three.inf" horiz-adv-x="585" 
d="M279 -426q-199 0 -259 180l121 62q39 -113 129 -113q53 0 82 34t29 97q0 60 -29.5 91.5t-83.5 31.5h-59v129h59q42 0 69.5 31.5t27.5 85.5q0 51 -26.5 80.5t-72.5 29.5q-92 0 -116 -104l-123 51q54 189 258 189q116 0 177.5 -59t61.5 -159q0 -130 -104 -204
q55 -25 86 -77t31 -124q0 -115 -67.5 -183.5t-190.5 -68.5z" />
    <glyph glyph-name="four.inf" horiz-adv-x="641" 
d="M33 -217v115l190 534h156l-189 -508h195v299h150v-299h81v-141h-81v-193h-150v193h-352z" />
    <glyph glyph-name="five.inf" horiz-adv-x="591" 
d="M209 297l-12 -203q45 37 125 37q100 0 161.5 -66.5t61.5 -199.5q0 -135 -71.5 -213t-199.5 -78q-199 0 -260 176l121 62q36 -107 135 -107q57 0 87 42t30 116q0 145 -115 145q-68 0 -112 -59l-109 49l29 434h432v-135h-303z" />
    <glyph glyph-name="six.inf" horiz-adv-x="643" 
d="M346 -426q-289 0 -289 434q0 441 291 441q94 0 151.5 -37.5t88.5 -118.5l-115 -64q-38 90 -113 90q-74 0 -110.5 -70.5t-36.5 -238.5v-24q19 62 63.5 97.5t108.5 35.5q94 0 150.5 -68t56.5 -194q0 -131 -62 -207t-184 -76zM233 -152q0 -68 28 -107.5t77 -39.5
q48 0 75 37.5t27 111.5q0 70 -26 108t-72 38q-50 0 -79.5 -40.5t-29.5 -107.5z" />
    <glyph glyph-name="seven.inf" horiz-adv-x="522" 
d="M307 -410h-172q0 222 60.5 408t156.5 295l-327 -4v143h483v-125q-102 -121 -151.5 -291t-49.5 -426z" />
    <glyph glyph-name="eight.inf" horiz-adv-x="632" 
d="M317 -426q-124 0 -192 66t-68 182q0 76 31.5 130.5t85.5 78.5q-94 67 -94 184q0 110 62.5 172t174.5 62t174 -61.5t62 -172.5q0 -117 -94 -184q53 -26 84.5 -80t31.5 -129q0 -115 -67.5 -181.5t-190.5 -66.5zM410 207q0 47 -25 79.5t-66 32.5q-47 0 -71.5 -31.5
t-24.5 -80.5q0 -48 25 -81.5t69 -33.5q43 0 68 33t25 82zM424 -172q0 55 -29.5 92t-77.5 37q-51 0 -79.5 -36.5t-28.5 -92.5q0 -59 28.5 -95t79.5 -36q50 0 78.5 36t28.5 95z" />
    <glyph glyph-name="nine.inf" horiz-adv-x="638" 
d="M406 170q0 66 -29.5 107.5t-75.5 41.5q-47 0 -74.5 -38.5t-27.5 -110.5q0 -71 26.5 -111.5t73.5 -40.5q48 0 77.5 41.5t29.5 110.5zM295 449q143 0 215 -106.5t72 -330.5q0 -438 -295 -438q-182 0 -238 135l103 80q24 -47 53 -68.5t71 -21.5q76 0 113 71t37 238v23
q-19 -65 -63 -101t-105 -36q-97 0 -154 70t-57 198q0 131 63.5 209t184.5 78z" />
    <glyph glyph-name="plus.inf" horiz-adv-x="491" 
d="M307 -287h-121v189h-137v116h137v191h121v-191h135v-116h-135v-189z" />
    <glyph glyph-name="minus.inf" horiz-adv-x="491" 
d="M442 23v-123h-393v123h393z" />
    <glyph glyph-name="equal.inf" horiz-adv-x="491" 
d="M442 117v-127h-393v127h393zM442 -72v-125h-393v125h393z" />
    <glyph glyph-name="parenleft.inf" horiz-adv-x="350" 
d="M324 -428l-29 -135q-258 43 -258 512q0 472 254 512l33 -133q-55 -15 -88 -53t-51.5 -117.5t-18.5 -208.5q0 -188 38 -272t120 -105z" />
    <glyph glyph-name="parenright.inf" horiz-adv-x="350" 
d="M55 -563l-28 135q82 21 119.5 105t37.5 272q0 129 -18 208.5t-51.5 117.5t-87.5 53l32 133q254 -40 254 -512q0 -469 -258 -512z" />
    <glyph glyph-name="idotaccent" horiz-adv-x="456" 
d="M100 1313q0 65 33 99t94 34t95 -34t34 -99q0 -64 -34 -98.5t-95 -34.5q-60 0 -93.5 34.5t-33.5 98.5zM123 1004h209v-1004h-209v1004z" />
    <glyph glyph-name="kcommaaccent.alt" horiz-adv-x="878" 
d="M594 -283q0 -122 -54.5 -210.5t-146.5 -124.5l-53 79q121 68 133 177q-54 -3 -86.5 26.5t-32.5 89.5q0 59 31.5 89t89.5 30q57 0 88 -40t31 -116zM121 0v1434h209v-1434h-209zM629 0l-279 475v29l279 500h221l-287 -490l305 -514h-239z" />
    <glyph glyph-name="Gbreve.alt" horiz-adv-x="1169" 
d="M618 561v176h453v-145q0 -313 -119.5 -466t-343.5 -153q-506 0 -506 746q0 389 126.5 565t387.5 176q170 0 280 -82t157 -274l-187 -74q-38 132 -98.5 185t-153.5 53q-74 0 -126 -25.5t-91.5 -86.5t-58.5 -169.5t-19 -267.5q0 -210 35.5 -336.5t98 -176.5t159.5 -50
q253 0 250 405h-244zM725 1853h135q0 -143 -62.5 -202.5t-187.5 -59.5t-187.5 59.5t-62.5 202.5h136q0 -73 26.5 -103t85.5 -30q62 0 89.5 30t27.5 103z" />
    <glyph glyph-name="Gcircumflex.alt" horiz-adv-x="1169" 
d="M618 561v176h453v-145q0 -313 -119.5 -466t-343.5 -153q-506 0 -506 746q0 389 126.5 565t387.5 176q170 0 280 -82t157 -274l-187 -74q-38 132 -98.5 185t-153.5 53q-74 0 -126 -25.5t-91.5 -86.5t-58.5 -169.5t-19 -267.5q0 -210 35.5 -336.5t98 -176.5t159.5 -50
q253 0 250 405h-244zM608 1741l-96 -135h-178v6l190 243h178l193 -243v-6h-186z" />
    <glyph glyph-name="Gcommaaccent.alt" horiz-adv-x="1167" 
d="M618 561v176h453v-145q0 -313 -119.5 -466t-343.5 -153q-506 0 -506 746q0 389 126.5 565t387.5 176q170 0 280 -82t157 -274l-187 -74q-38 132 -98.5 185t-153.5 53q-74 0 -126 -25.5t-91.5 -86.5t-58.5 -169.5t-19 -267.5q0 -210 35.5 -336.5t98 -176.5t159.5 -50
q253 0 250 405h-244zM731 -283q0 -122 -54.5 -210.5t-146.5 -124.5l-53 79q121 68 133 177q-54 -3 -86 26.5t-32 89.5q0 119 120 119q57 0 88 -40t31 -116z" />
    <glyph glyph-name="Gdotaccent.alt" horiz-adv-x="1169" 
d="M618 561v176h453v-145q0 -313 -119.5 -466t-343.5 -153q-506 0 -506 746q0 389 126.5 565t387.5 176q170 0 280 -82t157 -274l-187 -74q-38 132 -98.5 185t-153.5 53q-74 0 -126 -25.5t-91.5 -86.5t-58.5 -169.5t-19 -267.5q0 -210 35.5 -336.5t98 -176.5t159.5 -50
q253 0 250 405h-244zM485 1743q0 125 123 125q121 0 121 -125q0 -127 -121 -127q-59 0 -91 32.5t-32 94.5z" />
    <glyph glyph-name="Kcommaaccent.alt" horiz-adv-x="1069" 
d="M688 -283q0 -122 -54.5 -210.5t-146.5 -124.5l-53 79q121 68 133 177q-54 -3 -86 26.5t-32 89.5q0 119 120 119q57 0 88 -40t31 -116zM152 0v1434h221v-1434h-221zM801 0l-400 692v13l402 729h237l-409 -711l430 -723h-260z" />
    <glyph glyph-name="hyphen.cap" horiz-adv-x="720" 
d="M641 813v-180h-561v180h561z" />
    <glyph glyph-name="endash.cap" horiz-adv-x="915" 
d="M838 813v-180h-760v180h760z" />
    <glyph glyph-name="emdash.cap" horiz-adv-x="1222" 
d="M1145 813v-180h-1067v180h1067z" />
    <glyph glyph-name="figuredash.cap" horiz-adv-x="915" 
d="M838 813v-180h-760v180h760z" />
    <glyph glyph-name="l.alt" horiz-adv-x="456" 
d="M332 1434v-1434h-207v1434h207z" />
    <glyph glyph-name="fl.alt" horiz-adv-x="1032" 
d="M575 834h-204v-834h-207v834h-131v170h131v129q0 173 81 260.5t212 87.5q91 0 155 -45l-51 -168q-42 22 -86 22q-104 0 -104 -164v-122h204v-170zM920 1434v-1434h-207v1434h207z" />
    </font>
</defs></svg>
1="T,Tcaron,Tbar,uni021A"
	g2="z,zacute,zdotaccent,zcaron"
	k="51" />
    </font>
</defs>
</svg>
