<?xml version="1.0" standalone="no"?>
<!DOCTYPE svg PUBLIC "-//W3C//DTD SVG 1.1//EN" "http://www.w3.org/Graphics/SVG/1.1/DTD/svg11.dtd" >
<svg xmlns="http://www.w3.org/2000/svg" xmlns:xlink="http://www.w3.org/1999/xlink" version="1.1">
<metadata>
Created by FontForge 20170731 at Tue Jan 23 05:32:09 2018
 By Aleksey,,,
Copyright (c) 1981, 2002 Heidelberger Druckmaschinen AG. All rights reserved.
</metadata>
<defs>
<font id="DINCondensed-Bold" horiz-adv-x="370" >
  <font-face 
    font-family="DIN Condensed"
    font-weight="700"
    font-stretch="condensed"
    units-per-em="1000"
    panose-1="0 0 5 0 0 0 0 0 0 0"
    ascent="712"
    descent="-288"
    x-height="507"
    cap-height="712"
    bbox="-716 -312 1000 1023"
    underline-thickness="50"
    underline-position="-175"
    unicode-range="U+0020-FB02"
  />
<missing-glyph horiz-adv-x="500" 
d="M0 0v700h500v-700h-500zM250 395l170 255h-340zM280 350l170 -255v510zM80 50h340l-170 255zM50 605v-510l170 255z" />
    <glyph glyph-name=".notdef" horiz-adv-x="500" 
d="M0 0v700h500v-700h-500zM250 395l170 255h-340zM280 350l170 -255v510zM80 50h340l-170 255zM50 605v-510l170 255z" />
    <glyph glyph-name=".null" horiz-adv-x="0" 
 />
    <glyph glyph-name="nonmarkingreturn" horiz-adv-x="333" 
 />
    <glyph glyph-name="space" unicode=" " horiz-adv-x="186" 
 />
    <glyph glyph-name="exclam" unicode="!" horiz-adv-x="240" 
d="M95 176l-39 536h128l-39 -536h-50zM69 0v102h102v-102h-102z" />
    <glyph glyph-name="quotedbl" unicode="&#x22;" horiz-adv-x="278" 
d="M33 536v176h80v-176h-80zM165 536v176h80v-176h-80z" />
    <glyph glyph-name="numbersign" unicode="#" horiz-adv-x="372" 
d="M180 0l29 215h-84l-29 -215h-68l29 215h-51v60h59l22 162h-50v60h58l29 215h68l-29 -215h84l29 215h68l-29 -215h51v-60h-59l-22 -162h50v-60h-58l-29 -215h-68zM217 275l22 162h-84l-22 -162h84z" />
    <glyph glyph-name="dollar" unicode="$" horiz-adv-x="372" 
d="M161 616q-26 -10 -34.5 -35t-8.5 -57q0 -36 7 -54.5t36 -32.5v179zM212 96q32 8 39.5 34.5t7.5 71.5q0 25 -1.5 42t-6.5 28q-11 21 -39 32v-208zM161 -90v84q-33 4 -60.5 18t-47.5 36q-42 45 -42 113v40h102v-36q0 -23 11 -43t37 -26v230l-34 14q-66 27 -88.5 71.5
t-22.5 111.5q0 76 36 130.5t109 64.5v75h51v-75q34 -4 61.5 -18.5t47.5 -37.5t30 -50t10 -55v-50h-102v23q0 32 -10.5 55t-36.5 31v-201l42 -17q34 -13 55 -30.5t33 -40.5q11 -24 15 -54.5t4 -69.5q0 -43 -7.5 -79.5t-24.5 -63.5q-18 -28 -46.5 -45t-70.5 -21v-84h-51z" />
    <glyph glyph-name="percent" unicode="%" horiz-adv-x="352" 
d="M94 555q10 0 17.5 7.5t7.5 18.5v51q0 11 -7.5 18.5t-17.5 7.5t-17.5 -7.5t-7.5 -18.5v-51q0 -11 7.5 -18.5t17.5 -7.5zM94 495q-39 0 -62 21t-23 55v65q0 38 23 60t62 22t62 -22t23 -60v-65q0 -34 -23 -55t-62 -21zM233 80q0 -11 7.5 -18.5t17.5 -7.5t17.5 7.5t7.5 18.5
v51q0 11 -7.5 18.5t-17.5 7.5t-17.5 -7.5t-7.5 -18.5v-51zM258 -6q-39 0 -62 21t-23 55v65q0 38 23 60t62 22t62 -22t23 -60v-65q0 -34 -23 -55t-62 -21zM21 0l244 712h66l-244 -712h-66z" />
    <glyph glyph-name="ampersand" unicode="&#x26;" horiz-adv-x="481" 
d="M353 0l-34 54q-30 -30 -62 -45t-74 -15q-30 0 -57 12t-47 34q-20 21 -31.5 51.5t-11.5 67.5q0 59 28 103t70 82q-27 38 -44.5 78.5t-17.5 85.5q0 28 9 53.5t26 44.5q17 18 43 29t61 11q33 0 58 -10.5t42 -27.5q35 -37 35 -91q0 -51 -31 -96t-73 -83q10 -14 20.5 -32
t23.5 -38q25 -43 50 -79l55 75l63 -44l-76 -98l77 -122h-102zM126 164q0 -37 21.5 -63.5t54.5 -26.5q23 0 44 14.5t32 28.5l-98 156q-23 -23 -38.5 -49.5t-15.5 -59.5zM162 506q0 -23 11 -49.5t28 -53.5q9 9 20 20.5t20 25.5t15 30.5t6 35.5t-13 35t-36 16t-37 -18.5
t-14 -41.5z" />
    <glyph glyph-name="quotesingle" unicode="'" horiz-adv-x="186" 
d="M53 536v176h80v-176h-80z" />
    <glyph glyph-name="parenleft" unicode="(" horiz-adv-x="222" 
d="M203 712q-29 -103 -40 -213t-11 -221q0 -103 13.5 -196.5t37.5 -181.5h-34q-30 43 -52.5 93.5t-36.5 104.5q-15 54 -22.5 107t-7.5 101q0 51 8 105t24 108q30 107 87 193h34z" />
    <glyph glyph-name="parenright" unicode=")" horiz-adv-x="222" 
d="M19 -100q29 103 40 213t11 221q0 103 -13.5 196.5t-37.5 181.5h34q30 -45 52.5 -94.5t37.5 -103.5q14 -54 21.5 -107t7.5 -101q0 -51 -8 -105t-23 -108q-32 -108 -88 -193h-34z" />
    <glyph glyph-name="asterisk" unicode="*" 
d="M31 604l28 52l98 -60l-4 116h64l-4 -116l98 60l28 -52l-100 -56l100 -55l-28 -53l-98 60l4 -116h-64l4 116l-98 -60l-28 53l100 55z" />
    <glyph glyph-name="plus" unicode="+" horiz-adv-x="600" 
d="M260 293v213h80v-213h213v-80h-213v-213h-80v213h-213v80h213z" />
    <glyph glyph-name="comma" unicode="," horiz-adv-x="186" 
d="M42 -74v176h102v-102z" />
    <glyph glyph-name="hyphen" unicode="-" horiz-adv-x="389" 
d="M44 226v102h301v-102h-301z" />
    <glyph glyph-name="period" unicode="." horiz-adv-x="186" 
d="M42 0v102h102v-102h-102z" />
    <glyph glyph-name="slash" unicode="/" horiz-adv-x="222" 
d="M5 -6l132 724h80l-132 -724h-80z" />
    <glyph glyph-name="zero" unicode="0" horiz-adv-x="372" 
d="M34 565q0 36 12.5 64t33.5 48t48.5 30.5t57.5 10.5t57.5 -10.5t48.5 -30.5t33.5 -48t12.5 -64v-418q0 -36 -12.5 -64t-33.5 -48t-48.5 -30.5t-57.5 -10.5t-57.5 10.5t-48.5 30.5t-33.5 48t-12.5 64v418zM136 147q0 -22 14 -36.5t36 -14.5t36 14.5t14 36.5v418
q0 22 -14 36.5t-36 14.5t-36 -14.5t-14 -36.5v-418z" />
    <glyph glyph-name="one" unicode="1" horiz-adv-x="372" 
d="M155 0v604l-102 -75v108l102 75h102v-712h-102z" />
    <glyph glyph-name="two" unicode="2" horiz-adv-x="372" 
d="M34 0v96l184 347q14 26 16 45.5t2 48.5q0 13 -0.5 27.5t-5.5 25.5t-15 18.5t-29 7.5q-23 0 -36.5 -13t-13.5 -38v-58h-102v56q0 32 12 60t33 49q20 21 48 33.5t60 12.5q40 0 68.5 -14.5t47.5 -39.5q18 -25 26.5 -57t8.5 -68q0 -26 -1 -43.5t-4 -33.5t-10 -32t-19 -39
l-150 -289h184v-102h-304z" />
    <glyph glyph-name="three" unicode="3" horiz-adv-x="372" 
d="M155 412q46 0 63.5 11t17.5 51v92q0 22 -13.5 36t-36.5 14q-27 0 -38.5 -17t-11.5 -33v-58h-102v59q0 31 12 59t33 48t49 32t60 12q42 0 69.5 -16.5t41.5 -33.5q10 -12 17.5 -24t12.5 -29q9 -33 9 -98q0 -37 -1.5 -60t-7.5 -38q-7 -16 -19.5 -27t-34.5 -24
q24 -15 36.5 -28t18.5 -30q6 -18 7 -42.5t1 -62.5q0 -35 -1.5 -58t-4.5 -38q-3 -16 -8 -27t-13 -23q-19 -28 -48.5 -46.5t-77.5 -18.5q-24 0 -51 8t-49 26t-36.5 47t-14.5 71v58h102v-53q0 -24 13.5 -39.5t36.5 -15.5t36.5 15.5t13.5 41.5v102q0 42 -16 55q-9 8 -24.5 10
t-40.5 2v90z" />
    <glyph glyph-name="four" unicode="4" horiz-adv-x="372" 
d="M212 0v106h-203v96l147 510h108l-153 -510h101v203h102v-203h49v-96h-49v-106h-102z" />
    <glyph glyph-name="five" unicode="5" horiz-adv-x="372" 
d="M338 712v-96h-202v-192q14 14 36 23.5t49 9.5q52 0 84.5 -31.5t32.5 -94.5v-184q0 -36 -12.5 -64t-33.5 -48t-48.5 -30.5t-57.5 -10.5t-57.5 10.5t-48.5 30.5t-33.5 48t-12.5 64v30h102v-26q0 -26 14.5 -40.5t37.5 -14.5t35.5 14t12.5 39v167q0 21 -13.5 36t-34.5 15
q-13 0 -22 -4.5t-15 -10.5t-9 -13q-5 -9 -6 -11h-90v384h292z" />
    <glyph glyph-name="six" unicode="6" horiz-adv-x="372" 
d="M301 712l-116 -299l2 -2q5 4 15.5 6.5t27.5 2.5q27 0 50 -13t36 -33q7 -11 11 -22t7 -29q2 -18 3 -45.5t1 -69.5q0 -35 -1 -57.5t-3 -37.5q-3 -16 -7.5 -27t-11.5 -23q-20 -33 -53.5 -51t-75.5 -18t-75 18.5t-53 50.5q-8 12 -12.5 23t-6.5 27q-3 15 -4 37.5t-1 57.5
q0 33 1 54.5t3 37.5q2 15 6 27.5t9 26.5l134 358h114zM236 279q0 23 -15 37t-35 14t-35 -14t-15 -37v-132q0 -23 15 -37t35 -14t35 14t15 37v132z" />
    <glyph glyph-name="seven" unicode="7" horiz-adv-x="372" 
d="M57 0l179 616h-112v-82h-90v178h304v-102l-173 -610h-108z" />
    <glyph glyph-name="eight" unicode="8" horiz-adv-x="372" 
d="M236 566q0 21 -15 35.5t-35 14.5t-35 -14.5t-15 -35.5v-104q0 -21 15 -35.5t35 -14.5t35 14.5t15 35.5v104zM34 526q0 29 2 49.5t7 35.5t11.5 27t16.5 25q20 26 50 40.5t65 14.5t65 -14.5t50 -40.5q10 -13 17 -25t12 -27t6.5 -35.5t1.5 -49.5q0 -32 -1 -54t-6 -39
t-15.5 -30.5t-28.5 -28.5q18 -14 28.5 -28t15.5 -33t6 -46.5t1 -67.5q0 -33 -1.5 -54.5t-4.5 -37.5t-8.5 -27t-13.5 -23q-17 -26 -48 -44.5t-76 -18.5t-76 18.5t-48 44.5q-8 12 -13.5 23t-8.5 27t-4.5 37.5t-1.5 54.5q0 40 1 67.5t6 46.5t15.5 33t28.5 28q-18 15 -28.5 28.5
t-15.5 30.5t-6 39t-1 54zM236 286q0 21 -15 35.5t-35 14.5t-35 -14.5t-15 -35.5v-140q0 -21 15 -35.5t35 -14.5t35 14.5t15 35.5v140z" />
    <glyph glyph-name="nine" unicode="9" horiz-adv-x="372" 
d="M71 0l116 299l-2 2q-5 -4 -15.5 -6.5t-27.5 -2.5q-27 0 -50 13t-36 33q-7 10 -11 21.5t-6 29.5q-3 18 -4 45.5t-1 69.5q0 35 1 57.5t4 38.5q2 15 6.5 26t11.5 23q20 33 53.5 51t75.5 18t75 -18.5t53 -50.5q7 -12 12 -23t8 -26q2 -16 3 -38.5t1 -57.5q0 -33 -1 -54.5
t-3 -36.5q-3 -16 -6.5 -28.5t-8.5 -26.5l-134 -358h-114zM136 433q0 -23 15 -37t35 -14t35 14t15 37v132q0 23 -15 37t-35 14t-35 -14t-15 -37v-132z" />
    <glyph glyph-name="colon" unicode=":" horiz-adv-x="186" 
d="M42 0v102h102v-102h-102zM42 227v102h102v-102h-102z" />
    <glyph glyph-name="semicolon" unicode=";" horiz-adv-x="186" 
d="M42 -74v176h102v-102zM42 227v102h102v-102h-102z" />
    <glyph glyph-name="less" unicode="&#x3c;" horiz-adv-x="600" 
d="M553 514v-80l-397 -181l397 -181v-80l-506 231v60z" />
    <glyph glyph-name="equal" unicode="=" horiz-adv-x="600" 
d="M47 313v80h506v-80h-506zM47 113v80h506v-80h-506z" />
    <glyph glyph-name="greater" unicode="&#x3e;" horiz-adv-x="600" 
d="M47 -8v80l397 181l-397 181v80l506 -231v-60z" />
    <glyph glyph-name="question" unicode="?" 
d="M32 507v59q0 31 12 59t33 49q21 20 49 32t60 12q37 0 67.5 -15t50.5 -42q10 -14 16.5 -25.5t10.5 -25.5q7 -25 7 -71q0 -26 -0.5 -43.5t-2.5 -30.5t-5 -22.5t-8 -17.5l-69 -118q-7 -12 -12 -24.5t-5 -26.5v-80h-102v93q0 22 7 42t18 39l64 104q8 13 10.5 28t2.5 30v53
q0 21 -14.5 36t-35.5 15q-18 0 -35 -13t-17 -38v-58h-102zM134 0v102h102v-102h-102z" />
    <glyph glyph-name="at" unicode="@" horiz-adv-x="800" 
d="M513 410q0 35 -19 59t-55 24q-33 0 -61 -18.5t-48 -47.5q-21 -29 -33 -63.5t-12 -65.5q0 -42 22.5 -64.5t60.5 -22.5q28 0 54.5 20t46.5 50q20 29 32 64t12 65zM639 548l-87 -275q-5 -14 -7.5 -26t-2.5 -19q0 -13 5 -21t18 -8q24 0 48 20t44 52t32 69.5t12 73.5
q0 52 -22 96t-59 76t-85 49t-102 17q-63 0 -117.5 -24.5t-96.5 -66.5t-65 -96t-23 -112q0 -61 23.5 -114.5t65.5 -92.5q42 -40 97 -63t121 -23q36 0 72 8.5t68 22.5t58.5 33.5t44.5 40.5h77q-24 -40 -59.5 -72t-77.5 -54q-43 -22 -91.5 -33.5t-99.5 -11.5q-78 0 -146.5 27.5
t-119.5 76.5q-51 48 -80.5 115t-29.5 145q0 75 30 140.5t82 114.5q51 49 119.5 77t146.5 28q70 0 133 -22t111 -62t75 -94.5t27 -120.5q0 -63 -23.5 -114.5t-58.5 -87.5q-35 -37 -74.5 -57.5t-71.5 -20.5q-34 0 -54 15.5t-24 47.5h-2q-11 -12 -22.5 -23t-25.5 -20
q-15 -9 -33 -14.5t-41 -5.5q-32 0 -58.5 12t-45.5 33q-39 44 -39 107q0 49 17 98t48 88q30 39 72.5 63.5t96.5 24.5q35 0 67.5 -18t47.5 -60h2l20 61h63z" />
    <glyph glyph-name="A" unicode="A" horiz-adv-x="407" 
d="M254 249l-50 258h-2l-50 -258h102zM2 0l159 712h85l159 -712h-102l-30 153h-139l-30 -153h-102z" />
    <glyph glyph-name="B" unicode="B" horiz-adv-x="426" 
d="M48 0v712h149q49 0 83.5 -15t56.5 -40t31.5 -57.5t9.5 -67.5v-26q0 -29 -4.5 -49t-13.5 -35q-17 -28 -52 -48q36 -17 53 -50t17 -90v-40q0 -94 -45.5 -144t-145.5 -50h-139zM150 330v-228h44q31 0 48.5 9t26.5 25t11 38t2 48q0 27 -3 47t-12 34q-10 14 -27 20.5t-45 6.5
h-45zM150 616v-196h46q51 0 68.5 25.5t17.5 74.5q0 48 -19.5 72t-70.5 24h-42z" />
    <glyph glyph-name="C" unicode="C" horiz-adv-x="407" 
d="M372 203v-44q0 -33 -12.5 -62.5t-34.5 -52.5t-51.5 -36.5t-63.5 -13.5q-29 0 -59 8t-54 28t-39.5 51.5t-15.5 80.5v392q0 35 12 65t34 52t52.5 34.5t67.5 12.5q72 0 117 -47q22 -23 34.5 -54.5t12.5 -68.5v-40h-102v34q0 30 -17 52t-46 22q-38 0 -50.5 -23.5t-12.5 -59.5
v-364q0 -31 13.5 -52t48.5 -21q10 0 21.5 3.5t21.5 11.5q9 8 15 22t6 35v35h102z" />
    <glyph glyph-name="D" unicode="D" horiz-adv-x="426" 
d="M48 0v712h151q88 0 133.5 -48t45.5 -136v-333q0 -100 -48.5 -147.5t-139.5 -47.5h-142zM150 616v-520h47q43 0 61 21.5t18 67.5v343q0 42 -17 65t-62 23h-47z" />
    <glyph glyph-name="E" unicode="E" 
d="M48 0v712h304v-96h-202v-209h176v-96h-176v-209h202v-102h-304z" />
    <glyph glyph-name="F" unicode="F" 
d="M48 0v712h304v-96h-202v-216h176v-96h-176v-304h-102z" />
    <glyph glyph-name="G" unicode="G" horiz-adv-x="426" 
d="M42 544q0 43 15 76t40 55q24 21 54.5 32t61.5 11t61.5 -11t55.5 -32q24 -22 39 -55t15 -76v-36h-102v36q0 37 -20.5 54.5t-48.5 17.5t-48.5 -17.5t-20.5 -54.5v-376q0 -37 20.5 -54.5t48.5 -17.5t48.5 17.5t20.5 54.5v134h-81v90h183v-224q0 -45 -15 -77t-39 -53
q-25 -22 -55.5 -33t-61.5 -11t-61.5 11t-54.5 33q-25 21 -40 53t-15 77v376z" />
    <glyph glyph-name="H" unicode="H" horiz-adv-x="426" 
d="M48 0v712h102v-305h126v305h102v-712h-102v317h-126v-317h-102z" />
    <glyph glyph-name="I" unicode="I" horiz-adv-x="204" 
d="M51 0v712h102v-712h-102z" />
    <glyph glyph-name="J" unicode="J" horiz-adv-x="333" 
d="M285 712v-544q0 -73 -46 -122q-23 -24 -54.5 -38t-73.5 -14q-49 0 -81.5 21.5t-51.5 42.5l80 64q11 -11 25.5 -18.5t30.5 -7.5q9 0 21 3.5t23 13.5q11 9 18 25.5t7 43.5v530h102z" />
    <glyph glyph-name="K" unicode="K" horiz-adv-x="426" 
d="M48 0v712h102v-325h2l149 325h102l-139 -285l165 -427h-108l-116 316l-55 -103v-213h-102z" />
    <glyph glyph-name="L" unicode="L" 
d="M48 0v712h102v-610h202v-102h-304z" />
    <glyph glyph-name="M" unicode="M" horiz-adv-x="556" 
d="M48 0v712h98l131 -377h2l130 377h99v-712h-102v433h-2l-101 -306h-51l-100 306h-2v-433h-102z" />
    <glyph glyph-name="N" unicode="N" horiz-adv-x="444" 
d="M44 0v712h98l154 -429h2v429h102v-712h-96l-156 428h-2v-428h-102z" />
    <glyph glyph-name="O" unicode="O" horiz-adv-x="426" 
d="M42 544q0 43 15 76t40 55q24 21 54.5 32t61.5 11t61.5 -11t55.5 -32q24 -22 39 -55t15 -76v-376q0 -45 -15 -77t-39 -53q-25 -22 -55.5 -33t-61.5 -11t-61.5 11t-54.5 33q-25 21 -40 53t-15 77v376zM144 168q0 -37 20.5 -54.5t48.5 -17.5t48.5 17.5t20.5 54.5v376
q0 37 -20.5 54.5t-48.5 17.5t-48.5 -17.5t-20.5 -54.5v-376z" />
    <glyph glyph-name="P" unicode="P" horiz-adv-x="407" 
d="M48 0v712h153q42 0 74 -11t58 -39t36 -65.5t10 -101.5q0 -48 -5.5 -81t-23.5 -62q-21 -35 -56 -54.5t-92 -19.5h-52v-278h-102zM150 616v-242h49q31 0 48 9t25 25q8 15 9.5 37t1.5 49q0 25 -1 47.5t-9 39.5t-24 26t-46 9h-53z" />
    <glyph glyph-name="Q" unicode="Q" horiz-adv-x="426" 
d="M144 168q0 -37 20.5 -54.5t48.5 -17.5q14 0 22 4l-46 37l52 62l41 -33v2v376q0 37 -20.5 54.5t-48.5 17.5t-48.5 -17.5t-20.5 -54.5v-376zM42 544q0 43 15 76t40 55q24 21 54.5 32t61.5 11t61.5 -11t55.5 -32q24 -22 39 -55t15 -76v-376q0 -42 -15 -73l63 -51l-52 -62
l-60 49q-46 -37 -107 -37q-31 0 -61.5 11t-54.5 33q-25 21 -40 53t-15 77v376z" />
    <glyph glyph-name="R" unicode="R" horiz-adv-x="426" 
d="M150 616v-222h58q27 0 43 7.5t25 21.5q8 14 11 34.5t3 47.5t-3 47.5t-12 35.5q-19 28 -72 28h-53zM48 0v712h164q180 0 180 -209q0 -63 -19.5 -107t-68.5 -71l110 -325h-108l-95 304h-61v-304h-102z" />
    <glyph glyph-name="S" unicode="S" horiz-adv-x="406" 
d="M378 507h-102v23q0 35 -16.5 60.5t-55.5 25.5q-21 0 -34 -8t-21 -20q-8 -13 -11 -29.5t-3 -34.5q0 -21 1.5 -35t7.5 -25t17.5 -19t31.5 -16l78 -31q34 -13 55 -30.5t33 -40.5q11 -24 15 -54.5t4 -69.5q0 -45 -9 -83.5t-29 -65.5q-21 -28 -55 -44t-83 -16q-37 0 -69 13
t-55 36t-36.5 53.5t-13.5 66.5v38h102v-32q0 -28 16.5 -50.5t55.5 -22.5q26 0 40.5 7.5t22.5 21.5t9.5 33.5t1.5 43.5q0 28 -2 46t-8 29q-7 11 -18.5 18t-30.5 15l-73 30q-66 27 -88.5 71.5t-22.5 111.5q0 40 11 76t33 62q21 26 53.5 41.5t77.5 15.5q38 0 69.5 -14t54.5 -37
q46 -48 46 -110v-50z" />
    <glyph glyph-name="T" unicode="T" horiz-adv-x="332" 
d="M115 0v616h-118v96h338v-96h-118v-616h-102z" />
    <glyph glyph-name="U" unicode="U" horiz-adv-x="426" 
d="M378 712v-552q0 -35 -12.5 -64.5t-35.5 -52.5t-53 -36t-64 -13t-63.5 13t-52.5 36t-36 52.5t-13 64.5v552h102v-542q0 -38 18 -56t45 -18t45 18t18 56v542h102z" />
    <glyph glyph-name="V" unicode="V" horiz-adv-x="407" 
d="M394 712l-146 -712h-90l-145 712h108l81 -497h2l82 497h108z" />
    <glyph glyph-name="W" unicode="W" horiz-adv-x="593" 
d="M577 712l-106 -712h-96l-78 462h-2l-77 -462h-96l-106 712h108l51 -452h2l80 452h78l83 -463h2l49 463h108z" />
    <glyph glyph-name="X" unicode="X" horiz-adv-x="389" 
d="M-2 0l144 373l-133 339h108l77 -211l78 211h108l-136 -339l147 -373h-108l-89 240l-88 -240h-108z" />
    <glyph glyph-name="Y" unicode="Y" horiz-adv-x="388" 
d="M143 0v301l-140 411h108l82 -283h2l82 283h108l-140 -411v-301h-102z" />
    <glyph glyph-name="Z" unicode="Z" horiz-adv-x="333" 
d="M15 0v90l192 526h-182v96h293v-81l-196 -535h196v-96h-303z" />
    <glyph glyph-name="bracketleft" unicode="[" horiz-adv-x="222" 
d="M214 712v-60h-66v-692h66v-60h-156v812h156z" />
    <glyph glyph-name="backslash" unicode="\" horiz-adv-x="222" 
d="M85 718l132 -724h-80l-132 724h80z" />
    <glyph glyph-name="bracketright" unicode="]" horiz-adv-x="222" 
d="M8 -100v60h66v692h-66v60h156v-812h-156z" />
    <glyph glyph-name="asciicircum" unicode="^" horiz-adv-x="600" 
d="M50 283l217 429h66l217 -429h-80l-170 339l-170 -339h-80z" />
    <glyph glyph-name="underscore" unicode="_" horiz-adv-x="500" 
d="M0 -125v50h500v-50h-500z" />
    <glyph glyph-name="grave" unicode="`" horiz-adv-x="186" 
d="M68 715l90 -141h-66l-132 141h108z" />
    <glyph glyph-name="a" unicode="a" 
d="M235 0v52h-2q-20 -28 -40.5 -43t-57.5 -15q-18 0 -36.5 5.5t-35.5 20.5q-17 14 -27.5 40.5t-10.5 68.5q0 43 7 75.5t26 54.5q18 21 49 31.5t79 10.5h11t11 -1t12 -1t15 -1v53q0 26 -11 43t-40 17q-20 0 -36.5 -13t-21.5 -38h-99q4 68 46 110q20 20 48 31.5t63 11.5
q32 0 60 -10t49 -30q20 -20 32 -50t12 -70v-353h-102zM235 218q-17 3 -28 3q-33 0 -56.5 -15.5t-23.5 -56.5q0 -29 14 -47t39 -18q26 0 40.5 17t14.5 48v69z" />
    <glyph glyph-name="b" unicode="b" horiz-adv-x="389" 
d="M42 0v712h102v-251h2q17 25 40.5 38.5t53.5 13.5q37 0 57.5 -13t33.5 -33q10 -16 13 -42t3 -81v-193q0 -42 -4 -67t-13 -42q-26 -48 -89 -48q-38 0 -58 15t-39 37v-46h-102zM245 351q0 24 -10.5 42t-39.5 18q-22 0 -36.5 -15.5t-14.5 -39.5v-197q0 -28 14 -45.5t37 -17.5
q26 0 38 19t12 50v186z" />
    <glyph glyph-name="c" unicode="c" 
d="M150 146q0 -24 13.5 -37t36.5 -13q29 0 38.5 17t11.5 34h102q0 -67 -41 -108q-20 -21 -48 -33t-63 -12q-48 0 -81.5 20t-51.5 53q-11 20 -15 46t-4 57v167q0 31 4 57t15 46q18 33 51.5 53t81.5 20q35 0 63.5 -12t48.5 -33q40 -45 40 -117h-102q0 31 -13.5 45.5
t-36.5 14.5t-36.5 -14.5t-13.5 -43.5v-207z" />
    <glyph glyph-name="d" unicode="d" horiz-adv-x="389" 
d="M144 165q0 -31 12 -50t38 -19q23 0 37 17.5t14 45.5v197q0 24 -14.5 39.5t-36.5 15.5q-29 0 -39.5 -18t-10.5 -42v-186zM245 0v46q-10 -11 -19 -20.5t-20 -16.5t-25 -11t-33 -4q-64 0 -89 48q-9 17 -13 42t-4 67v193q0 55 3 81q6 50 47 75q19 13 57 13q30 0 53.5 -13.5
t40.5 -38.5h2v251h102v-712h-102z" />
    <glyph glyph-name="e" unicode="e" 
d="M337 215h-202v-69q0 -24 13.5 -37t36.5 -13q29 0 38.5 17t11.5 34h102q0 -67 -41 -108q-20 -21 -48 -33t-63 -12q-48 0 -81.5 20t-51.5 53q-11 20 -15 46t-4 57v167q0 31 4 57t15 46q18 33 51.5 53t81.5 20q35 0 63.5 -12t48.5 -33q40 -45 40 -113v-140zM135 295h100v58
q0 29 -13.5 43.5t-36.5 14.5t-36.5 -14.5t-13.5 -43.5v-58z" />
    <glyph glyph-name="f" unicode="f" horiz-adv-x="222" 
d="M55 0v427h-50v80h50v69q0 37 11 62.5t30 42.5q18 17 41.5 24t48.5 7h47v-96h-46q-30 0 -30 -35v-74h76v-80h-76v-427h-102z" />
    <glyph glyph-name="g" unicode="g" horiz-adv-x="389" 
d="M144 -59q1 -18 14.5 -34t39.5 -16q25 0 36 15.5t11 39.5v100h-2q-17 -25 -40.5 -38.5t-54.5 -13.5q-64 0 -89 48q-9 17 -13 42t-4 67v193q0 55 3 81q6 50 47 75q19 13 57 13q19 0 32.5 -4t24.5 -11t20 -16.5t19 -20.5v46h102v-569q0 -26 -8.5 -52.5t-27.5 -47.5
q-19 -22 -48 -35.5t-69 -13.5q-23 0 -48 7.5t-46 25.5q-22 17 -37.5 45.5t-20.5 73.5h102zM144 156q0 -24 10.5 -42t39.5 -18q22 0 36.5 15.5t14.5 39.5v197q0 28 -14 45.5t-37 17.5q-26 0 -38 -19t-12 -50v-186z" />
    <glyph glyph-name="h" unicode="h" horiz-adv-x="389" 
d="M42 0v712h102v-254h2q16 24 38.5 39.5t57.5 15.5q19 0 38 -6.5t34 -21.5t24 -38.5t9 -57.5v-389h-102v351q0 28 -13 44t-37 16q-29 0 -40 -18t-11 -52v-341h-102z" />
    <glyph glyph-name="i" unicode="i" horiz-adv-x="186" 
d="M42 0v507h102v-507h-102zM42 610v102h102v-102h-102z" />
    <glyph glyph-name="j" unicode="j" horiz-adv-x="186" 
d="M42 507h102v-561q0 -75 -47 -113t-119 -38v96q37 0 51 19q8 11 10.5 28.5t2.5 45.5v523zM42 610v102h102v-102h-102z" />
    <glyph glyph-name="k" unicode="k" horiz-adv-x="389" 
d="M42 0v712h102v-426h2l123 221h102l-121 -206l146 -301h-111l-92 219l-49 -77v-142h-102z" />
    <glyph glyph-name="l" unicode="l" horiz-adv-x="186" 
d="M36 712h102v-569q0 -29 10.5 -39.5t39.5 -13.5v-96q-35 0 -63 5.5t-48 21.5q-20 15 -30.5 42.5t-10.5 72.5v576z" />
    <glyph glyph-name="m" unicode="m" horiz-adv-x="592" 
d="M42 0v507h102v-49h2q16 24 38.5 39.5t57.5 15.5q33 0 55 -16t36 -35q19 21 42 36t64 15q19 0 39 -6.5t36 -21.5t26 -38.5t10 -57.5v-389h-102v351q0 28 -13 44t-37 16q-29 0 -40 -18t-11 -52v-341h-102v351q0 28 -13 44t-37 16q-29 0 -40 -18t-11 -52v-341h-102z" />
    <glyph glyph-name="n" unicode="n" horiz-adv-x="389" 
d="M42 0v507h102v-49h2q16 24 38.5 39.5t57.5 15.5q19 0 38 -6.5t34 -21.5t24 -38.5t9 -57.5v-389h-102v351q0 28 -13 44t-37 16q-29 0 -40 -18t-11 -52v-341h-102z" />
    <glyph glyph-name="o" unicode="o" 
d="M33 337q0 31 4 57t15 46q18 33 51.5 53t81.5 20t81.5 -20t51.5 -53q11 -20 15 -46t4 -57v-167q0 -31 -4 -57t-15 -46q-18 -33 -51.5 -53t-81.5 -20t-81.5 20t-51.5 53q-11 20 -15 46t-4 57v167zM135 154q0 -29 13.5 -43.5t36.5 -14.5t36.5 14.5t13.5 43.5v199
q0 29 -13.5 43.5t-36.5 14.5t-36.5 -14.5t-13.5 -43.5v-199z" />
    <glyph glyph-name="p" unicode="p" horiz-adv-x="389" 
d="M42 -205v712h102v-46q19 22 39 37t58 15q63 0 89 -48q9 -17 13 -42t4 -67v-193q0 -56 -3 -81q-6 -50 -46 -75q-20 -13 -58 -13q-30 0 -53.5 13.5t-40.5 38.5h-2v-251h-102zM245 342q0 31 -12 50t-38 19q-23 0 -37 -17.5t-14 -45.5v-197q0 -24 14.5 -39.5t36.5 -15.5
q29 0 39.5 18t10.5 42v186z" />
    <glyph glyph-name="q" unicode="q" horiz-adv-x="389" 
d="M245 -205v251h-2q-17 -25 -40.5 -38.5t-53.5 -13.5q-37 0 -57.5 13t-33.5 33q-10 16 -13 42q-3 25 -3 81v193q0 42 4 67t13 42q25 48 89 48q19 0 33 -4t25 -11t20 -16.5t19 -20.5v46h102v-712h-102zM144 156q0 -24 10.5 -42t39.5 -18q22 0 36.5 15.5t14.5 39.5v197
q0 28 -14 45.5t-37 17.5q-26 0 -38 -19t-12 -50v-186z" />
    <glyph glyph-name="r" unicode="r" horiz-adv-x="278" 
d="M42 0v507h102v-54q31 28 61 44t74 16v-108q-15 6 -31 6t-34.5 -5.5t-33.5 -18.5q-16 -13 -26 -34t-10 -52v-301h-102z" />
    <glyph glyph-name="s" unicode="s" horiz-adv-x="352" 
d="M227 365q-1 26 -16.5 39t-35.5 13q-24 0 -37 -15.5t-13 -35.5q0 -14 7 -27.5t36 -24.5l60 -24q57 -22 78.5 -60t21.5 -83q0 -32 -11.5 -59.5t-31.5 -48.5t-48 -33t-61 -12q-62 0 -104 39q-21 19 -34 47.5t-14 66.5h96q3 -21 14.5 -39t40.5 -18q22 0 39.5 14.5t17.5 40.5
q0 21 -11 36t-40 26l-49 18q-48 18 -75.5 53.5t-27.5 86.5q0 32 12 59.5t33 47.5q20 20 47 30.5t58 10.5t57.5 -11t45.5 -31t30 -47.5t11 -58.5h-96z" />
    <glyph glyph-name="t" unicode="t" horiz-adv-x="204" 
d="M42 507v154h102v-154h63v-80h-63v-281q0 -18 3.5 -28t11.5 -15t19.5 -6t28.5 -1v-96h-42q-35 0 -58.5 11t-37.5 28t-20.5 38.5t-6.5 41.5v308h-51v80h51z" />
    <glyph glyph-name="u" unicode="u" horiz-adv-x="389" 
d="M347 507v-507h-102v49h-2q-16 -24 -38.5 -39.5t-57.5 -15.5q-19 0 -38 6.5t-34 21.5t-24 38.5t-9 57.5v389h102v-351q0 -28 13 -44t37 -16q29 0 40 18t11 52v341h102z" />
    <glyph glyph-name="v" unicode="v" horiz-adv-x="352" 
d="M353 507l-132 -507h-90l-132 507h108l68 -324h2l68 324h108z" />
    <glyph glyph-name="w" unicode="w" horiz-adv-x="536" 
d="M535 507l-120 -507h-90l-56 301h-2l-56 -301h-90l-120 507h108l62 -315h2l57 315h80l54 -315h2l61 315h108z" />
    <glyph glyph-name="x" unicode="x" horiz-adv-x="332" 
d="M-11 0l125 259l-119 248h108l63 -144l63 144h108l-121 -248l127 -259h-108l-69 155l-69 -155h-108z" />
    <glyph glyph-name="y" unicode="y" horiz-adv-x="352" 
d="M-1 507h108l70 -316h2l69 316h105l-146 -595q-8 -34 -22.5 -56t-33.5 -36t-40.5 -19.5t-44.5 -5.5h-28v96h23q15 0 26 4t20 18q8 14 15 39.5t16 70.5z" />
    <glyph glyph-name="z" unicode="z" horiz-adv-x="315" 
d="M17 0v81l165 336h-152v90h268v-81l-165 -330h165v-96h-281z" />
    <glyph glyph-name="braceleft" unicode="{" horiz-adv-x="222" 
d="M3 337q28 0 46 31.5t18 80.5v152q0 54 29 82.5t69 28.5h54v-60h-18q-24 0 -34 -17.5t-10 -48.5v-151q0 -33 -7 -56.5t-17 -38.5t-22.5 -23t-22.5 -10v-2q10 -2 22.5 -9.5t22.5 -22.5t17 -39t7 -58v-149q0 -32 10 -49.5t34 -17.5h18v-60h-54q-40 0 -69 28.5t-29 82.5v151
q0 51 -18 83t-46 32v60z" />
    <glyph glyph-name="bar" unicode="|" horiz-adv-x="222" 
d="M71 -250v1000h80v-1000h-80z" />
    <glyph glyph-name="braceright" unicode="}" horiz-adv-x="222" 
d="M219 277q-28 0 -46 -32t-18 -83v-151q0 -54 -29 -82.5t-69 -28.5h-54v60h18q24 0 34 17.5t10 49.5v149q0 34 7 58t17 39t22 22.5t23 9.5v2q-11 2 -23 10t-22 23t-17 38.5t-7 56.5v151q0 31 -10 48.5t-34 17.5h-18v60h54q40 0 69 -28.5t29 -82.5v-152q0 -49 18 -80.5
t46 -31.5v-60z" />
    <glyph glyph-name="asciitilde" unicode="~" horiz-adv-x="600" 
d="M531 265q-8 -16 -19.5 -31.5t-26.5 -27.5q-15 -13 -34.5 -20.5t-44.5 -7.5q-26 0 -54 9.5t-57 23.5q-14 6 -27.5 12t-27.5 12q-27 12 -47 12q-15 0 -27 -6.5t-23 -16.5t-20 -22.5t-18 -25.5l-36 64q8 16 19.5 31.5t26.5 28.5q15 12 34.5 19.5t44.5 7.5q26 0 54 -9.5
t57 -23.5q14 -6 27.5 -12t27.5 -12q27 -12 47 -12q15 0 27.5 6.5t23.5 16.5q11 11 19 23q5 7 9 13t9 13z" />
    <glyph glyph-name="uni00A0" unicode="&#xa0;" horiz-adv-x="186" 
 />
    <glyph glyph-name="exclamdown" unicode="&#xa1;" horiz-adv-x="240" 
d="M56 -205l39 536h50l39 -536h-128zM69 405v102h102v-102h-102z" />
    <glyph glyph-name="cent" unicode="&#xa2;" horiz-adv-x="372" 
d="M164 411q-12 -4 -20 -18.5t-8 -35.5v-215q0 -36 28 -46v315zM164 -90v84q-38 3 -66.5 22t-44.5 48q-11 20 -15 46t-4 57v172q0 31 4 57t15 46q16 29 44.5 48t66.5 23v75h41v-75q63 -5 98 -49t35 -113h-102q0 26 -8 40.5t-23 19.5v-315q17 6 23 20.5t8 30.5h102
q0 -33 -10.5 -61.5t-30.5 -48.5q-17 -18 -40 -29.5t-52 -13.5v-84h-41z" />
    <glyph glyph-name="sterling" unicode="&#xa3;" horiz-adv-x="372" 
d="M13 298v71h55q-19 35 -28.5 68t-9.5 84q0 39 9 75t29 63t50.5 43t73.5 16q25 0 51 -9.5t48 -29.5q21 -20 35 -50.5t14 -73.5v-45h-96v40q0 27 -11.5 49.5t-43.5 22.5q-35 0 -49 -30t-14 -72q0 -39 10 -79t22 -72h116v-71h-93q7 -19 12.5 -37.5t5.5 -50.5q0 -30 -9 -57
t-23 -52q16 -2 39 -6q11 -2 21.5 -3.5t21.5 -1.5q17 0 32.5 5t33.5 27l68 -69q-23 -32 -49.5 -45.5t-61.5 -13.5q-14 0 -36 3t-46 7q-24 3 -47.5 6t-40.5 3q-22 0 -45.5 -5.5t-33.5 -10.5v86q8 5 27.5 11.5t36.5 8.5q13 19 20 41.5t7 45.5q0 22 -6 51.5t-17 56.5h-78z" />
    <glyph glyph-name="currency" unicode="&#xa4;" horiz-adv-x="372" 
d="M4 214l42 42q-16 17 -25.5 43.5t-9.5 56.5t9 56.5t25 43.5l-41 42l41 41l41 -42q17 15 43.5 24.5t56.5 9.5t56.5 -9t44.5 -25l41 42l40 -41l-41 -41q16 -18 25 -44.5t9 -56.5q0 -31 -9.5 -57t-24.5 -43l41 -41l-41 -41l-41 41q-17 -16 -43.5 -25t-56.5 -9t-56.5 9.5
t-43.5 25.5l-41 -42zM77 356q0 -45 32 -77q15 -15 34.5 -23.5t42.5 -8.5q22 0 42 8.5t35 23.5q32 32 32 77q0 22 -8.5 42t-23.5 35q-32 32 -77 32t-77 -32q-15 -15 -23.5 -35t-8.5 -42z" />
    <glyph glyph-name="yen" unicode="&#xa5;" horiz-adv-x="372" 
d="M138 0v172h-114v66h114v49h-114v66h98l-118 359h102l79 -283h2l79 283h102l-118 -359h98v-66h-114v-49h114v-66h-114v-172h-96z" />
    <glyph glyph-name="brokenbar" unicode="&#xa6;" horiz-adv-x="222" 
d="M71 -175v350h80v-350h-80zM71 325v350h80v-350h-80z" />
    <glyph glyph-name="section" unicode="&#xa7;" 
d="M325 535h-85v42q0 23 -12.5 42t-37.5 19q-32 0 -42 -21.5t-10 -51.5q0 -18 1 -29.5t6 -19.5q5 -9 14 -17t26 -18l97 -63q18 -12 29 -23.5t17 -28.5q5 -17 7 -42.5t2 -64.5q0 -36 -2 -60.5t-11 -42.5t-26.5 -31t-47.5 -27q25 -13 40 -25t23 -28t10 -37t2 -51q0 -42 -5 -67
t-20 -47q-17 -25 -48.5 -39.5t-65.5 -14.5q-42 0 -68.5 14t-43.5 36q-17 21 -24 46t-7 47v42h85v-41q0 -26 15.5 -45t39.5 -19q31 0 44 19t13 59q0 19 -1.5 31t-4.5 21q-4 8 -10 14t-16 12l-118 72q-38 23 -48 58q-6 19 -7.5 44t-1.5 60q0 43 4 72t15 48t28 30.5t45 20.5
q-25 12 -38.5 25t-21.5 29q-8 15 -10 34.5t-2 45.5q0 39 11 68t30 48q18 19 43 28.5t53 9.5q25 0 49 -8.5t43 -25.5t31 -43t12 -60v-46zM135 213q0 -22 14.5 -37.5t35.5 -15.5q20 0 35 15.5t15 37.5v99q0 22 -15 37.5t-35 15.5q-21 0 -35.5 -15.5t-14.5 -37.5v-99z" />
    <glyph glyph-name="dieresis" unicode="&#xa8;" horiz-adv-x="186" 
d="M-33 586v102h90v-102h-90zM129 586v102h90v-102h-90z" />
    <glyph glyph-name="dieresis" unicode="&#x301;" horiz-adv-x="186" 
d="M-33 586v102h90v-102h-90zM129 586v102h90v-102h-90z" />
    <glyph glyph-name="copyright" unicode="&#xa9;" horiz-adv-x="800" 
d="M590 287q-14 -71 -62 -113q-49 -43 -115 -43q-49 0 -88.5 17.5t-67.5 48.5q-28 30 -43 70.5t-15 88.5q0 49 14.5 90.5t41.5 71.5t65.5 47t89.5 17q69 0 119 -39t61 -112h-66q-7 36 -39 61q-32 24 -74 24q-33 0 -59 -12.5t-44 -33.5q-37 -45 -37 -112q0 -64 39 -111
q18 -23 44.5 -36.5t58.5 -13.5q43 0 73.5 26t37.5 64h66zM690 356q0 61 -23 115t-62 94t-92 63.5t-113 23.5t-113 -23.5t-92 -63.5t-62 -94t-23 -115t23 -115t62 -94t92 -63.5t113 -23.5t113 23.5t92 63.5t62 94t23 115zM38 356q0 75 28.5 141t77.5 115t115 77.5t141 28.5
t141 -28.5t115 -77.5t77.5 -115t28.5 -141t-28.5 -141t-77.5 -115t-115 -77.5t-141 -28.5t-141 28.5t-115 77.5t-77.5 115t-28.5 141z" />
    <glyph glyph-name="ordfeminine" unicode="&#xaa;" horiz-adv-x="240" 
d="M154 410v31h-2q-13 -17 -26 -26t-37 -9q-12 0 -25 3t-24 12t-18.5 25t-7.5 42q0 52 23 79t85 27q7 0 14 -0.5t18 -1.5v24q0 15 -7.5 25.5t-25.5 10.5q-13 0 -24 -6.5t-13 -23.5h-66q3 45 30.5 70.5t72.5 25.5q44 0 74 -24q14 -12 22.5 -30t8.5 -42v-212h-72zM154 541
q-5 1 -9.5 1.5t-8.5 0.5q-22 0 -36 -9.5t-14 -34.5q0 -29 32 -29q17 0 26.5 10t9.5 24v37z" />
    <glyph glyph-name="guillemotleft" unicode="&#xab;" horiz-adv-x="426" 
d="M398 479v-102l-101 -100l101 -100v-102l-203 202zM213 479v-102l-101 -100l101 -100v-102l-203 202z" />
    <glyph glyph-name="logicalnot" unicode="&#xac;" horiz-adv-x="600" 
d="M473 113v200h-426v80h506v-280h-80z" />
    <glyph glyph-name="uni00AD" unicode="&#xad;" horiz-adv-x="389" 
d="M44 226v102h301v-102h-301z" />
    <glyph glyph-name="registered" unicode="&#xae;" horiz-adv-x="800" 
d="M329 507v-119h75q49 0 73.5 14.5t24.5 48.5q0 29 -21.5 42.5t-55.5 13.5h-96zM263 145v422h160q145 0 145 -119q0 -30 -8.5 -51t-23.5 -35t-34.5 -21.5t-41.5 -10.5l121 -185h-80l-121 183h-51v-183h-66zM690 356q0 61 -23 115t-62 94t-92 63.5t-113 23.5t-113 -23.5
t-92 -63.5t-62 -94t-23 -115t23 -115t62 -94t92 -63.5t113 -23.5t113 23.5t92 63.5t62 94t23 115zM38 356q0 75 28.5 141t77.5 115t115 77.5t141 28.5t141 -28.5t115 -77.5t77.5 -115t28.5 -141t-28.5 -141t-77.5 -115t-115 -77.5t-141 -28.5t-141 28.5t-115 77.5t-77.5 115
t-28.5 141z" />
    <glyph glyph-name="macron" unicode="&#xaf;" horiz-adv-x="186" 
d="M-44 607v60h274v-60h-274z" />
    <glyph glyph-name="degree" unicode="&#xb0;" horiz-adv-x="260" 
d="M69 606q0 -26 17.5 -43.5t43.5 -17.5t43.5 17.5t17.5 43.5t-17.5 43.5t-43.5 17.5t-43.5 -17.5t-17.5 -43.5zM18 606q0 23 9 43.5t24 35.5t35.5 24t43.5 9t43.5 -9t35.5 -24t24 -35.5t9 -43.5t-9 -43.5t-24 -35.5t-35.5 -24t-43.5 -9t-43.5 9t-35.5 24t-24 35.5t-9 43.5z
" />
    <glyph glyph-name="plusminus" unicode="&#xb1;" horiz-adv-x="600" 
d="M260 104v161h-213v80h213v161h80v-161h213v-80h-213v-161h-80zM47 0v80h506v-80h-506z" />
    <glyph glyph-name="two.superior" unicode="&#xb2;" horiz-adv-x="242" 
d="M11 584v36q0 43 32 70q15 13 35 20.5t43 7.5q22 0 42 -7t35 -19t24 -28.5t9 -36.5v-33q0 -26 -6 -42t-17 -33l-95 -160h118v-72h-220v54l128 212q5 9 8.5 18.5t3.5 20.5v23q0 15 -10 23t-21 8t-20 -8t-9 -23v-31h-80z" />
    <glyph glyph-name="three.superior" unicode="&#xb3;" horiz-adv-x="242" 
d="M100 540q29 0 39.5 6.5t11.5 27.5v42q0 13 -8 21.5t-22 8.5q-16 0 -23 -10.5t-7 -19.5v-26h-80v32q0 42 30.5 69t81.5 27q28 0 48 -8.5t34 -22.5q14 -15 20 -33t6 -36v-41q0 -22 -7 -38.5t-34 -30.5q24 -14 32.5 -31t8.5 -42v-51q0 -18 -5.5 -36.5t-19.5 -32.5t-35 -23
t-50 -9q-20 0 -40 5t-35 16q-16 11 -25.5 29t-9.5 44v34h80v-23q0 -15 8 -24t22 -9q13 0 21.5 9.5t8.5 20.5v52q0 23 -10 30t-41 7v66z" />
    <glyph glyph-name="acute" unicode="&#xb4;" horiz-adv-x="186" 
d="M28 574l90 141h108l-132 -141h-66z" />
    <glyph glyph-name="acute" unicode="&#x308;" horiz-adv-x="186" 
d="M28 574l90 141h108l-132 -141h-66z" />
    <glyph glyph-name="uni00B5" unicode="&#xb5;" horiz-adv-x="389" 
d="M347 507v-507h-102v49h-2q-7 -14 -15.5 -24.5t-16.5 -17.5q-16 -13 -34 -13q-21 0 -31 10h-2v-209h-102v712h102v-351q0 -28 13 -44t37 -16q29 0 40 18t11 52v341h102z" />
    <glyph glyph-name="paragraph" unicode="&#xb6;" horiz-adv-x="444" 
d="M182 -205v539q-33 0 -64 14.5t-55 39.5q-25 25 -40 59t-15 73q0 49 16 85t45 60t68.5 35.5t88.5 11.5h172v-917h-72v866h-72v-866h-72z" />
    <glyph glyph-name="periodcentered" unicode="&#xb7;" horiz-adv-x="186" 
d="M29 298q0 26 19 45t45 19t45 -19t19 -45t-19 -45t-45 -19t-45 19t-19 45z" />
    <glyph glyph-name="cedilla" unicode="&#xb8;" horiz-adv-x="186" 
d="M20 -86l65 86h46l-46 -60q8 1 15.5 1.5t15.5 0.5q25 0 41 -7t26 -18q10 -12 14 -25t4 -25q0 -24 -11.5 -41.5t-29.5 -28.5t-39.5 -16t-42.5 -5q-29 0 -54 7t-39 12l17 42q16 -6 32 -10.5t33 -4.5q8 0 17.5 1.5t17.5 6.5q19 10 19 33q0 17 -14 27.5t-31 10.5q-22 0 -39 -7
z" />
    <glyph glyph-name="one.superior" unicode="&#xb9;" horiz-adv-x="242" 
d="M93 287v353l-66 -43v72l66 43h80v-425h-80z" />
    <glyph glyph-name="ordmasculine" unicode="&#xba;" horiz-adv-x="240" 
d="M18 619q0 43 27 71t75 28t75 -28t27 -71v-114q0 -43 -27 -71t-75 -28t-75 28t-27 71v114zM90 506q0 -34 30 -34t30 34v111q0 35 -30 35t-30 -35v-111z" />
    <glyph glyph-name="guillemotright" unicode="&#xbb;" horiz-adv-x="426" 
d="M213 75v102l101 100l-101 100v102l203 -202zM28 75v102l101 100l-101 100v102l203 -202z" />
    <glyph glyph-name="onequarter" unicode="&#xbc;" horiz-adv-x="555" 
d="M18 -17l437 746h60l-437 -746h-60zM77 287v353l-66 -43v72l66 43h80v-425h-80zM434 0v62h-143v62l98 303h80l-94 -299h59v115h80v-115h30v-66h-30v-62h-80z" />
    <glyph glyph-name="onehalf" unicode="&#xbd;" horiz-adv-x="555" 
d="M18 -17l437 746h60l-437 -746h-60zM77 287v353l-66 -43v72l66 43h80v-425h-80zM322 0v54l130 212q5 9 8.5 18.5t3.5 20.5v23q0 15 -10 23t-21 8q-13 0 -22 -8t-9 -23v-31h-80v36q0 42 32 70t80 28q22 0 42 -7t35 -19t24 -28.5t9 -36.5v-33q0 -26 -6 -42t-17 -33l-95 -160
h118v-72h-222z" />
    <glyph glyph-name="threequarters" unicode="&#xbe;" horiz-adv-x="555" 
d="M37 -17l437 746h60l-437 -746h-60zM100 540q29 0 39.5 6.5t11.5 27.5v42q0 13 -8 21.5t-22 8.5q-16 0 -23 -10.5t-7 -19.5v-26h-80v32q0 42 30.5 69t81.5 27q28 0 48 -8.5t34 -22.5q14 -15 20 -33t6 -36v-41q0 -22 -7 -38.5t-34 -30.5q24 -14 32.5 -31t8.5 -42v-51
q0 -18 -5.5 -36.5t-19.5 -32.5t-35 -23t-50 -9q-20 0 -40 5t-35 16q-16 11 -25.5 29t-9.5 44v34h80v-23q0 -15 8 -24t22 -9q13 0 21.5 9.5t8.5 20.5v52q0 23 -10 30t-41 7v66zM434 0v62h-143v62l98 303h80l-94 -299h59v115h80v-115h30v-66h-30v-62h-80z" />
    <glyph glyph-name="questiondown" unicode="&#xbf;" 
d="M338 0v-59q0 -32 -12 -59.5t-33 -47.5q-21 -21 -49 -33t-60 -12q-37 0 -67.5 15t-50.5 42q-20 26 -27 52q-7 25 -7 70q0 25 0.5 43t2.5 31t5 22.5t8 17.5l69 118q7 12 12 24.5t5 26.5v80h102v-93q0 -22 -7 -42t-18 -39l-64 -104q-8 -13 -10.5 -28t-2.5 -30v-53
q0 -21 14.5 -36t35.5 -15q18 0 35 13t17 38v58h102zM236 507v-102h-102v102h102z" />
    <glyph glyph-name="Agrave" unicode="&#xc0;" horiz-adv-x="407" 
d="M254 249l-50 258h-2l-50 -258h102zM2 0l159 712h85l159 -712h-102l-30 153h-139l-30 -153h-102zM179 885l90 -141h-66l-132 141h108z" />
    <glyph glyph-name="Aacute" unicode="&#xc1;" horiz-adv-x="407" 
d="M254 249l-50 258h-2l-50 -258h102zM2 0l159 712h85l159 -712h-102l-30 153h-139l-30 -153h-102zM139 744l90 141h108l-132 -141h-66z" />
    <glyph glyph-name="Acircumflex" unicode="&#xc2;" horiz-adv-x="407" 
d="M254 249l-50 258h-2l-50 -258h102zM2 0l159 712h85l159 -712h-102l-30 153h-139l-30 -153h-102zM59 744l98 141h94l98 -141h-78l-67 95l-67 -95h-78z" />
    <glyph glyph-name="Atilde" unicode="&#xc3;" horiz-adv-x="407" 
d="M254 249l-50 258h-2l-50 -258h102zM2 0l159 712h85l159 -712h-102l-30 153h-139l-30 -153h-102zM374 869q-5 -23 -12 -43t-19 -35t-29 -24t-41 -9q-12 0 -32.5 6t-42.5 14q-11 4 -21 7t-20 7q-20 6 -28 6q-21 0 -32 -12.5t-12 -32.5h-51q8 49 31 78q12 15 29 24t41 9
q12 0 32.5 -6t42.5 -14t41.5 -14t27.5 -6q21 0 32 12.5t12 32.5h51z" />
    <glyph glyph-name="Adieresis" unicode="&#xc4;" horiz-adv-x="407" 
d="M254 249l-50 258h-2l-50 -258h102zM2 0l159 712h85l159 -712h-102l-30 153h-139l-30 -153h-102zM78 756v102h90v-102h-90zM240 756v102h90v-102h-90z" />
    <glyph glyph-name="Aring" unicode="&#xc5;" horiz-adv-x="407" 
d="M254 249l-50 258h-2l-50 -258h102zM2 0l159 712h85l159 -712h-102l-30 153h-139l-30 -153h-102zM102 835q0 42 30 72t72 30t72 -30t30 -72t-30 -72t-72 -30t-72 30t-30 72zM143 835q0 -26 17.5 -43.5t43.5 -17.5t43.5 17.5t17.5 43.5t-17.5 43.5t-43.5 17.5t-43.5 -17.5
t-17.5 -43.5z" />
    <glyph glyph-name="AE" unicode="&#xc6;" horiz-adv-x="611" 
d="M2 0l202 712h389v-96h-202v-209h176v-96h-176v-209h202v-102h-304v153h-140l-39 -153h-108zM289 249v367h-24l-92 -367h116z" />
    <glyph glyph-name="Ccedilla" unicode="&#xc7;" horiz-adv-x="407" 
d="M131 -86l61 80q-27 2 -54 12t-48 30q-22 20 -35 50.5t-13 75.5v392q0 35 12 65t34 52t52.5 34.5t67.5 12.5q72 0 117 -47q22 -23 34.5 -54.5t12.5 -68.5v-40h-102v34q0 30 -17 52t-46 22q-38 0 -50.5 -23.5t-12.5 -59.5v-364q0 -31 13.5 -52t48.5 -21q10 0 21.5 3.5
t21.5 11.5q9 8 15 22t6 35v35h102v-44q0 -29 -10 -56t-27 -49q-18 -22 -42.5 -37t-53.5 -21l-43 -56q8 1 15.5 1.5t15.5 0.5q25 0 41 -7t26 -18q10 -12 14 -25t4 -25q0 -24 -11.5 -41.5t-29.5 -28.5t-39.5 -16t-42.5 -5q-29 0 -54 7t-39 12l17 42q16 -6 32 -10.5t33 -4.5
q8 0 17.5 1.5t17.5 6.5q19 10 19 33q0 17 -14 27.5t-31 10.5q-22 0 -39 -7z" />
    <glyph glyph-name="Egrave" unicode="&#xc8;" 
d="M48 0v712h304v-96h-202v-209h176v-96h-176v-209h202v-102h-304zM170 885l90 -141h-66l-132 141h108z" />
    <glyph glyph-name="Eacute" unicode="&#xc9;" 
d="M48 0v712h304v-96h-202v-209h176v-96h-176v-209h202v-102h-304zM130 744l90 141h108l-132 -141h-66z" />
    <glyph glyph-name="Ecircumflex" unicode="&#xca;" 
d="M48 0v712h304v-96h-202v-209h176v-96h-176v-209h202v-102h-304zM50 744l98 141h94l98 -141h-78l-67 95l-67 -95h-78z" />
    <glyph glyph-name="Edieresis" unicode="&#xcb;" 
d="M48 0v712h304v-96h-202v-209h176v-96h-176v-209h202v-102h-304zM69 756v102h90v-102h-90zM231 756v102h90v-102h-90z" />
    <glyph glyph-name="Igrave" unicode="&#xcc;" horiz-adv-x="204" 
d="M51 0v712h102v-712h-102zM77 885l90 -141h-66l-132 141h108z" />
    <glyph glyph-name="Iacute" unicode="&#xcd;" horiz-adv-x="204" 
d="M51 0v712h102v-712h-102zM37 744l90 141h108l-132 -141h-66z" />
    <glyph glyph-name="Icircumflex" unicode="&#xce;" horiz-adv-x="204" 
d="M51 0v712h102v-712h-102zM-43 744l98 141h94l98 -141h-78l-67 95l-67 -95h-78z" />
    <glyph glyph-name="Idieresis" unicode="&#xcf;" horiz-adv-x="204" 
d="M51 0v712h102v-712h-102zM-24 756v102h90v-102h-90zM138 756v102h90v-102h-90z" />
    <glyph glyph-name="Eth" unicode="&#xd0;" horiz-adv-x="426" 
d="M150 616v-200h70v-66h-70v-254h47q43 0 61 21.5t18 67.5v343q0 42 -17 65t-62 23h-47zM48 0v350h-48v66h48v296h151q88 0 133.5 -48t45.5 -136v-333q0 -100 -48.5 -147.5t-139.5 -47.5h-142z" />
    <glyph glyph-name="Ntilde" unicode="&#xd1;" horiz-adv-x="444" 
d="M44 0v712h98l154 -429h2v429h102v-712h-96l-156 428h-2v-428h-102zM392 869q-5 -23 -12 -43t-19 -35t-29 -24t-41 -9q-12 0 -32.5 6t-42.5 14q-11 4 -21 7t-20 7q-20 6 -28 6q-21 0 -32 -12.5t-12 -32.5h-51q8 49 31 78q12 15 29 24t41 9q12 0 32.5 -6t42.5 -14t41.5 -14
t27.5 -6q21 0 32 12.5t12 32.5h51z" />
    <glyph glyph-name="Ograve" unicode="&#xd2;" horiz-adv-x="426" 
d="M42 544q0 43 15 76t40 55q24 21 54.5 32t61.5 11t61.5 -11t55.5 -32q24 -22 39 -55t15 -76v-376q0 -45 -15 -77t-39 -53q-25 -22 -55.5 -33t-61.5 -11t-61.5 11t-54.5 33q-25 21 -40 53t-15 77v376zM144 168q0 -37 20.5 -54.5t48.5 -17.5t48.5 17.5t20.5 54.5v376
q0 37 -20.5 54.5t-48.5 17.5t-48.5 -17.5t-20.5 -54.5v-376zM188 885l90 -141h-66l-132 141h108z" />
    <glyph glyph-name="Oacute" unicode="&#xd3;" horiz-adv-x="426" 
d="M42 544q0 43 15 76t40 55q24 21 54.5 32t61.5 11t61.5 -11t55.5 -32q24 -22 39 -55t15 -76v-376q0 -45 -15 -77t-39 -53q-25 -22 -55.5 -33t-61.5 -11t-61.5 11t-54.5 33q-25 21 -40 53t-15 77v376zM144 168q0 -37 20.5 -54.5t48.5 -17.5t48.5 17.5t20.5 54.5v376
q0 37 -20.5 54.5t-48.5 17.5t-48.5 -17.5t-20.5 -54.5v-376zM148 744l90 141h108l-132 -141h-66z" />
    <glyph glyph-name="Ocircumflex" unicode="&#xd4;" horiz-adv-x="426" 
d="M42 544q0 43 15 76t40 55q24 21 54.5 32t61.5 11t61.5 -11t55.5 -32q24 -22 39 -55t15 -76v-376q0 -45 -15 -77t-39 -53q-25 -22 -55.5 -33t-61.5 -11t-61.5 11t-54.5 33q-25 21 -40 53t-15 77v376zM144 168q0 -37 20.5 -54.5t48.5 -17.5t48.5 17.5t20.5 54.5v376
q0 37 -20.5 54.5t-48.5 17.5t-48.5 -17.5t-20.5 -54.5v-376zM68 744l98 141h94l98 -141h-78l-67 95l-67 -95h-78z" />
    <glyph glyph-name="Otilde" unicode="&#xd5;" horiz-adv-x="426" 
d="M42 544q0 43 15 76t40 55q24 21 54.5 32t61.5 11t61.5 -11t55.5 -32q24 -22 39 -55t15 -76v-376q0 -45 -15 -77t-39 -53q-25 -22 -55.5 -33t-61.5 -11t-61.5 11t-54.5 33q-25 21 -40 53t-15 77v376zM144 168q0 -37 20.5 -54.5t48.5 -17.5t48.5 17.5t20.5 54.5v376
q0 37 -20.5 54.5t-48.5 17.5t-48.5 -17.5t-20.5 -54.5v-376zM383 869q-5 -23 -12 -43t-19 -35t-29 -24t-41 -9q-12 0 -32.5 6t-42.5 14q-11 4 -21 7t-20 7q-20 6 -28 6q-21 0 -32 -12.5t-12 -32.5h-51q8 49 31 78q12 15 29 24t41 9q12 0 32.5 -6t42.5 -14t41.5 -14t27.5 -6
q21 0 32 12.5t12 32.5h51z" />
    <glyph glyph-name="Odieresis" unicode="&#xd6;" horiz-adv-x="426" 
d="M42 544q0 43 15 76t40 55q24 21 54.5 32t61.5 11t61.5 -11t55.5 -32q24 -22 39 -55t15 -76v-376q0 -45 -15 -77t-39 -53q-25 -22 -55.5 -33t-61.5 -11t-61.5 11t-54.5 33q-25 21 -40 53t-15 77v376zM144 168q0 -37 20.5 -54.5t48.5 -17.5t48.5 17.5t20.5 54.5v376
q0 37 -20.5 54.5t-48.5 17.5t-48.5 -17.5t-20.5 -54.5v-376zM87 756v102h90v-102h-90zM249 756v102h90v-102h-90z" />
    <glyph glyph-name="multiply" unicode="&#xd7;" horiz-adv-x="600" 
d="M67 77l177 176l-177 177l57 56l176 -176l177 176l56 -56l-176 -177l176 -176l-56 -57l-177 177l-176 -177z" />
    <glyph glyph-name="Oslash" unicode="&#xd8;" horiz-adv-x="426" 
d="M10 -16l50 103q-18 34 -18 81v376q0 43 15 76t40 55q24 21 54.5 32t61.5 11q34 0 66.5 -13t58.5 -39l40 84l38 -22l-50 -103q8 -16 13 -36.5t5 -44.5v-376q0 -45 -15 -77t-39 -53q-25 -22 -55.5 -33t-61.5 -11q-35 0 -68 13t-57 39l-40 -84zM146 262l136 287
q-2 35 -22.5 51t-46.5 16q-28 0 -48.5 -17.5t-20.5 -54.5v-282h2zM280 449l-136 -286q2 -34 22 -50.5t47 -16.5q28 0 48.5 17.5t20.5 54.5v281h-2z" />
    <glyph glyph-name="Ugrave" unicode="&#xd9;" horiz-adv-x="426" 
d="M378 712v-552q0 -35 -12.5 -64.5t-35.5 -52.5t-53 -36t-64 -13t-63.5 13t-52.5 36t-36 52.5t-13 64.5v552h102v-542q0 -38 18 -56t45 -18t45 18t18 56v542h102zM188 885l90 -141h-66l-132 141h108z" />
    <glyph glyph-name="Uacute" unicode="&#xda;" horiz-adv-x="426" 
d="M378 712v-552q0 -35 -12.5 -64.5t-35.5 -52.5t-53 -36t-64 -13t-63.5 13t-52.5 36t-36 52.5t-13 64.5v552h102v-542q0 -38 18 -56t45 -18t45 18t18 56v542h102zM148 744l90 141h108l-132 -141h-66z" />
    <glyph glyph-name="Ucircumflex" unicode="&#xdb;" horiz-adv-x="426" 
d="M378 712v-552q0 -35 -12.5 -64.5t-35.5 -52.5t-53 -36t-64 -13t-63.5 13t-52.5 36t-36 52.5t-13 64.5v552h102v-542q0 -38 18 -56t45 -18t45 18t18 56v542h102zM68 744l98 141h94l98 -141h-78l-67 95l-67 -95h-78z" />
    <glyph glyph-name="Udieresis" unicode="&#xdc;" horiz-adv-x="426" 
d="M378 712v-552q0 -35 -12.5 -64.5t-35.5 -52.5t-53 -36t-64 -13t-63.5 13t-52.5 36t-36 52.5t-13 64.5v552h102v-542q0 -38 18 -56t45 -18t45 18t18 56v542h102zM87 756v102h90v-102h-90zM249 756v102h90v-102h-90z" />
    <glyph glyph-name="Yacute" unicode="&#xdd;" horiz-adv-x="388" 
d="M143 0v301l-140 411h108l82 -283h2l82 283h108l-140 -411v-301h-102zM129 744l90 141h108l-132 -141h-66z" />
    <glyph glyph-name="Thorn" unicode="&#xde;" horiz-adv-x="407" 
d="M48 0v712h102v-124h51q42 0 74 -11t58 -39t36 -65.5t10 -101.5q0 -48 -5.5 -81t-23.5 -62q-21 -35 -56 -54.5t-92 -19.5h-52v-154h-102zM150 492v-242h49q31 0 48 9t25 25q8 15 9.5 37t1.5 49q0 25 -1 47.5t-9 39.5t-24 26t-46 9h-53z" />
    <glyph glyph-name="germandbls" unicode="&#xdf;" horiz-adv-x="389" 
d="M42 0v552q0 33 9 63t28 53q18 23 46.5 36.5t67.5 13.5q43 0 72.5 -14t47.5 -38q18 -25 26 -58.5t8 -71.5q0 -27 -2.5 -45t-8.5 -32q-7 -14 -18.5 -24.5t-29.5 -22.5q29 -16 44 -40t15 -62v-176q0 -48 -12.5 -75t-32.5 -41q-20 -15 -46.5 -19.5t-54.5 -4.5v96q22 0 33 9.5
t11 41.5v190q0 20 -11.5 26.5t-32.5 6.5v90q23 0 33.5 7.5t10.5 31.5v80q0 21 -9.5 35t-38.5 14t-41 -18.5t-12 -69.5v-534h-102z" />
    <glyph glyph-name="agrave" unicode="&#xe0;" 
d="M235 0v52h-2q-20 -28 -40.5 -43t-57.5 -15q-18 0 -36.5 5.5t-35.5 20.5q-17 14 -27.5 40.5t-10.5 68.5q0 43 7 75.5t26 54.5q18 21 49 31.5t79 10.5h11t11 -1t12 -1t15 -1v53q0 26 -11 43t-40 17q-20 0 -36.5 -13t-21.5 -38h-99q4 68 46 110q20 20 48 31.5t63 11.5
q32 0 60 -10t49 -30q20 -20 32 -50t12 -70v-353h-102zM235 218q-17 3 -28 3q-33 0 -56.5 -15.5t-23.5 -56.5q0 -29 14 -47t39 -18q26 0 40.5 17t14.5 48v69zM160 715l90 -141h-66l-132 141h108z" />
    <glyph glyph-name="aacute" unicode="&#xe1;" 
d="M235 0v52h-2q-20 -28 -40.5 -43t-57.5 -15q-18 0 -36.5 5.5t-35.5 20.5q-17 14 -27.5 40.5t-10.5 68.5q0 43 7 75.5t26 54.5q18 21 49 31.5t79 10.5h11t11 -1t12 -1t15 -1v53q0 26 -11 43t-40 17q-20 0 -36.5 -13t-21.5 -38h-99q4 68 46 110q20 20 48 31.5t63 11.5
q32 0 60 -10t49 -30q20 -20 32 -50t12 -70v-353h-102zM235 218q-17 3 -28 3q-33 0 -56.5 -15.5t-23.5 -56.5q0 -29 14 -47t39 -18q26 0 40.5 17t14.5 48v69zM120 574l90 141h108l-132 -141h-66z" />
    <glyph glyph-name="acircumflex" unicode="&#xe2;" 
d="M235 0v52h-2q-20 -28 -40.5 -43t-57.5 -15q-18 0 -36.5 5.5t-35.5 20.5q-17 14 -27.5 40.5t-10.5 68.5q0 43 7 75.5t26 54.5q18 21 49 31.5t79 10.5h11t11 -1t12 -1t15 -1v53q0 26 -11 43t-40 17q-20 0 -36.5 -13t-21.5 -38h-99q4 68 46 110q20 20 48 31.5t63 11.5
q32 0 60 -10t49 -30q20 -20 32 -50t12 -70v-353h-102zM235 218q-17 3 -28 3q-33 0 -56.5 -15.5t-23.5 -56.5q0 -29 14 -47t39 -18q26 0 40.5 17t14.5 48v69zM40 574l98 141h94l98 -141h-78l-67 95l-67 -95h-78z" />
    <glyph glyph-name="atilde" unicode="&#xe3;" 
d="M235 0v52h-2q-20 -28 -40.5 -43t-57.5 -15q-18 0 -36.5 5.5t-35.5 20.5q-17 14 -27.5 40.5t-10.5 68.5q0 43 7 75.5t26 54.5q18 21 49 31.5t79 10.5h11t11 -1t12 -1t15 -1v53q0 26 -11 43t-40 17q-20 0 -36.5 -13t-21.5 -38h-99q4 68 46 110q20 20 48 31.5t63 11.5
q32 0 60 -10t49 -30q20 -20 32 -50t12 -70v-353h-102zM235 218q-17 3 -28 3q-33 0 -56.5 -15.5t-23.5 -56.5q0 -29 14 -47t39 -18q26 0 40.5 17t14.5 48v69zM355 699q-5 -23 -12 -43t-19 -35t-29 -24t-41 -9q-12 0 -32.5 6t-42.5 14q-11 4 -21 7t-20 7q-20 6 -28 6
q-21 0 -32 -12.5t-12 -32.5h-51q8 49 31 78q12 15 29 24t41 9q12 0 32.5 -6t42.5 -14t41.5 -14t27.5 -6q21 0 32 12.5t12 32.5h51z" />
    <glyph glyph-name="adieresis" unicode="&#xe4;" 
d="M235 0v52h-2q-20 -28 -40.5 -43t-57.5 -15q-18 0 -36.5 5.5t-35.5 20.5q-17 14 -27.5 40.5t-10.5 68.5q0 43 7 75.5t26 54.5q18 21 49 31.5t79 10.5h11t11 -1t12 -1t15 -1v53q0 26 -11 43t-40 17q-20 0 -36.5 -13t-21.5 -38h-99q4 68 46 110q20 20 48 31.5t63 11.5
q32 0 60 -10t49 -30q20 -20 32 -50t12 -70v-353h-102zM235 218q-17 3 -28 3q-33 0 -56.5 -15.5t-23.5 -56.5q0 -29 14 -47t39 -18q26 0 40.5 17t14.5 48v69zM59 586v102h90v-102h-90zM221 586v102h90v-102h-90z" />
    <glyph glyph-name="aring" unicode="&#xe5;" 
d="M235 0v52h-2q-20 -28 -40.5 -43t-57.5 -15q-18 0 -36.5 5.5t-35.5 20.5q-17 14 -27.5 40.5t-10.5 68.5q0 43 7 75.5t26 54.5q18 21 49 31.5t79 10.5h11t11 -1t12 -1t15 -1v53q0 26 -11 43t-40 17q-20 0 -36.5 -13t-21.5 -38h-99q4 68 46 110q20 20 48 31.5t63 11.5
q32 0 60 -10t49 -30q20 -20 32 -50t12 -70v-353h-102zM235 218q-17 3 -28 3q-33 0 -56.5 -15.5t-23.5 -56.5q0 -29 14 -47t39 -18q26 0 40.5 17t14.5 48v69zM83 660q0 42 30 72t72 30t72 -30t30 -72t-30 -72t-72 -30t-72 30t-30 72zM124 660q0 -26 17.5 -43.5t43.5 -17.5
t43.5 17.5t17.5 43.5t-17.5 43.5t-43.5 17.5t-43.5 -17.5t-17.5 -43.5z" />
    <glyph glyph-name="ae" unicode="&#xe6;" horiz-adv-x="572" 
d="M337 295h100v58q0 29 -13.5 43.5t-36.5 14.5t-36.5 -14.5t-13.5 -43.5v-58zM539 215h-202v-69q0 -24 13.5 -37t36.5 -13q29 0 38.5 17t11.5 34h102q0 -67 -42 -109q-21 -20 -49 -32t-61 -12q-51 -1 -84.5 21t-48.5 51q-18 -36 -49.5 -54t-69.5 -18q-18 0 -36.5 5.5
t-35.5 20.5q-17 14 -27.5 40.5t-10.5 68.5q0 43 7 75.5t26 54.5q18 21 49 31.5t79 10.5h11t11 -1t12 -1t15 -1v53q0 26 -11 43t-40 17q-20 0 -36.5 -13t-21.5 -38h-99q5 69 46 110q20 20 48 31.5t63 11.5q32 0 56.5 -9.5t44.5 -26.5q19 17 46 26.5t56 9.5q35 0 63.5 -12
t48.5 -33q40 -45 40 -113v-140zM235 218q-17 3 -28 3q-33 0 -56.5 -15.5t-23.5 -56.5q0 -29 14 -47t39 -18q26 0 40.5 17t14.5 48v69z" />
    <glyph glyph-name="ccedilla" unicode="&#xe7;" 
d="M112 -86l63 82q-38 5 -65.5 24t-42.5 47q-11 20 -15 46t-4 57v167q0 31 4 57t15 46q18 33 51.5 53t81.5 20q35 0 63.5 -12t48.5 -33q40 -45 40 -117h-102q0 31 -13.5 45.5t-36.5 14.5t-36.5 -14.5t-13.5 -43.5v-207q0 -24 13.5 -37t36.5 -13q29 0 38.5 17t11.5 34h102
q0 -67 -41 -108q-36 -37 -91 -43l-43 -56q8 1 15.5 1.5t15.5 0.5q25 0 41 -7t26 -18q10 -12 14 -25t4 -25q0 -24 -11.5 -41.5t-29.5 -28.5t-39.5 -16t-42.5 -5q-29 0 -54 7t-39 12l17 42q16 -6 32 -10.5t33 -4.5q8 0 17.5 1.5t17.5 6.5q19 10 19 33q0 17 -14 27.5t-31 10.5
q-22 0 -39 -7z" />
    <glyph glyph-name="egrave" unicode="&#xe8;" 
d="M337 215h-202v-69q0 -24 13.5 -37t36.5 -13q29 0 38.5 17t11.5 34h102q0 -67 -41 -108q-20 -21 -48 -33t-63 -12q-48 0 -81.5 20t-51.5 53q-11 20 -15 46t-4 57v167q0 31 4 57t15 46q18 33 51.5 53t81.5 20q35 0 63.5 -12t48.5 -33q40 -45 40 -113v-140zM135 295h100v58
q0 29 -13.5 43.5t-36.5 14.5t-36.5 -14.5t-13.5 -43.5v-58zM160 715l90 -141h-66l-132 141h108z" />
    <glyph glyph-name="eacute" unicode="&#xe9;" 
d="M337 215h-202v-69q0 -24 13.5 -37t36.5 -13q29 0 38.5 17t11.5 34h102q0 -67 -41 -108q-20 -21 -48 -33t-63 -12q-48 0 -81.5 20t-51.5 53q-11 20 -15 46t-4 57v167q0 31 4 57t15 46q18 33 51.5 53t81.5 20q35 0 63.5 -12t48.5 -33q40 -45 40 -113v-140zM135 295h100v58
q0 29 -13.5 43.5t-36.5 14.5t-36.5 -14.5t-13.5 -43.5v-58zM120 574l90 141h108l-132 -141h-66z" />
    <glyph glyph-name="ecircumflex" unicode="&#xea;" 
d="M337 215h-202v-69q0 -24 13.5 -37t36.5 -13q29 0 38.5 17t11.5 34h102q0 -67 -41 -108q-20 -21 -48 -33t-63 -12q-48 0 -81.5 20t-51.5 53q-11 20 -15 46t-4 57v167q0 31 4 57t15 46q18 33 51.5 53t81.5 20q35 0 63.5 -12t48.5 -33q40 -45 40 -113v-140zM135 295h100v58
q0 29 -13.5 43.5t-36.5 14.5t-36.5 -14.5t-13.5 -43.5v-58zM40 574l98 141h94l98 -141h-78l-67 95l-67 -95h-78z" />
    <glyph glyph-name="edieresis" unicode="&#xeb;" 
d="M337 215h-202v-69q0 -24 13.5 -37t36.5 -13q29 0 38.5 17t11.5 34h102q0 -67 -41 -108q-20 -21 -48 -33t-63 -12q-48 0 -81.5 20t-51.5 53q-11 20 -15 46t-4 57v167q0 31 4 57t15 46q18 33 51.5 53t81.5 20q35 0 63.5 -12t48.5 -33q40 -45 40 -113v-140zM135 295h100v58
q0 29 -13.5 43.5t-36.5 14.5t-36.5 -14.5t-13.5 -43.5v-58zM59 586v102h90v-102h-90zM221 586v102h90v-102h-90z" />
    <glyph glyph-name="igrave" unicode="&#xec;" horiz-adv-x="186" 
d="M42 0v507h102v-507h-102zM68 715l90 -141h-66l-132 141h108z" />
    <glyph glyph-name="iacute" unicode="&#xed;" horiz-adv-x="186" 
d="M42 0v507h102v-507h-102zM28 574l90 141h108l-132 -141h-66z" />
    <glyph glyph-name="icircumflex" unicode="&#xee;" horiz-adv-x="186" 
d="M42 0v507h102v-507h-102zM-52 574l98 141h94l98 -141h-78l-67 95l-67 -95h-78z" />
    <glyph glyph-name="idieresis" unicode="&#xef;" horiz-adv-x="186" 
d="M42 0v507h102v-507h-102zM-33 586v102h90v-102h-90zM129 586v102h90v-102h-90z" />
    <glyph glyph-name="eth" unicode="&#xf0;" 
d="M135 154q0 -29 13.5 -43.5t36.5 -14.5t36.5 14.5t13.5 43.5v199q0 29 -13.5 43.5t-36.5 14.5t-36.5 -14.5t-13.5 -43.5v-199zM86 608l69 32q-27 23 -77 43l83 44q47 -17 80 -47l68 32l28 -40l-63 -29q19 -25 31 -53.5t19 -59.5t10 -62t3 -60v-238q0 -31 -4 -57t-15 -46
q-18 -33 -51.5 -53t-81.5 -20t-81.5 20t-51.5 53q-11 20 -15 46t-4 57v167q0 31 4 57t15 46q18 33 51.5 53t81.5 20q14 0 27 -6.5t21 -16.5l2 2q-8 35 -19 62.5t-28 48.5l-74 -35z" />
    <glyph glyph-name="ntilde" unicode="&#xf1;" horiz-adv-x="389" 
d="M42 0v507h102v-49h2q16 24 38.5 39.5t57.5 15.5q19 0 38 -6.5t34 -21.5t24 -38.5t9 -57.5v-389h-102v351q0 28 -13 44t-37 16q-29 0 -40 -18t-11 -52v-341h-102zM365 699q-5 -23 -12 -43t-19 -35t-29 -24t-41 -9q-12 0 -32.5 6t-42.5 14q-11 4 -21 7t-20 7q-20 6 -28 6
q-21 0 -32 -12.5t-12 -32.5h-51q8 49 31 78q12 15 29 24t41 9q12 0 32.5 -6t42.5 -14t41.5 -14t27.5 -6q21 0 32 12.5t12 32.5h51z" />
    <glyph glyph-name="ograve" unicode="&#xf2;" 
d="M33 337q0 31 4 57t15 46q18 33 51.5 53t81.5 20t81.5 -20t51.5 -53q11 -20 15 -46t4 -57v-167q0 -31 -4 -57t-15 -46q-18 -33 -51.5 -53t-81.5 -20t-81.5 20t-51.5 53q-11 20 -15 46t-4 57v167zM135 154q0 -29 13.5 -43.5t36.5 -14.5t36.5 14.5t13.5 43.5v199
q0 29 -13.5 43.5t-36.5 14.5t-36.5 -14.5t-13.5 -43.5v-199zM160 715l90 -141h-66l-132 141h108z" />
    <glyph glyph-name="oacute" unicode="&#xf3;" 
d="M33 337q0 31 4 57t15 46q18 33 51.5 53t81.5 20t81.5 -20t51.5 -53q11 -20 15 -46t4 -57v-167q0 -31 -4 -57t-15 -46q-18 -33 -51.5 -53t-81.5 -20t-81.5 20t-51.5 53q-11 20 -15 46t-4 57v167zM135 154q0 -29 13.5 -43.5t36.5 -14.5t36.5 14.5t13.5 43.5v199
q0 29 -13.5 43.5t-36.5 14.5t-36.5 -14.5t-13.5 -43.5v-199zM120 574l90 141h108l-132 -141h-66z" />
    <glyph glyph-name="ocircumflex" unicode="&#xf4;" 
d="M33 337q0 31 4 57t15 46q18 33 51.5 53t81.5 20t81.5 -20t51.5 -53q11 -20 15 -46t4 -57v-167q0 -31 -4 -57t-15 -46q-18 -33 -51.5 -53t-81.5 -20t-81.5 20t-51.5 53q-11 20 -15 46t-4 57v167zM135 154q0 -29 13.5 -43.5t36.5 -14.5t36.5 14.5t13.5 43.5v199
q0 29 -13.5 43.5t-36.5 14.5t-36.5 -14.5t-13.5 -43.5v-199zM40 574l98 141h94l98 -141h-78l-67 95l-67 -95h-78z" />
    <glyph glyph-name="otilde" unicode="&#xf5;" 
d="M33 337q0 31 4 57t15 46q18 33 51.5 53t81.5 20t81.5 -20t51.5 -53q11 -20 15 -46t4 -57v-167q0 -31 -4 -57t-15 -46q-18 -33 -51.5 -53t-81.5 -20t-81.5 20t-51.5 53q-11 20 -15 46t-4 57v167zM135 154q0 -29 13.5 -43.5t36.5 -14.5t36.5 14.5t13.5 43.5v199
q0 29 -13.5 43.5t-36.5 14.5t-36.5 -14.5t-13.5 -43.5v-199zM355 699q-5 -23 -12 -43t-19 -35t-29 -24t-41 -9q-12 0 -32.5 6t-42.5 14q-11 4 -21 7t-20 7q-20 6 -28 6q-21 0 -32 -12.5t-12 -32.5h-51q8 49 31 78q12 15 29 24t41 9q12 0 32.5 -6t42.5 -14t41.5 -14t27.5 -6
q21 0 32 12.5t12 32.5h51z" />
    <glyph glyph-name="odieresis" unicode="&#xf6;" 
d="M33 337q0 31 4 57t15 46q18 33 51.5 53t81.5 20t81.5 -20t51.5 -53q11 -20 15 -46t4 -57v-167q0 -31 -4 -57t-15 -46q-18 -33 -51.5 -53t-81.5 -20t-81.5 20t-51.5 53q-11 20 -15 46t-4 57v167zM135 154q0 -29 13.5 -43.5t36.5 -14.5t36.5 14.5t13.5 43.5v199
q0 29 -13.5 43.5t-36.5 14.5t-36.5 -14.5t-13.5 -43.5v-199zM59 586v102h90v-102h-90zM221 586v102h90v-102h-90z" />
    <glyph glyph-name="divide" unicode="&#xf7;" horiz-adv-x="600" 
d="M47 213v80h506v-80h-506zM236 46q0 26 19 45t45 19t45 -19t19 -45t-19 -45t-45 -19t-45 19t-19 45zM236 460q0 26 19 45t45 19t45 -19t19 -45t-19 -45t-45 -19t-45 19t-19 45z" />
    <glyph glyph-name="oslash" unicode="&#xf8;" 
d="M137 209l95 163q-6 39 -47 39q-23 0 -36.5 -14.5t-13.5 -43.5v-144h2zM233 298l-95 -163q6 -39 47 -39q23 0 36.5 14.5t13.5 43.5v144h-2zM4 -12l49 83q-20 42 -20 87v191q0 36 10.5 66t30.5 52q20 21 48 33.5t63 12.5q65 0 106 -42l41 69l34 -21l-49 -83q20 -42 20 -87
v-191q0 -74 -40 -117q-20 -22 -48.5 -34.5t-63.5 -12.5q-66 0 -106 42l-41 -69z" />
    <glyph glyph-name="ugrave" unicode="&#xf9;" horiz-adv-x="389" 
d="M347 507v-507h-102v49h-2q-16 -24 -38.5 -39.5t-57.5 -15.5q-19 0 -38 6.5t-34 21.5t-24 38.5t-9 57.5v389h102v-351q0 -28 13 -44t37 -16q29 0 40 18t11 52v341h102zM170 715l90 -141h-66l-132 141h108z" />
    <glyph glyph-name="uacute" unicode="&#xfa;" horiz-adv-x="389" 
d="M347 507v-507h-102v49h-2q-16 -24 -38.5 -39.5t-57.5 -15.5q-19 0 -38 6.5t-34 21.5t-24 38.5t-9 57.5v389h102v-351q0 -28 13 -44t37 -16q29 0 40 18t11 52v341h102zM130 574l90 141h108l-132 -141h-66z" />
    <glyph glyph-name="ucircumflex" unicode="&#xfb;" horiz-adv-x="389" 
d="M347 507v-507h-102v49h-2q-16 -24 -38.5 -39.5t-57.5 -15.5q-19 0 -38 6.5t-34 21.5t-24 38.5t-9 57.5v389h102v-351q0 -28 13 -44t37 -16q29 0 40 18t11 52v341h102zM50 574l98 141h94l98 -141h-78l-67 95l-67 -95h-78z" />
    <glyph glyph-name="udieresis" unicode="&#xfc;" horiz-adv-x="389" 
d="M347 507v-507h-102v49h-2q-16 -24 -38.5 -39.5t-57.5 -15.5q-19 0 -38 6.5t-34 21.5t-24 38.5t-9 57.5v389h102v-351q0 -28 13 -44t37 -16q29 0 40 18t11 52v341h102zM69 586v102h90v-102h-90zM231 586v102h90v-102h-90z" />
    <glyph glyph-name="yacute" unicode="&#xfd;" horiz-adv-x="352" 
d="M-1 507h108l70 -316h2l69 316h105l-146 -595q-8 -34 -22.5 -56t-33.5 -36t-40.5 -19.5t-44.5 -5.5h-28v96h23q15 0 26 4t20 18q8 14 15 39.5t16 70.5zM111 574l90 141h108l-132 -141h-66z" />
    <glyph glyph-name="thorn" unicode="&#xfe;" horiz-adv-x="389" 
d="M42 -205v917h102v-251q19 22 39 37t58 15q63 0 89 -48q9 -17 13 -42t4 -67v-193q0 -56 -3 -81q-6 -50 -46 -75q-20 -13 -58 -13q-30 0 -53.5 13.5t-40.5 38.5h-2v-251h-102zM245 342q0 31 -12 50t-38 19q-23 0 -37 -17.5t-14 -45.5v-197q0 -24 14.5 -39.5t36.5 -15.5
q29 0 39.5 18t10.5 42v186z" />
    <glyph glyph-name="ydieresis" unicode="&#xff;" horiz-adv-x="352" 
d="M-1 507h108l70 -316h2l69 316h105l-146 -595q-8 -34 -22.5 -56t-33.5 -36t-40.5 -19.5t-44.5 -5.5h-28v96h23q15 0 26 4t20 18q8 14 15 39.5t16 70.5zM50 586v102h90v-102h-90zM212 586v102h90v-102h-90z" />
    <glyph glyph-name="Amacron" unicode="&#x100;" horiz-adv-x="407" 
d="M254 249l-50 258h-2l-50 -258h102zM2 0l159 712h85l159 -712h-102l-30 153h-139l-30 -153h-102zM66 777v60h274v-60h-274z" />
    <glyph glyph-name="amacron" unicode="&#x101;" 
d="M235 0v52h-2q-20 -28 -40.5 -43t-57.5 -15q-18 0 -36.5 5.5t-35.5 20.5q-17 14 -27.5 40.5t-10.5 68.5q0 43 7 75.5t26 54.5q18 21 49 31.5t79 10.5h11t11 -1t12 -1t15 -1v53q0 26 -11 43t-40 17q-20 0 -36.5 -13t-21.5 -38h-99q4 68 46 110q20 20 48 31.5t63 11.5
q32 0 60 -10t49 -30q20 -20 32 -50t12 -70v-353h-102zM235 218q-17 3 -28 3q-33 0 -56.5 -15.5t-23.5 -56.5q0 -29 14 -47t39 -18q26 0 40.5 17t14.5 48v69zM48 607v60h274v-60h-274z" />
    <glyph glyph-name="Abreve" unicode="&#x102;" horiz-adv-x="407" 
d="M254 249l-50 258h-2l-50 -258h102zM2 0l159 712h85l159 -712h-102l-30 153h-139l-30 -153h-102zM357 885q-21 -136 -154 -136t-154 136h51q2 -14 7.5 -27.5t17.5 -24.5t31 -17.5t47 -6.5t47 6.5t31 17.5t17.5 24.5t7.5 27.5h51z" />
    <glyph glyph-name="abreve" unicode="&#x103;" 
d="M235 0v52h-2q-20 -28 -40.5 -43t-57.5 -15q-18 0 -36.5 5.5t-35.5 20.5q-17 14 -27.5 40.5t-10.5 68.5q0 43 7 75.5t26 54.5q18 21 49 31.5t79 10.5h11t11 -1t12 -1t15 -1v53q0 26 -11 43t-40 17q-20 0 -36.5 -13t-21.5 -38h-99q4 68 46 110q20 20 48 31.5t63 11.5
q32 0 60 -10t49 -30q20 -20 32 -50t12 -70v-353h-102zM235 218q-17 3 -28 3q-33 0 -56.5 -15.5t-23.5 -56.5q0 -29 14 -47t39 -18q26 0 40.5 17t14.5 48v69zM339 715q-21 -136 -154 -136t-154 136h51q2 -14 7.5 -27.5t17.5 -24.5t31 -17.5t47 -6.5t47 6.5t31 17.5t17.5 24.5
t7.5 27.5h51z" />
    <glyph glyph-name="Aogonek" unicode="&#x104;" horiz-adv-x="407" 
d="M405 -202q-15 -8 -39.5 -15t-57.5 -7q-42 0 -70.5 24.5t-28.5 66.5q0 24 7 43t20 35q13 15 29.5 28t36.5 27h1l-30 153h-139l-30 -153h-102l159 712h85l159 -712h-52q-30 -29 -47 -62t-17 -64q0 -24 14.5 -38t34.5 -14q17 0 29.5 3.5t23.5 9.5zM254 249l-50 258h-2
l-50 -258h102z" />
    <glyph glyph-name="aogonek" unicode="&#x105;" 
d="M235 0v52h-2q-20 -28 -40.5 -43t-57.5 -15q-18 0 -36.5 5.5t-35.5 20.5q-17 14 -27.5 40.5t-10.5 68.5q0 43 7 75.5t26 54.5q18 21 49 31.5t79 10.5h11t11 -1t12 -1t15 -1v53q0 26 -11 43t-40 17q-20 0 -36.5 -13t-21.5 -38h-99q4 68 46 110q20 20 48 31.5t63 11.5
q32 0 60 -10t49 -30q20 -20 32 -50t12 -70v-353h-102zM235 218q-17 3 -28 3q-33 0 -56.5 -15.5t-23.5 -56.5q0 -29 14 -47t39 -18q26 0 40.5 17t14.5 48v69zM337 -202q-15 -8 -39.5 -15t-57.5 -7q-42 0 -70.5 24.5t-28.5 66.5q0 24 7 43t20 35q13 15 29.5 28t36.5 27h51
q-30 -29 -47 -62t-17 -64q0 -24 14.5 -38t34.5 -14q17 0 29.5 3.5t23.5 9.5z" />
    <glyph glyph-name="Cacute" unicode="&#x106;" horiz-adv-x="407" 
d="M372 203v-44q0 -33 -12.5 -62.5t-34.5 -52.5t-51.5 -36.5t-63.5 -13.5q-29 0 -59 8t-54 28t-39.5 51.5t-15.5 80.5v392q0 35 12 65t34 52t52.5 34.5t67.5 12.5q72 0 117 -47q22 -23 34.5 -54.5t12.5 -68.5v-40h-102v34q0 30 -17 52t-46 22q-38 0 -50.5 -23.5t-12.5 -59.5
v-364q0 -31 13.5 -52t48.5 -21q10 0 21.5 3.5t21.5 11.5q9 8 15 22t6 35v35h102zM138 744l90 141h108l-132 -141h-66z" />
    <glyph glyph-name="cacute" unicode="&#x107;" 
d="M150 146q0 -24 13.5 -37t36.5 -13q29 0 38.5 17t11.5 34h102q0 -67 -41 -108q-20 -21 -48 -33t-63 -12q-48 0 -81.5 20t-51.5 53q-11 20 -15 46t-4 57v167q0 31 4 57t15 46q18 33 51.5 53t81.5 20q35 0 63.5 -12t48.5 -33q40 -45 40 -117h-102q0 31 -13.5 45.5
t-36.5 14.5t-36.5 -14.5t-13.5 -43.5v-207zM120 574l90 141h108l-132 -141h-66z" />
    <glyph glyph-name="Ccircumflex" unicode="&#x108;" horiz-adv-x="407" 
d="M372 203v-44q0 -33 -12.5 -62.5t-34.5 -52.5t-51.5 -36.5t-63.5 -13.5q-29 0 -59 8t-54 28t-39.5 51.5t-15.5 80.5v392q0 35 12 65t34 52t52.5 34.5t67.5 12.5q72 0 117 -47q22 -23 34.5 -54.5t12.5 -68.5v-40h-102v34q0 30 -17 52t-46 22q-38 0 -50.5 -23.5t-12.5 -59.5
v-364q0 -31 13.5 -52t48.5 -21q10 0 21.5 3.5t21.5 11.5q9 8 15 22t6 35v35h102zM58 744l98 141h94l98 -141h-78l-67 95l-67 -95h-78z" />
    <glyph glyph-name="ccircumflex" unicode="&#x109;" 
d="M150 146q0 -24 13.5 -37t36.5 -13q29 0 38.5 17t11.5 34h102q0 -67 -41 -108q-20 -21 -48 -33t-63 -12q-48 0 -81.5 20t-51.5 53q-11 20 -15 46t-4 57v167q0 31 4 57t15 46q18 33 51.5 53t81.5 20q35 0 63.5 -12t48.5 -33q40 -45 40 -117h-102q0 31 -13.5 45.5
t-36.5 14.5t-36.5 -14.5t-13.5 -43.5v-207zM40 574l98 141h94l98 -141h-78l-67 95l-67 -95h-78z" />
    <glyph glyph-name="Cdotaccent" unicode="&#x10a;" horiz-adv-x="407" 
d="M372 203v-44q0 -33 -12.5 -62.5t-34.5 -52.5t-51.5 -36.5t-63.5 -13.5q-29 0 -59 8t-54 28t-39.5 51.5t-15.5 80.5v392q0 35 12 65t34 52t52.5 34.5t67.5 12.5q72 0 117 -47q22 -23 34.5 -54.5t12.5 -68.5v-40h-102v34q0 30 -17 52t-46 22q-38 0 -50.5 -23.5t-12.5 -59.5
v-364q0 -31 13.5 -52t48.5 -21q10 0 21.5 3.5t21.5 11.5q9 8 15 22t6 35v35h102zM158 756v102h90v-102h-90z" />
    <glyph glyph-name="cdotaccent" unicode="&#x10b;" 
d="M150 146q0 -24 13.5 -37t36.5 -13q29 0 38.5 17t11.5 34h102q0 -67 -41 -108q-20 -21 -48 -33t-63 -12q-48 0 -81.5 20t-51.5 53q-11 20 -15 46t-4 57v167q0 31 4 57t15 46q18 33 51.5 53t81.5 20q35 0 63.5 -12t48.5 -33q40 -45 40 -117h-102q0 31 -13.5 45.5
t-36.5 14.5t-36.5 -14.5t-13.5 -43.5v-207zM140 586v102h90v-102h-90z" />
    <glyph glyph-name="Ccaron" unicode="&#x10c;" horiz-adv-x="407" 
d="M372 203v-44q0 -33 -12.5 -62.5t-34.5 -52.5t-51.5 -36.5t-63.5 -13.5q-29 0 -59 8t-54 28t-39.5 51.5t-15.5 80.5v392q0 35 12 65t34 52t52.5 34.5t67.5 12.5q72 0 117 -47q22 -23 34.5 -54.5t12.5 -68.5v-40h-102v34q0 30 -17 52t-46 22q-38 0 -50.5 -23.5t-12.5 -59.5
v-364q0 -31 13.5 -52t48.5 -21q10 0 21.5 3.5t21.5 11.5q9 8 15 22t6 35v35h102zM348 885l-98 -141h-94l-98 141h78l67 -95l67 95h78z" />
    <glyph glyph-name="ccaron" unicode="&#x10d;" 
d="M150 146q0 -24 13.5 -37t36.5 -13q29 0 38.5 17t11.5 34h102q0 -67 -41 -108q-20 -21 -48 -33t-63 -12q-48 0 -81.5 20t-51.5 53q-11 20 -15 46t-4 57v167q0 31 4 57t15 46q18 33 51.5 53t81.5 20q35 0 63.5 -12t48.5 -33q40 -45 40 -117h-102q0 31 -13.5 45.5
t-36.5 14.5t-36.5 -14.5t-13.5 -43.5v-207zM330 715l-98 -141h-94l-98 141h78l67 -95l67 95h78z" />
    <glyph glyph-name="Dcaron" unicode="&#x10e;" horiz-adv-x="426" 
d="M48 0v712h151q88 0 133.5 -48t45.5 -136v-333q0 -100 -48.5 -147.5t-139.5 -47.5h-142zM150 616v-520h47q43 0 61 21.5t18 67.5v343q0 42 -17 65t-62 23h-47zM328 885l-98 -141h-94l-98 141h78l67 -95l67 95h78z" />
    <glyph glyph-name="dcaron" unicode="&#x10f;" horiz-adv-x="575" 
d="M144 165q0 -31 12 -50t38 -19q23 0 37 17.5t14 45.5v197q0 24 -14.5 39.5t-36.5 15.5q-29 0 -39.5 -18t-10.5 -42v-186zM245 0v46q-10 -11 -19 -20.5t-20 -16.5t-25 -11t-33 -4q-64 0 -89 48q-9 17 -13 42t-4 67v193q0 55 3 81q6 50 47 75q19 13 57 13q30 0 53.5 -13.5
t40.5 -38.5h2v251h102v-712h-102zM431 536v176h102v-102z" />
    <glyph glyph-name="Dcroat" unicode="&#x110;" horiz-adv-x="426" 
d="M150 616v-200h70v-66h-70v-254h47q43 0 61 21.5t18 67.5v343q0 42 -17 65t-62 23h-47zM48 0v350h-48v66h48v296h151q88 0 133.5 -48t45.5 -136v-333q0 -100 -48.5 -147.5t-139.5 -47.5h-142z" />
    <glyph glyph-name="dcroat" unicode="&#x111;" horiz-adv-x="397" 
d="M245 0v46q-10 -11 -19 -20.5t-20 -16.5t-25 -11t-33 -4q-64 0 -89 48q-9 17 -13 42t-4 67v193q0 55 3 81q6 50 47 75q19 13 57 13q30 0 53.5 -13.5t40.5 -38.5h2v141h-110v60h110v50h102v-50h50v-60h-50v-602h-102zM144 165q0 -31 12 -50t38 -19q23 0 37 17.5t14 45.5
v197q0 24 -14.5 39.5t-36.5 15.5q-29 0 -39.5 -18t-10.5 -42v-186z" />
    <glyph glyph-name="Emacron" unicode="&#x112;" 
d="M48 0v712h304v-96h-202v-209h176v-96h-176v-209h202v-102h-304zM60 777v60h274v-60h-274z" />
    <glyph glyph-name="emacron" unicode="&#x113;" 
d="M337 215h-202v-69q0 -24 13.5 -37t36.5 -13q29 0 38.5 17t11.5 34h102q0 -67 -41 -108q-20 -21 -48 -33t-63 -12q-48 0 -81.5 20t-51.5 53q-11 20 -15 46t-4 57v167q0 31 4 57t15 46q18 33 51.5 53t81.5 20q35 0 63.5 -12t48.5 -33q40 -45 40 -113v-140zM135 295h100v58
q0 29 -13.5 43.5t-36.5 14.5t-36.5 -14.5t-13.5 -43.5v-58zM47 607v60h274v-60h-274z" />
    <glyph glyph-name="Ebreve" unicode="&#x114;" 
d="M48 0v712h304v-96h-202v-209h176v-96h-176v-209h202v-102h-304zM355 885q-21 -136 -154 -136t-154 136h51q2 -14 7.5 -27.5t17.5 -24.5t31 -17.5t47 -6.5t47 6.5t31 17.5t17.5 24.5t7.5 27.5h51z" />
    <glyph glyph-name="ebreve" unicode="&#x115;" 
d="M337 215h-202v-69q0 -24 13.5 -37t36.5 -13q29 0 38.5 17t11.5 34h102q0 -67 -41 -108q-20 -21 -48 -33t-63 -12q-48 0 -81.5 20t-51.5 53q-11 20 -15 46t-4 57v167q0 31 4 57t15 46q18 33 51.5 53t81.5 20q35 0 63.5 -12t48.5 -33q40 -45 40 -113v-140zM135 295h100v58
q0 29 -13.5 43.5t-36.5 14.5t-36.5 -14.5t-13.5 -43.5v-58zM339 715q-21 -136 -154 -136t-154 136h51q2 -14 7.5 -27.5t17.5 -24.5t31 -17.5t47 -6.5t47 6.5t31 17.5t17.5 24.5t7.5 27.5h51z" />
    <glyph glyph-name="Edotaccent" unicode="&#x116;" 
d="M48 0v712h304v-96h-202v-209h176v-96h-176v-209h202v-102h-304zM160 756v102h90v-102h-90z" />
    <glyph glyph-name="edotaccent" unicode="&#x117;" 
d="M337 215h-202v-69q0 -24 13.5 -37t36.5 -13q29 0 38.5 17t11.5 34h102q0 -67 -41 -108q-20 -21 -48 -33t-63 -12q-48 0 -81.5 20t-51.5 53q-11 20 -15 46t-4 57v167q0 31 4 57t15 46q18 33 51.5 53t81.5 20q35 0 63.5 -12t48.5 -33q40 -45 40 -113v-140zM135 295h100v58
q0 29 -13.5 43.5t-36.5 14.5t-36.5 -14.5t-13.5 -43.5v-58zM140 586v102h90v-102h-90z" />
    <glyph glyph-name="Eogonek" unicode="&#x118;" 
d="M48 0v712h304v-96h-202v-209h176v-96h-176v-209h202v-102h-304zM352 -202q-15 -8 -39.5 -15t-57.5 -7q-42 0 -70.5 24.5t-28.5 66.5q0 24 7 43t20 35q13 15 29.5 28t36.5 27h51q-30 -29 -47 -62t-17 -64q0 -24 14.5 -38t34.5 -14q17 0 29.5 3.5t23.5 9.5z" />
    <glyph glyph-name="eogonek" unicode="&#x119;" 
d="M276 -202q-15 -8 -39.5 -15t-57.5 -7q-42 0 -70.5 24.5t-28.5 66.5q0 24 7 43t20 35q11 14 26 25.5t32 24.5q-40 4 -68.5 23t-44.5 49q-11 20 -15 46t-4 57v167q0 31 4 57t15 46q18 33 51.5 53t81.5 20q35 0 63.5 -12t48.5 -33q40 -45 40 -113v-140h-202v-69
q0 -24 13.5 -37t36.5 -13q29 0 38.5 17t11.5 34h102q0 -67 -41 -108q-31 -32 -75 -41q-29 -29 -45 -61.5t-16 -62.5q0 -24 14.5 -38t34.5 -14q17 0 29.5 3.5t23.5 9.5zM135 295h100v58q0 29 -13.5 43.5t-36.5 14.5t-36.5 -14.5t-13.5 -43.5v-58z" />
    <glyph glyph-name="Ecaron" unicode="&#x11a;" 
d="M48 0v712h304v-96h-202v-209h176v-96h-176v-209h202v-102h-304zM347 885l-98 -141h-94l-98 141h78l67 -95l67 95h78z" />
    <glyph glyph-name="ecaron" unicode="&#x11b;" 
d="M337 215h-202v-69q0 -24 13.5 -37t36.5 -13q29 0 38.5 17t11.5 34h102q0 -67 -41 -108q-20 -21 -48 -33t-63 -12q-48 0 -81.5 20t-51.5 53q-11 20 -15 46t-4 57v167q0 31 4 57t15 46q18 33 51.5 53t81.5 20q35 0 63.5 -12t48.5 -33q40 -45 40 -113v-140zM135 295h100v58
q0 29 -13.5 43.5t-36.5 14.5t-36.5 -14.5t-13.5 -43.5v-58zM329 715l-98 -141h-94l-98 141h78l67 -95l67 95h78z" />
    <glyph glyph-name="Gcircumflex" unicode="&#x11c;" horiz-adv-x="426" 
d="M42 544q0 43 15 76t40 55q24 21 54.5 32t61.5 11t61.5 -11t55.5 -32q24 -22 39 -55t15 -76v-36h-102v36q0 37 -20.5 54.5t-48.5 17.5t-48.5 -17.5t-20.5 -54.5v-376q0 -37 20.5 -54.5t48.5 -17.5t48.5 17.5t20.5 54.5v134h-81v90h183v-224q0 -45 -15 -77t-39 -53
q-25 -22 -55.5 -33t-61.5 -11t-61.5 11t-54.5 33q-25 21 -40 53t-15 77v376zM68 744l98 141h94l98 -141h-78l-67 95l-67 -95h-78z" />
    <glyph glyph-name="gcircumflex" unicode="&#x11d;" horiz-adv-x="389" 
d="M144 -59q1 -18 14.5 -34t39.5 -16q25 0 36 15.5t11 39.5v100h-2q-17 -25 -40.5 -38.5t-54.5 -13.5q-64 0 -89 48q-9 17 -13 42t-4 67v193q0 55 3 81q6 50 47 75q19 13 57 13q19 0 32.5 -4t24.5 -11t20 -16.5t19 -20.5v46h102v-569q0 -26 -8.5 -52.5t-27.5 -47.5
q-19 -22 -48 -35.5t-69 -13.5q-23 0 -48 7.5t-46 25.5q-22 17 -37.5 45.5t-20.5 73.5h102zM144 156q0 -24 10.5 -42t39.5 -18q22 0 36.5 15.5t14.5 39.5v197q0 28 -14 45.5t-37 17.5q-26 0 -38 -19t-12 -50v-186zM49 574l98 141h94l98 -141h-78l-67 95l-67 -95h-78z" />
    <glyph glyph-name="Gbreve" unicode="&#x11e;" horiz-adv-x="426" 
d="M42 544q0 43 15 76t40 55q24 21 54.5 32t61.5 11t61.5 -11t55.5 -32q24 -22 39 -55t15 -76v-36h-102v36q0 37 -20.5 54.5t-48.5 17.5t-48.5 -17.5t-20.5 -54.5v-376q0 -37 20.5 -54.5t48.5 -17.5t48.5 17.5t20.5 54.5v134h-81v90h183v-224q0 -45 -15 -77t-39 -53
q-25 -22 -55.5 -33t-61.5 -11t-61.5 11t-54.5 33q-25 21 -40 53t-15 77v376zM367 885q-21 -136 -154 -136t-154 136h51q2 -14 7.5 -27.5t17.5 -24.5t31 -17.5t47 -6.5t47 6.5t31 17.5t17.5 24.5t7.5 27.5h51z" />
    <glyph glyph-name="gbreve" unicode="&#x11f;" horiz-adv-x="389" 
d="M144 -59q1 -18 14.5 -34t39.5 -16q25 0 36 15.5t11 39.5v100h-2q-17 -25 -40.5 -38.5t-54.5 -13.5q-64 0 -89 48q-9 17 -13 42t-4 67v193q0 55 3 81q6 50 47 75q19 13 57 13q19 0 32.5 -4t24.5 -11t20 -16.5t19 -20.5v46h102v-569q0 -26 -8.5 -52.5t-27.5 -47.5
q-19 -22 -48 -35.5t-69 -13.5q-23 0 -48 7.5t-46 25.5q-22 17 -37.5 45.5t-20.5 73.5h102zM144 156q0 -24 10.5 -42t39.5 -18q22 0 36.5 15.5t14.5 39.5v197q0 28 -14 45.5t-37 17.5q-26 0 -38 -19t-12 -50v-186zM348 715q-21 -136 -154 -136t-154 136h51q2 -14 7.5 -27.5
t17.5 -24.5t31 -17.5t47 -6.5t47 6.5t31 17.5t17.5 24.5t7.5 27.5h51z" />
    <glyph glyph-name="Gdotaccent" unicode="&#x120;" horiz-adv-x="426" 
d="M42 544q0 43 15 76t40 55q24 21 54.5 32t61.5 11t61.5 -11t55.5 -32q24 -22 39 -55t15 -76v-36h-102v36q0 37 -20.5 54.5t-48.5 17.5t-48.5 -17.5t-20.5 -54.5v-376q0 -37 20.5 -54.5t48.5 -17.5t48.5 17.5t20.5 54.5v134h-81v90h183v-224q0 -45 -15 -77t-39 -53
q-25 -22 -55.5 -33t-61.5 -11t-61.5 11t-54.5 33q-25 21 -40 53t-15 77v376zM168 756v102h90v-102h-90z" />
    <glyph glyph-name="gdotaccent" unicode="&#x121;" horiz-adv-x="389" 
d="M144 -59q1 -18 14.5 -34t39.5 -16q25 0 36 15.5t11 39.5v100h-2q-17 -25 -40.5 -38.5t-54.5 -13.5q-64 0 -89 48q-9 17 -13 42t-4 67v193q0 55 3 81q6 50 47 75q19 13 57 13q19 0 32.5 -4t24.5 -11t20 -16.5t19 -20.5v46h102v-569q0 -26 -8.5 -52.5t-27.5 -47.5
q-19 -22 -48 -35.5t-69 -13.5q-23 0 -48 7.5t-46 25.5q-22 17 -37.5 45.5t-20.5 73.5h102zM144 156q0 -24 10.5 -42t39.5 -18q22 0 36.5 15.5t14.5 39.5v197q0 28 -14 45.5t-37 17.5q-26 0 -38 -19t-12 -50v-186zM149 586v102h90v-102h-90z" />
    <glyph glyph-name="Gcommaaccent" unicode="&#x122;" horiz-adv-x="426" 
d="M42 544q0 43 15 76t40 55q24 21 54.5 32t61.5 11t61.5 -11t55.5 -32q24 -22 39 -55t15 -76v-36h-102v36q0 37 -20.5 54.5t-48.5 17.5t-48.5 -17.5t-20.5 -54.5v-376q0 -37 20.5 -54.5t48.5 -17.5t48.5 17.5t20.5 54.5v134h-81v90h183v-224q0 -45 -15 -77t-39 -53
q-25 -22 -55.5 -33t-61.5 -11t-61.5 11t-54.5 33q-25 21 -40 53t-15 77v376zM162 -234v176h102v-102z" />
    <glyph glyph-name="gcommaaccent" unicode="&#x123;" horiz-adv-x="389" 
d="M144 -59q1 -18 14.5 -34t39.5 -16q25 0 36 15.5t11 39.5v100h-2q-17 -25 -40.5 -38.5t-54.5 -13.5q-64 0 -89 48q-9 17 -13 42t-4 67v193q0 55 3 81q6 50 47 75q19 13 57 13q19 0 32.5 -4t24.5 -11t20 -16.5t19 -20.5v46h102v-569q0 -26 -8.5 -52.5t-27.5 -47.5
q-19 -22 -48 -35.5t-69 -13.5q-23 0 -48 7.5t-46 25.5q-22 17 -37.5 45.5t-20.5 73.5h102zM144 156q0 -24 10.5 -42t39.5 -18q22 0 36.5 15.5t14.5 39.5v197q0 28 -14 45.5t-37 17.5q-26 0 -38 -19t-12 -50v-186zM235 762v-176h-102v102z" />
    <glyph glyph-name="Hcircumflex" unicode="&#x124;" horiz-adv-x="426" 
d="M48 0v712h102v-305h126v305h102v-712h-102v317h-126v-317h-102zM68 744l98 141h94l98 -141h-78l-67 95l-67 -95h-78z" />
    <glyph glyph-name="hcircumflex" unicode="&#x125;" horiz-adv-x="389" 
d="M42 0v712h102v-254h2q16 24 38.5 39.5t57.5 15.5q19 0 38 -6.5t34 -21.5t24 -38.5t9 -57.5v-389h-102v351q0 28 -13 44t-37 16q-29 0 -40 -18t-11 -52v-341h-102zM49 744l98 141h94l98 -141h-78l-67 95l-67 -95h-78z" />
    <glyph glyph-name="Hbar" unicode="&#x126;" horiz-adv-x="431" 
d="M380 587v-587h-102v317h-126v-317h-102v587h-53v70h53v55h102v-55h126v55h102v-55h54v-70h-54zM278 407v180h-126v-180h126z" />
    <glyph glyph-name="hbar" unicode="&#x127;" horiz-adv-x="397" 
d="M152 554v-106h2q16 24 38.5 39.5t57.5 15.5q19 0 38 -6.5t34 -21.5t24 -38.5t9 -57.5v-379h-102v341q0 28 -13 44t-37 16q-29 0 -40 -18t-11 -52v-331h-102v554h-50v60h50v98h102v-98h110v-60h-110z" />
    <glyph glyph-name="Itilde" unicode="&#x128;" horiz-adv-x="204" 
d="M51 0v712h102v-712h-102zM272 869q-5 -23 -12 -43t-19 -35t-29 -24t-41 -9q-12 0 -32.5 6t-42.5 14q-11 4 -21 7t-20 7q-20 6 -28 6q-21 0 -32 -12.5t-12 -32.5h-51q8 49 31 78q12 15 29 24t41 9q12 0 32.5 -6t42.5 -14t41.5 -14t27.5 -6q21 0 32 12.5t12 32.5h51z" />
    <glyph glyph-name="itilde" unicode="&#x129;" horiz-adv-x="186" 
d="M42 0v507h102v-507h-102zM263 699q-5 -23 -12 -43t-19 -35t-29 -24t-41 -9q-12 0 -32.5 6t-42.5 14q-11 4 -21 7t-20 7q-20 6 -28 6q-21 0 -32 -12.5t-12 -32.5h-51q8 49 31 78q12 15 29 24t41 9q12 0 32.5 -6t42.5 -14t41.5 -14t27.5 -6q21 0 32 12.5t12 32.5h51z" />
    <glyph glyph-name="Imacron" unicode="&#x12a;" horiz-adv-x="204" 
d="M51 0v712h102v-712h-102zM-35 777v60h274v-60h-274z" />
    <glyph glyph-name="imacron" unicode="&#x12b;" horiz-adv-x="186" 
d="M42 0v507h102v-507h-102zM-44 607v60h274v-60h-274z" />
    <glyph glyph-name="Ibreve" unicode="&#x12c;" horiz-adv-x="204" 
d="M51 0v712h102v-712h-102zM256 885q-21 -136 -154 -136t-154 136h51q2 -14 7.5 -27.5t17.5 -24.5t31 -17.5t47 -6.5t47 6.5t31 17.5t17.5 24.5t7.5 27.5h51z" />
    <glyph glyph-name="ibreve" unicode="&#x12d;" horiz-adv-x="186" 
d="M42 0v507h102v-507h-102zM247 715q-21 -136 -154 -136t-154 136h51q2 -14 7.5 -27.5t17.5 -24.5t31 -17.5t47 -6.5t47 6.5t31 17.5t17.5 24.5t7.5 27.5h51z" />
    <glyph glyph-name="Iogonek" unicode="&#x12e;" horiz-adv-x="204" 
d="M51 0v712h102v-712h-102zM153 -202q-15 -8 -39.5 -15t-57.5 -7q-42 0 -70.5 24.5t-28.5 66.5q0 24 7 43t20 35q13 15 29.5 28t36.5 27h51q-30 -29 -47 -62t-17 -64q0 -24 14.5 -38t34.5 -14q17 0 29.5 3.5t23.5 9.5z" />
    <glyph glyph-name="iogonek" unicode="&#x12f;" horiz-adv-x="186" 
d="M191 -202q-15 -8 -39.5 -15t-57.5 -7q-42 0 -70.5 24.5t-28.5 66.5q0 24 7 43t20 35q13 15 29.5 28t36.5 27h-46v507h102v-507h-5q-30 -29 -47 -62t-17 -64q0 -24 14.5 -38t34.5 -14q17 0 29.5 3.5t23.5 9.5zM42 610v102h102v-102h-102z" />
    <glyph glyph-name="Idotaccent" unicode="&#x130;" horiz-adv-x="204" 
d="M51 0v712h102v-712h-102zM57 756v102h90v-102h-90z" />
    <glyph glyph-name="dotlessi" unicode="&#x131;" horiz-adv-x="186" 
d="M42 0v507h102v-507h-102z" />
    <glyph glyph-name="IJ" unicode="&#x132;" horiz-adv-x="537" 
d="M51 0v712h102v-712h-102zM489 712v-544q0 -73 -46 -122q-23 -24 -54.5 -38t-73.5 -14q-49 0 -81.5 21.5t-51.5 42.5l80 64q11 -11 25.5 -18.5t30.5 -7.5q9 0 21 3.5t23 13.5q11 9 18 25.5t7 43.5v530h102z" />
    <glyph glyph-name="ij" unicode="&#x133;" horiz-adv-x="372" 
d="M42 0v507h102v-507h-102zM42 610v102h102v-102h-102zM228 507h102v-561q0 -75 -47 -113t-119 -38v96q37 0 51 19q8 11 10.5 28.5t2.5 45.5v523zM228 610v102h102v-102h-102z" />
    <glyph glyph-name="Jcircumflex" unicode="&#x134;" horiz-adv-x="333" 
d="M285 712v-544q0 -73 -46 -122q-23 -24 -54.5 -38t-73.5 -14q-49 0 -81.5 21.5t-51.5 42.5l80 64q11 -11 25.5 -18.5t30.5 -7.5q9 0 21 3.5t23 13.5q11 9 18 25.5t7 43.5v530h102zM91 744l98 141h94l98 -141h-78l-67 95l-67 -95h-78z" />
    <glyph glyph-name="jcircumflex" unicode="&#x135;" horiz-adv-x="186" 
d="M42 507h102v-561q0 -75 -47 -113t-119 -38v96q37 0 51 19q8 11 10.5 28.5t2.5 45.5v523zM-52 574l98 141h94l98 -141h-78l-67 95l-67 -95h-78z" />
    <glyph glyph-name="Kcommaaccent" unicode="&#x136;" horiz-adv-x="426" 
d="M48 0v712h102v-325h2l149 325h102l-139 -285l165 -427h-108l-116 316l-55 -103v-213h-102zM162 -234v176h102v-102z" />
    <glyph glyph-name="kcommaaccent" unicode="&#x137;" horiz-adv-x="389" 
d="M42 0v712h102v-426h2l123 221h102l-121 -206l146 -301h-111l-92 219l-49 -77v-142h-102zM143 -234v176h102v-102z" />
    <glyph glyph-name="kgreenlandic" unicode="&#x138;" horiz-adv-x="389" 
d="M42 0v507h102v-221h2l123 221h102l-121 -206l146 -301h-111l-92 219l-49 -77v-142h-102z" />
    <glyph glyph-name="Lacute" unicode="&#x139;" 
d="M48 0v712h102v-610h202v-102h-304zM64 744l90 141h108l-132 -141h-66z" />
    <glyph glyph-name="lacute" unicode="&#x13a;" horiz-adv-x="186" 
d="M36 712h102v-569q0 -29 10.5 -39.5t39.5 -13.5v-96q-35 0 -63 5.5t-48 21.5q-20 15 -30.5 42.5t-10.5 72.5v576zM28 754l90 141h108l-132 -141h-66z" />
    <glyph glyph-name="Lcommaaccent" unicode="&#x13b;" 
d="M48 0v712h102v-610h202v-102h-304zM134 -234v176h102v-102z" />
    <glyph glyph-name="lcommaaccent" unicode="&#x13c;" horiz-adv-x="186" 
d="M36 712h102v-569q0 -29 10.5 -39.5t39.5 -13.5v-96q-35 0 -63 5.5t-48 21.5q-20 15 -30.5 42.5t-10.5 72.5v576zM42 -234v176h102v-102z" />
    <glyph glyph-name="Lcaron" unicode="&#x13d;" 
d="M48 0v712h102v-610h202v-102h-304zM239 536v176h102v-102z" />
    <glyph glyph-name="lcaron" unicode="&#x13e;" horiz-adv-x="372" 
d="M36 712h102v-569q0 -29 10.5 -39.5t39.5 -13.5v-96q-35 0 -63 5.5t-48 21.5q-20 15 -30.5 42.5t-10.5 72.5v576zM228 536v176h102v-102z" />
    <glyph glyph-name="Ldot" unicode="&#x13f;" 
d="M48 0v712h102v-610h202v-102h-304zM232 313v102h90v-102h-90z" />
    <glyph glyph-name="ldot" unicode="&#x140;" horiz-adv-x="295" 
d="M36 712h102v-569q0 -29 10.5 -39.5t39.5 -13.5v-96q-35 0 -63 5.5t-48 21.5q-20 15 -30.5 42.5t-10.5 72.5v576zM182 302v102h90v-102h-90z" />
    <glyph glyph-name="Lslash" unicode="&#x141;" 
d="M48 0v265l-48 -38v90l48 38v357h102v-277l120 96v-90l-120 -96v-243h202v-102h-304z" />
    <glyph glyph-name="lslash" unicode="&#x142;" horiz-adv-x="186" 
d="M36 308l-50 -44v72l50 44v332h102v-242l50 43v-72l-50 -43v-255q0 -29 10.5 -39.5t39.5 -13.5v-96q-35 0 -63 5.5t-48 21.5q-20 15 -30.5 42.5t-10.5 72.5v172z" />
    <glyph glyph-name="Nacute" unicode="&#x143;" horiz-adv-x="444" 
d="M44 0v712h98l154 -429h2v429h102v-712h-96l-156 428h-2v-428h-102zM187 744l90 141h108l-132 -141h-66z" />
    <glyph glyph-name="nacute" unicode="&#x144;" horiz-adv-x="389" 
d="M42 0v507h102v-49h2q16 24 38.5 39.5t57.5 15.5q19 0 38 -6.5t34 -21.5t24 -38.5t9 -57.5v-389h-102v351q0 28 -13 44t-37 16q-29 0 -40 -18t-11 -52v-341h-102zM129 574l90 141h108l-132 -141h-66z" />
    <glyph glyph-name="Ncommaaccent" unicode="&#x145;" horiz-adv-x="444" 
d="M44 0v712h98l154 -429h2v429h102v-712h-96l-156 428h-2v-428h-102zM171 -234v176h102v-102z" />
    <glyph glyph-name="ncommaaccent" unicode="&#x146;" horiz-adv-x="389" 
d="M42 0v507h102v-49h2q16 24 38.5 39.5t57.5 15.5q19 0 38 -6.5t34 -21.5t24 -38.5t9 -57.5v-389h-102v351q0 28 -13 44t-37 16q-29 0 -40 -18t-11 -52v-341h-102zM143 -234v176h102v-102z" />
    <glyph glyph-name="Ncaron" unicode="&#x147;" horiz-adv-x="444" 
d="M44 0v712h98l154 -429h2v429h102v-712h-96l-156 428h-2v-428h-102zM367 885l-98 -141h-94l-98 141h78l67 -95l67 95h78z" />
    <glyph glyph-name="ncaron" unicode="&#x148;" horiz-adv-x="389" 
d="M42 0v507h102v-49h2q16 24 38.5 39.5t57.5 15.5q19 0 38 -6.5t34 -21.5t24 -38.5t9 -57.5v-389h-102v351q0 28 -13 44t-37 16q-29 0 -40 -18t-11 -52v-341h-102zM339 715l-98 -141h-94l-98 141h78l67 -95l67 95h78z" />
    <glyph glyph-name="napostrophe" unicode="&#x149;" horiz-adv-x="523" 
d="M176 0v507h102v-49h2q16 24 38.5 39.5t57.5 15.5q19 0 38 -6.5t34 -21.5t24 -38.5t9 -57.5v-389h-102v351q0 28 -13 44t-37 16q-29 0 -40 -18t-11 -52v-341h-102zM32 403v176h102v-102z" />
    <glyph glyph-name="Eng" unicode="&#x14a;" horiz-adv-x="444" 
d="M44 0v712h98l154 -429h2v429h102v-719q0 -46 -9.5 -83.5t-30.5 -64.5t-53.5 -41.5t-78.5 -14.5v96h3q26 0 39.5 8t21.5 23q8 16 10 37.5t2 46.5l-156 428h-2v-428h-102z" />
    <glyph glyph-name="eng" unicode="&#x14b;" horiz-adv-x="389" 
d="M245 351q0 28 -13 44t-37 16q-29 0 -40 -18t-11 -52v-341h-102v507h102v-49h2q16 24 38.5 39.5t57.5 15.5q19 0 38 -6.5t34 -21.5t24 -38.5t9 -57.5v-443q0 -75 -47 -113t-119 -38v96q37 0 51 19q8 11 10.5 28.5t2.5 45.5v367v0z" />
    <glyph glyph-name="Omacron" unicode="&#x14c;" horiz-adv-x="426" 
d="M42 544q0 43 15 76t40 55q24 21 54.5 32t61.5 11t61.5 -11t55.5 -32q24 -22 39 -55t15 -76v-376q0 -45 -15 -77t-39 -53q-25 -22 -55.5 -33t-61.5 -11t-61.5 11t-54.5 33q-25 21 -40 53t-15 77v376zM144 168q0 -37 20.5 -54.5t48.5 -17.5t48.5 17.5t20.5 54.5v376
q0 37 -20.5 54.5t-48.5 17.5t-48.5 -17.5t-20.5 -54.5v-376zM76 777v60h274v-60h-274z" />
    <glyph glyph-name="omacron" unicode="&#x14d;" 
d="M33 337q0 31 4 57t15 46q18 33 51.5 53t81.5 20t81.5 -20t51.5 -53q11 -20 15 -46t4 -57v-167q0 -31 -4 -57t-15 -46q-18 -33 -51.5 -53t-81.5 -20t-81.5 20t-51.5 53q-11 20 -15 46t-4 57v167zM135 154q0 -29 13.5 -43.5t36.5 -14.5t36.5 14.5t13.5 43.5v199
q0 29 -13.5 43.5t-36.5 14.5t-36.5 -14.5t-13.5 -43.5v-199zM48 607v60h274v-60h-274z" />
    <glyph glyph-name="Obreve" unicode="&#x14e;" horiz-adv-x="426" 
d="M42 544q0 43 15 76t40 55q24 21 54.5 32t61.5 11t61.5 -11t55.5 -32q24 -22 39 -55t15 -76v-376q0 -45 -15 -77t-39 -53q-25 -22 -55.5 -33t-61.5 -11t-61.5 11t-54.5 33q-25 21 -40 53t-15 77v376zM144 168q0 -37 20.5 -54.5t48.5 -17.5t48.5 17.5t20.5 54.5v376
q0 37 -20.5 54.5t-48.5 17.5t-48.5 -17.5t-20.5 -54.5v-376zM367 885q-21 -136 -154 -136t-154 136h51q2 -14 7.5 -27.5t17.5 -24.5t31 -17.5t47 -6.5t47 6.5t31 17.5t17.5 24.5t7.5 27.5h51z" />
    <glyph glyph-name="obreve" unicode="&#x14f;" 
d="M33 337q0 31 4 57t15 46q18 33 51.5 53t81.5 20t81.5 -20t51.5 -53q11 -20 15 -46t4 -57v-167q0 -31 -4 -57t-15 -46q-18 -33 -51.5 -53t-81.5 -20t-81.5 20t-51.5 53q-11 20 -15 46t-4 57v167zM135 154q0 -29 13.5 -43.5t36.5 -14.5t36.5 14.5t13.5 43.5v199
q0 29 -13.5 43.5t-36.5 14.5t-36.5 -14.5t-13.5 -43.5v-199zM339 715q-21 -136 -154 -136t-154 136h51q2 -14 7.5 -27.5t17.5 -24.5t31 -17.5t47 -6.5t47 6.5t31 17.5t17.5 24.5t7.5 27.5h51z" />
    <glyph glyph-name="Ohungarumlaut" unicode="&#x150;" horiz-adv-x="426" 
d="M42 544q0 43 15 76t40 55q24 21 54.5 32t61.5 11t61.5 -11t55.5 -32q24 -22 39 -55t15 -76v-376q0 -45 -15 -77t-39 -53q-25 -22 -55.5 -33t-61.5 -11t-61.5 11t-54.5 33q-25 21 -40 53t-15 77v376zM144 168q0 -37 20.5 -54.5t48.5 -17.5t48.5 17.5t20.5 54.5v376
q0 37 -20.5 54.5t-48.5 17.5t-48.5 -17.5t-20.5 -54.5v-376zM86 744l90 141h108l-132 -141h-66zM248 744l90 141h108l-132 -141h-66z" />
    <glyph glyph-name="ohungarumlaut" unicode="&#x151;" 
d="M33 337q0 31 4 57t15 46q18 33 51.5 53t81.5 20t81.5 -20t51.5 -53q11 -20 15 -46t4 -57v-167q0 -31 -4 -57t-15 -46q-18 -33 -51.5 -53t-81.5 -20t-81.5 20t-51.5 53q-11 20 -15 46t-4 57v167zM135 154q0 -29 13.5 -43.5t36.5 -14.5t36.5 14.5t13.5 43.5v199
q0 29 -13.5 43.5t-36.5 14.5t-36.5 -14.5t-13.5 -43.5v-199zM38 574l90 141h108l-132 -141h-66zM200 574l90 141h108l-132 -141h-66z" />
    <glyph glyph-name="OE" unicode="&#x152;" horiz-adv-x="610" 
d="M592 712v-96h-202v-209h176v-96h-176v-209h202v-102h-304v34h-2q-13 -17 -36.5 -28.5t-48.5 -11.5q-36 0 -64 13.5t-48 37.5q-20 23 -30.5 53.5t-10.5 64.5v386q0 34 10.5 64.5t30.5 53.5t48 37t64 14q33 0 53.5 -12.5t31.5 -29.5h2v36h304zM288 554q0 30 -18.5 52
t-50.5 22t-50.5 -22t-18.5 -52v-396q0 -30 18.5 -52t50.5 -22t50.5 22t18.5 52v396z" />
    <glyph glyph-name="oe" unicode="&#x153;" horiz-adv-x="572" 
d="M33 337q0 31 4 57t15 46q18 33 51.5 53t81.5 20q32 0 58 -10t43 -24q40 34 101 34q35 0 63.5 -12t48.5 -33q40 -45 40 -113v-140h-202v-69q0 -24 13.5 -37t36.5 -13q29 0 38.5 17t11.5 34h102q0 -67 -41 -108q-20 -21 -48 -33t-63 -12q-28 0 -58 8.5t-47 26.5
q-17 -16 -42.5 -25.5t-54.5 -9.5q-48 0 -81.5 20t-51.5 53q-11 20 -15 46t-4 57v167zM135 154q0 -29 13.5 -43.5t36.5 -14.5t36.5 14.5t13.5 43.5v199q0 29 -13.5 43.5t-36.5 14.5t-36.5 -14.5t-13.5 -43.5v-199zM337 295h100v58q0 29 -13.5 43.5t-36.5 14.5t-36.5 -14.5
t-13.5 -43.5v-58z" />
    <glyph glyph-name="Racute" unicode="&#x154;" horiz-adv-x="426" 
d="M150 616v-222h58q27 0 43 7.5t25 21.5q8 14 11 34.5t3 47.5t-3 47.5t-12 35.5q-19 28 -72 28h-53zM48 0v712h164q180 0 180 -209q0 -63 -19.5 -107t-68.5 -71l110 -325h-108l-95 304h-61v-304h-102zM148 744l90 141h108l-132 -141h-66z" />
    <glyph glyph-name="racute" unicode="&#x155;" horiz-adv-x="278" 
d="M42 0v507h102v-54q31 28 61 44t74 16v-108q-15 6 -31 6t-34.5 -5.5t-33.5 -18.5q-16 -13 -26 -34t-10 -52v-301h-102zM74 574l90 141h108l-132 -141h-66z" />
    <glyph glyph-name="Rcommaaccent" unicode="&#x156;" horiz-adv-x="426" 
d="M150 616v-222h58q27 0 43 7.5t25 21.5q8 14 11 34.5t3 47.5t-3 47.5t-12 35.5q-19 28 -72 28h-53zM48 0v712h164q180 0 180 -209q0 -63 -19.5 -107t-68.5 -71l110 -325h-108l-95 304h-61v-304h-102zM162 -234v176h102v-102z" />
    <glyph glyph-name="rcommaaccent" unicode="&#x157;" horiz-adv-x="278" 
d="M42 0v507h102v-54q31 28 61 44t74 16v-108q-15 6 -31 6t-34.5 -5.5t-33.5 -18.5q-16 -13 -26 -34t-10 -52v-301h-102zM45 -234v176h102v-102z" />
    <glyph glyph-name="Rcaron" unicode="&#x158;" horiz-adv-x="426" 
d="M150 616v-222h58q27 0 43 7.5t25 21.5q8 14 11 34.5t3 47.5t-3 47.5t-12 35.5q-19 28 -72 28h-53zM48 0v712h164q180 0 180 -209q0 -63 -19.5 -107t-68.5 -71l110 -325h-108l-95 304h-61v-304h-102zM330 885l-98 -141h-94l-98 141h78l67 -95l67 95h78z" />
    <glyph glyph-name="rcaron" unicode="&#x159;" horiz-adv-x="278" 
d="M42 0v507h102v-54q31 28 61 44t74 16v-108q-15 6 -31 6t-34.5 -5.5t-33.5 -18.5q-16 -13 -26 -34t-10 -52v-301h-102zM284 715l-98 -141h-94l-98 141h78l67 -95l67 95h78z" />
    <glyph glyph-name="Sacute" unicode="&#x15a;" horiz-adv-x="406" 
d="M378 507h-102v23q0 35 -16.5 60.5t-55.5 25.5q-21 0 -34 -8t-21 -20q-8 -13 -11 -29.5t-3 -34.5q0 -21 1.5 -35t7.5 -25t17.5 -19t31.5 -16l78 -31q34 -13 55 -30.5t33 -40.5q11 -24 15 -54.5t4 -69.5q0 -45 -9 -83.5t-29 -65.5q-21 -28 -55 -44t-83 -16q-37 0 -69 13
t-55 36t-36.5 53.5t-13.5 66.5v38h102v-32q0 -28 16.5 -50.5t55.5 -22.5q26 0 40.5 7.5t22.5 21.5t9.5 33.5t1.5 43.5q0 28 -2 46t-8 29q-7 11 -18.5 18t-30.5 15l-73 30q-66 27 -88.5 71.5t-22.5 111.5q0 40 11 76t33 62q21 26 53.5 41.5t77.5 15.5q38 0 69.5 -14t54.5 -37
q46 -48 46 -110v-50zM158 744l90 141h108l-132 -141h-66z" />
    <glyph glyph-name="sacute" unicode="&#x15b;" horiz-adv-x="352" 
d="M227 365q-1 26 -16.5 39t-35.5 13q-24 0 -37 -15.5t-13 -35.5q0 -14 7 -27.5t36 -24.5l60 -24q57 -22 78.5 -60t21.5 -83q0 -32 -11.5 -59.5t-31.5 -48.5t-48 -33t-61 -12q-62 0 -104 39q-21 19 -34 47.5t-14 66.5h96q3 -21 14.5 -39t40.5 -18q22 0 39.5 14.5t17.5 40.5
q0 21 -11 36t-40 26l-49 18q-48 18 -75.5 53.5t-27.5 86.5q0 32 12 59.5t33 47.5q20 20 47 30.5t58 10.5t57.5 -11t45.5 -31t30 -47.5t11 -58.5h-96zM111 574l90 141h108l-132 -141h-66z" />
    <glyph glyph-name="Scircumflex" unicode="&#x15c;" horiz-adv-x="406" 
d="M378 507h-102v23q0 35 -16.5 60.5t-55.5 25.5q-21 0 -34 -8t-21 -20q-8 -13 -11 -29.5t-3 -34.5q0 -21 1.5 -35t7.5 -25t17.5 -19t31.5 -16l78 -31q34 -13 55 -30.5t33 -40.5q11 -24 15 -54.5t4 -69.5q0 -45 -9 -83.5t-29 -65.5q-21 -28 -55 -44t-83 -16q-37 0 -69 13
t-55 36t-36.5 53.5t-13.5 66.5v38h102v-32q0 -28 16.5 -50.5t55.5 -22.5q26 0 40.5 7.5t22.5 21.5t9.5 33.5t1.5 43.5q0 28 -2 46t-8 29q-7 11 -18.5 18t-30.5 15l-73 30q-66 27 -88.5 71.5t-22.5 111.5q0 40 11 76t33 62q21 26 53.5 41.5t77.5 15.5q38 0 69.5 -14t54.5 -37
q46 -48 46 -110v-50zM58 744l98 141h94l98 -141h-78l-67 95l-67 -95h-78z" />
    <glyph glyph-name="scircumflex" unicode="&#x15d;" horiz-adv-x="352" 
d="M227 365q-1 26 -16.5 39t-35.5 13q-24 0 -37 -15.5t-13 -35.5q0 -14 7 -27.5t36 -24.5l60 -24q57 -22 78.5 -60t21.5 -83q0 -32 -11.5 -59.5t-31.5 -48.5t-48 -33t-61 -12q-62 0 -104 39q-21 19 -34 47.5t-14 66.5h96q3 -21 14.5 -39t40.5 -18q22 0 39.5 14.5t17.5 40.5
q0 21 -11 36t-40 26l-49 18q-48 18 -75.5 53.5t-27.5 86.5q0 32 12 59.5t33 47.5q20 20 47 30.5t58 10.5t57.5 -11t45.5 -31t30 -47.5t11 -58.5h-96zM31 574l98 141h94l98 -141h-78l-67 95l-67 -95h-78z" />
    <glyph glyph-name="Scedilla" unicode="&#x15e;" horiz-adv-x="406" 
d="M130 -86l60 81q-33 2 -62 14.5t-50 33.5q-23 23 -36.5 53.5t-13.5 66.5v38h102v-32q0 -28 16.5 -50.5t55.5 -22.5q26 0 40.5 7.5t22.5 21.5t9.5 33.5t1.5 43.5q0 28 -2 46t-8 29q-7 11 -18.5 18t-30.5 15l-73 30q-66 27 -88.5 71.5t-22.5 111.5q0 40 11 76t33 62
q21 26 53.5 41.5t77.5 15.5q38 0 69.5 -14t54.5 -37q46 -48 46 -110v-50h-102v23q0 35 -16.5 60.5t-55.5 25.5q-21 0 -34 -8t-21 -20q-8 -13 -11 -29.5t-3 -34.5q0 -21 1.5 -35t7.5 -25t17.5 -19t31.5 -16l78 -31q34 -13 55 -30.5t33 -40.5q11 -24 15 -54.5t4 -69.5
q0 -45 -9 -83.5t-29 -65.5q-17 -23 -42 -37.5t-60 -19.5l-43 -57q8 1 15.5 1.5t15.5 0.5q25 0 41 -7t26 -18q10 -12 14 -25t4 -25q0 -24 -11.5 -41.5t-29.5 -28.5t-39.5 -16t-42.5 -5q-29 0 -54 7t-39 12l17 42q16 -6 32 -10.5t33 -4.5q8 0 17.5 1.5t17.5 6.5q19 10 19 33
q0 17 -14 27.5t-31 10.5q-22 0 -39 -7z" />
    <glyph glyph-name="scedilla" unicode="&#x15f;" horiz-adv-x="352" 
d="M93 -86l61 82q-23 3 -44 12t-38 25q-21 19 -34 47.5t-14 66.5h96q3 -21 14.5 -39t40.5 -18q22 0 39.5 14.5t17.5 40.5q0 21 -11 36t-40 26l-49 18q-48 18 -75.5 53.5t-27.5 86.5q0 32 12 59.5t33 47.5q20 20 47 30.5t58 10.5t57.5 -11t45.5 -31t30 -47.5t11 -58.5h-96
q-1 26 -16.5 39t-35.5 13q-24 0 -37 -15.5t-13 -35.5q0 -14 7 -27.5t36 -24.5l60 -24q57 -22 78.5 -60t21.5 -83q0 -32 -11.5 -59.5t-31.5 -48.5q-34 -35 -84 -43l-43 -56q8 1 15.5 1.5t15.5 0.5q25 0 41 -7t26 -18q10 -12 14 -25t4 -25q0 -24 -11.5 -41.5t-29.5 -28.5
t-39.5 -16t-42.5 -5q-29 0 -54 7t-39 12l17 42q16 -6 32 -10.5t33 -4.5q8 0 17.5 1.5t17.5 6.5q19 10 19 33q0 17 -14 27.5t-31 10.5q-22 0 -39 -7z" />
    <glyph glyph-name="Scaron" unicode="&#x160;" horiz-adv-x="406" 
d="M378 507h-102v23q0 35 -16.5 60.5t-55.5 25.5q-21 0 -34 -8t-21 -20q-8 -13 -11 -29.5t-3 -34.5q0 -21 1.5 -35t7.5 -25t17.5 -19t31.5 -16l78 -31q34 -13 55 -30.5t33 -40.5q11 -24 15 -54.5t4 -69.5q0 -45 -9 -83.5t-29 -65.5q-21 -28 -55 -44t-83 -16q-37 0 -69 13
t-55 36t-36.5 53.5t-13.5 66.5v38h102v-32q0 -28 16.5 -50.5t55.5 -22.5q26 0 40.5 7.5t22.5 21.5t9.5 33.5t1.5 43.5q0 28 -2 46t-8 29q-7 11 -18.5 18t-30.5 15l-73 30q-66 27 -88.5 71.5t-22.5 111.5q0 40 11 76t33 62q21 26 53.5 41.5t77.5 15.5q38 0 69.5 -14t54.5 -37
q46 -48 46 -110v-50zM348 885l-98 -141h-94l-98 141h78l67 -95l67 95h78z" />
    <glyph glyph-name="scaron" unicode="&#x161;" horiz-adv-x="352" 
d="M227 365q-1 26 -16.5 39t-35.5 13q-24 0 -37 -15.5t-13 -35.5q0 -14 7 -27.5t36 -24.5l60 -24q57 -22 78.5 -60t21.5 -83q0 -32 -11.5 -59.5t-31.5 -48.5t-48 -33t-61 -12q-62 0 -104 39q-21 19 -34 47.5t-14 66.5h96q3 -21 14.5 -39t40.5 -18q22 0 39.5 14.5t17.5 40.5
q0 21 -11 36t-40 26l-49 18q-48 18 -75.5 53.5t-27.5 86.5q0 32 12 59.5t33 47.5q20 20 47 30.5t58 10.5t57.5 -11t45.5 -31t30 -47.5t11 -58.5h-96zM321 715l-98 -141h-94l-98 141h78l67 -95l67 95h78z" />
    <glyph glyph-name="Tcedilla" unicode="&#x162;" horiz-adv-x="332" 
d="M115 0v616h-118v96h338v-96h-118v-616h-102zM80 -86l65 86h46l-46 -60q8 1 15.5 1.5t15.5 0.5q25 0 41 -7t26 -18q10 -12 14 -25t4 -25q0 -24 -11.5 -41.5t-29.5 -28.5t-39.5 -16t-42.5 -5q-29 0 -54 7t-39 12l17 42q16 -6 32 -10.5t33 -4.5q8 0 17.5 1.5t17.5 6.5
q19 10 19 33q0 17 -14 27.5t-31 10.5q-22 0 -39 -7z" />
    <glyph glyph-name="tcedilla" unicode="&#x163;" horiz-adv-x="204" 
d="M42 507v154h102v-154h63v-80h-63v-281q0 -18 3.5 -28t11.5 -15t19.5 -6t28.5 -1v-96h-42q-35 0 -58.5 11t-37.5 28t-20.5 38.5t-6.5 41.5v308h-51v80h51zM29 -86l65 86h46l-46 -60q8 1 15.5 1.5t15.5 0.5q25 0 41 -7t26 -18q10 -12 14 -25t4 -25q0 -24 -11.5 -41.5
t-29.5 -28.5t-39.5 -16t-42.5 -5q-29 0 -54 7t-39 12l17 42q16 -6 32 -10.5t33 -4.5q8 0 17.5 1.5t17.5 6.5q19 10 19 33q0 17 -14 27.5t-31 10.5q-22 0 -39 -7z" />
    <glyph glyph-name="Tcaron" unicode="&#x164;" horiz-adv-x="332" 
d="M115 0v616h-118v96h338v-96h-118v-616h-102zM311 885l-98 -141h-94l-98 141h78l67 -95l67 95h78z" />
    <glyph glyph-name="tcaron" unicode="&#x165;" horiz-adv-x="390" 
d="M42 507v154h102v-154h63v-80h-63v-281q0 -18 3.5 -28t11.5 -15t19.5 -6t28.5 -1v-96h-42q-35 0 -58.5 11t-37.5 28t-20.5 38.5t-6.5 41.5v308h-51v80h51zM246 536v176h102v-102z" />
    <glyph glyph-name="Tbar" unicode="&#x166;" horiz-adv-x="332" 
d="M115 0v350h-60v66h60v200h-118v96h338v-96h-118v-200h58v-66h-58v-350h-102z" />
    <glyph glyph-name="tbar" unicode="&#x167;" horiz-adv-x="204" 
d="M42 507v154h102v-154h63v-80h-63v-81h65v-66h-65v-134q0 -18 3.5 -28t11.5 -15t19.5 -6t28.5 -1v-96h-42q-35 0 -58.5 11t-37.5 28t-20.5 38.5t-6.5 41.5v161h-53v66h53v81h-51v80h51z" />
    <glyph glyph-name="Utilde" unicode="&#x168;" horiz-adv-x="426" 
d="M378 712v-552q0 -35 -12.5 -64.5t-35.5 -52.5t-53 -36t-64 -13t-63.5 13t-52.5 36t-36 52.5t-13 64.5v552h102v-542q0 -38 18 -56t45 -18t45 18t18 56v542h102zM393 869q-5 -23 -12 -43t-19 -35t-29 -24t-41 -9q-12 0 -32.5 6t-42.5 14q-11 4 -21 7t-20 7q-20 6 -28 6
q-21 0 -32 -12.5t-12 -32.5h-51q8 49 31 78q12 15 29 24t41 9q12 0 32.5 -6t42.5 -14t41.5 -14t27.5 -6q21 0 32 12.5t12 32.5h51z" />
    <glyph glyph-name="utilde" unicode="&#x169;" horiz-adv-x="389" 
d="M347 507v-507h-102v49h-2q-16 -24 -38.5 -39.5t-57.5 -15.5q-19 0 -38 6.5t-34 21.5t-24 38.5t-9 57.5v389h102v-351q0 -28 13 -44t37 -16q29 0 40 18t11 52v341h102zM364 699q-5 -23 -12 -43t-19 -35t-29 -24t-41 -9q-12 0 -32.5 6t-42.5 14q-11 4 -21 7t-20 7
q-20 6 -28 6q-21 0 -32 -12.5t-12 -32.5h-51q8 49 31 78q12 15 29 24t41 9q12 0 32.5 -6t42.5 -14t41.5 -14t27.5 -6q21 0 32 12.5t12 32.5h51z" />
    <glyph glyph-name="Umacron" unicode="&#x16a;" horiz-adv-x="426" 
d="M378 712v-552q0 -35 -12.5 -64.5t-35.5 -52.5t-53 -36t-64 -13t-63.5 13t-52.5 36t-36 52.5t-13 64.5v552h102v-542q0 -38 18 -56t45 -18t45 18t18 56v542h102zM76 777v60h274v-60h-274z" />
    <glyph glyph-name="umacron" unicode="&#x16b;" horiz-adv-x="389" 
d="M347 507v-507h-102v49h-2q-16 -24 -38.5 -39.5t-57.5 -15.5q-19 0 -38 6.5t-34 21.5t-24 38.5t-9 57.5v389h102v-351q0 -28 13 -44t37 -16q29 0 40 18t11 52v341h102zM57 607v60h274v-60h-274z" />
    <glyph glyph-name="Ubreve" unicode="&#x16c;" horiz-adv-x="426" 
d="M378 712v-552q0 -35 -12.5 -64.5t-35.5 -52.5t-53 -36t-64 -13t-63.5 13t-52.5 36t-36 52.5t-13 64.5v552h102v-542q0 -38 18 -56t45 -18t45 18t18 56v542h102zM367 885q-21 -136 -154 -136t-154 136h51q2 -14 7.5 -27.5t17.5 -24.5t31 -17.5t47 -6.5t47 6.5t31 17.5
t17.5 24.5t7.5 27.5h51z" />
    <glyph glyph-name="ubreve" unicode="&#x16d;" horiz-adv-x="389" 
d="M347 507v-507h-102v49h-2q-16 -24 -38.5 -39.5t-57.5 -15.5q-19 0 -38 6.5t-34 21.5t-24 38.5t-9 57.5v389h102v-351q0 -28 13 -44t37 -16q29 0 40 18t11 52v341h102zM348 715q-21 -136 -154 -136t-154 136h51q2 -14 7.5 -27.5t17.5 -24.5t31 -17.5t47 -6.5t47 6.5
t31 17.5t17.5 24.5t7.5 27.5h51z" />
    <glyph glyph-name="Uring" unicode="&#x16e;" horiz-adv-x="426" 
d="M378 712v-552q0 -35 -12.5 -64.5t-35.5 -52.5t-53 -36t-64 -13t-63.5 13t-52.5 36t-36 52.5t-13 64.5v552h102v-542q0 -38 18 -56t45 -18t45 18t18 56v542h102zM111 830q0 42 30 72t72 30t72 -30t30 -72t-30 -72t-72 -30t-72 30t-30 72zM152 830q0 -26 17.5 -43.5
t43.5 -17.5t43.5 17.5t17.5 43.5t-17.5 43.5t-43.5 17.5t-43.5 -17.5t-17.5 -43.5z" />
    <glyph glyph-name="uring" unicode="&#x16f;" horiz-adv-x="389" 
d="M347 507v-507h-102v49h-2q-16 -24 -38.5 -39.5t-57.5 -15.5q-19 0 -38 6.5t-34 21.5t-24 38.5t-9 57.5v389h102v-351q0 -28 13 -44t37 -16q29 0 40 18t11 52v341h102zM92 660q0 42 30 72t72 30t72 -30t30 -72t-30 -72t-72 -30t-72 30t-30 72zM133 660q0 -26 17.5 -43.5
t43.5 -17.5t43.5 17.5t17.5 43.5t-17.5 43.5t-43.5 17.5t-43.5 -17.5t-17.5 -43.5z" />
    <glyph glyph-name="Uhungarumlaut" unicode="&#x170;" horiz-adv-x="426" 
d="M378 712v-552q0 -35 -12.5 -64.5t-35.5 -52.5t-53 -36t-64 -13t-63.5 13t-52.5 36t-36 52.5t-13 64.5v552h102v-542q0 -38 18 -56t45 -18t45 18t18 56v542h102zM96 744l90 141h108l-132 -141h-66zM258 744l90 141h108l-132 -141h-66z" />
    <glyph glyph-name="uhungarumlaut" unicode="&#x171;" horiz-adv-x="389" 
d="M347 507v-507h-102v49h-2q-16 -24 -38.5 -39.5t-57.5 -15.5q-19 0 -38 6.5t-34 21.5t-24 38.5t-9 57.5v389h102v-351q0 -28 13 -44t37 -16q29 0 40 18t11 52v341h102zM47 574l90 141h108l-132 -141h-66zM209 574l90 141h108l-132 -141h-66z" />
    <glyph glyph-name="Uogonek" unicode="&#x172;" horiz-adv-x="426" 
d="M378 712v-552q0 -35 -12.5 -64.5t-35.5 -52.5t-53 -36t-64 -13t-63.5 13t-52.5 36t-36 52.5t-13 64.5v552h102v-542q0 -38 18 -56t45 -18t45 18t18 56v542h102zM378 -202q-15 -8 -39.5 -15t-57.5 -7q-42 0 -70.5 24.5t-28.5 66.5q0 24 7 43t20 35q13 15 29.5 28t36.5 27
h51q-30 -29 -47 -62t-17 -64q0 -24 14.5 -38t34.5 -14q17 0 29.5 3.5t23.5 9.5z" />
    <glyph glyph-name="uogonek" unicode="&#x173;" horiz-adv-x="389" 
d="M347 -202q-15 -8 -39.5 -15t-57.5 -7q-42 0 -70.5 24.5t-28.5 66.5q0 24 7 43t20 35q13 15 29.5 28t36.5 27h1v49h-2q-16 -24 -38.5 -39.5t-57.5 -15.5q-19 0 -38 6.5t-34 21.5t-24 38.5t-9 57.5v389h102v-351q0 -28 13 -44t37 -16q29 0 40 18t11 52v341h102v-507h-52
q-30 -29 -47 -62t-17 -64q0 -24 14.5 -38t34.5 -14q17 0 29.5 3.5t23.5 9.5z" />
    <glyph glyph-name="Wcircumflex" unicode="&#x174;" horiz-adv-x="593" 
d="M577 712l-106 -712h-96l-78 462h-2l-77 -462h-96l-106 712h108l51 -452h2l80 452h78l83 -463h2l49 463h108zM151 744l98 141h94l98 -141h-78l-67 95l-67 -95h-78z" />
    <glyph glyph-name="wcircumflex" unicode="&#x175;" horiz-adv-x="536" 
d="M535 507l-120 -507h-90l-56 301h-2l-56 -301h-90l-120 507h108l62 -315h2l57 315h80l54 -315h2l61 315h108zM123 574l98 141h94l98 -141h-78l-67 95l-67 -95h-78z" />
    <glyph glyph-name="Ycircumflex" unicode="&#x176;" horiz-adv-x="388" 
d="M143 0v301l-140 411h108l82 -283h2l82 283h108l-140 -411v-301h-102zM49 744l98 141h94l98 -141h-78l-67 95l-67 -95h-78z" />
    <glyph glyph-name="ycircumflex" unicode="&#x177;" horiz-adv-x="352" 
d="M-1 507h108l70 -316h2l69 316h105l-146 -595q-8 -34 -22.5 -56t-33.5 -36t-40.5 -19.5t-44.5 -5.5h-28v96h23q15 0 26 4t20 18q8 14 15 39.5t16 70.5zM31 574l98 141h94l98 -141h-78l-67 95l-67 -95h-78z" />
    <glyph glyph-name="Ydieresis" unicode="&#x178;" horiz-adv-x="388" 
d="M143 0v301l-140 411h108l82 -283h2l82 283h108l-140 -411v-301h-102zM68 756v102h90v-102h-90zM230 756v102h90v-102h-90z" />
    <glyph glyph-name="Zacute" unicode="&#x179;" horiz-adv-x="333" 
d="M15 0v90l192 526h-182v96h293v-81l-196 -535h196v-96h-303zM121 744l90 141h108l-132 -141h-66z" />
    <glyph glyph-name="zacute" unicode="&#x17a;" horiz-adv-x="315" 
d="M17 0v81l165 336h-152v90h268v-81l-165 -330h165v-96h-281zM92 574l90 141h108l-132 -141h-66z" />
    <glyph glyph-name="Zdotaccent" unicode="&#x17b;" horiz-adv-x="333" 
d="M15 0v90l192 526h-182v96h293v-81l-196 -535h196v-96h-303zM121 756v102h90v-102h-90z" />
    <glyph glyph-name="zdotaccent" unicode="&#x17c;" horiz-adv-x="315" 
d="M17 0v81l165 336h-152v90h268v-81l-165 -330h165v-96h-281zM112 586v102h90v-102h-90z" />
    <glyph glyph-name="Zcaron" unicode="&#x17d;" horiz-adv-x="333" 
d="M15 0v90l192 526h-182v96h293v-81l-196 -535h196v-96h-303zM312 885l-98 -141h-94l-98 141h78l67 -95l67 95h78z" />
    <glyph glyph-name="zcaron" unicode="&#x17e;" horiz-adv-x="315" 
d="M17 0v81l165 336h-152v90h268v-81l-165 -330h165v-96h-281zM303 715l-98 -141h-94l-98 141h78l67 -95l67 95h78z" />
    <glyph glyph-name="longs" unicode="&#x17f;" horiz-adv-x="222" 
d="M55 0v576q0 37 11 62.5t30 42.5q18 17 41.5 24t48.5 7h47v-96h-46q-30 0 -30 -35v-74h76v-80h-76v-427h-102z" />
    <glyph glyph-name="Schwa" unicode="&#x18f;" horiz-adv-x="414" 
d="M42 407h228v129q0 36 -14 58t-52 22q-32 0 -46 -20t-14 -50v-38h-102v40q0 37 12.5 68.5t34.5 54.5q45 47 117 47q37 0 67.5 -12.5t52.5 -34.5t34 -52t12 -65v-386q0 -37 -11.5 -69t-33 -55t-52.5 -36.5t-71 -13.5q-34 0 -63.5 12.5t-51.5 34t-34.5 51t-12.5 63.5v252z
M208 96q32 0 47 19t15 50v152h-126v-153q0 -28 16 -48t48 -20z" />
    <glyph glyph-name="florin" unicode="&#x192;" horiz-adv-x="372" 
d="M45 371l11 80h84l23 128q8 43 21.5 70t31.5 43q18 15 40 20.5t46 5.5q14 0 29 -1t35 -3l-14 -92q-5 1 -9.5 2t-9.5 2t-10 1.5t-10 0.5q-26 0 -39 -15.5t-20 -58.5l-18 -103h77l-13 -80h-78l-71 -398q-7 -38 -17.5 -70.5t-28.5 -55.5t-45 -36t-67 -13q-17 0 -28.5 2
t-24.5 6l11 94q18 -6 40 -6q26 0 40 16t19 44l75 417h-80z" />
    <glyph glyph-name="Ohorn" unicode="&#x1a0;" horiz-adv-x="493" 
d="M384 168q0 -45 -15 -77t-39 -53q-25 -22 -55.5 -33t-61.5 -11t-61.5 11t-54.5 33q-25 21 -40 53t-15 77v376q0 43 15 76t40 55q24 21 54.5 32t61.5 11t61.5 -11t55.5 -32q13 -12 23.5 -27.5t18.5 -34.5q28 0 33.5 17.5t5.5 43.5v38h77v-40q0 -22 -3 -43.5t-13.5 -39.5
t-31 -30.5t-56.5 -16.5v-374zM144 168q0 -37 20.5 -54.5t48.5 -17.5t48.5 17.5t20.5 54.5v376q0 37 -20.5 54.5t-48.5 17.5t-48.5 -17.5t-20.5 -54.5v-376z" />
    <glyph glyph-name="ohorn" unicode="&#x1a1;" horiz-adv-x="440" 
d="M33 337q0 31 4 57t15 46q18 33 51.5 53t81.5 20t81.5 -20t51.5 -53q7 -15 12 -33q20 4 25 20.5t5 39.5v40h75v-40q0 -22 -2.5 -43t-12.5 -38.5t-29.5 -30t-53.5 -17.5v-1v-167q0 -31 -4 -57t-15 -46q-18 -33 -51.5 -53t-81.5 -20t-81.5 20t-51.5 53q-11 20 -15 46t-4 57
v167zM135 154q0 -29 13.5 -43.5t36.5 -14.5t36.5 14.5t13.5 43.5v199q0 29 -13.5 43.5t-36.5 14.5t-36.5 -14.5t-13.5 -43.5v-199z" />
    <glyph glyph-name="Uhorn" unicode="&#x1af;" horiz-adv-x="516" 
d="M378 160q0 -35 -12.5 -64.5t-35.5 -52.5t-53 -36t-64 -13t-63.5 13t-52.5 36t-36 52.5t-13 64.5v552h102v-542q0 -38 18 -56t45 -18t45 18t18 56v542h102v-99h7q28 0 38.5 17.5t10.5 43.5v38h77v-40q0 -23 -5 -50t-27 -48q-18 -17 -43.5 -24t-57.5 -8v-382z" />
    <glyph glyph-name="uhorn" unicode="&#x1b0;" horiz-adv-x="477" 
d="M347 0h-102v49h-2q-16 -24 -38.5 -39.5t-57.5 -15.5q-19 0 -38 6.5t-34 21.5t-24 38.5t-9 57.5v389h102v-351q0 -28 13 -44t37 -16q29 0 40 18t11 52v341h102v-101h7q28 0 35.5 17.5t7.5 43.5v40h75v-40q0 -23 -4.5 -49.5t-26.5 -47.5q-14 -14 -36.5 -23t-57.5 -10v-337z
" />
    <glyph glyph-name="eturn" unicode="&#x1dd;" 
d="M235 292v61q0 29 -13.5 43.5t-36.5 14.5t-36.5 -14.5t-13.5 -45.5h-102q0 72 40 117q20 21 48.5 33t63.5 12q48 0 81.5 -20t51.5 -53q11 -20 15 -46t4 -57v-167q0 -31 -4 -57t-15 -46q-18 -33 -51.5 -53t-81.5 -20q-35 0 -63 12t-48 33q-41 41 -41 107v146h202zM235 212
h-100v-66q2 -17 11.5 -33.5t38.5 -16.5q23 0 36.5 13t13.5 37v66z" />
    <glyph glyph-name="Scommaaccent" unicode="&#x218;" horiz-adv-x="406" 
d="M378 507h-102v23q0 35 -16.5 60.5t-55.5 25.5q-21 0 -34 -8t-21 -20q-8 -13 -11 -29.5t-3 -34.5q0 -21 1.5 -35t7.5 -25t17.5 -19t31.5 -16l78 -31q34 -13 55 -30.5t33 -40.5q11 -24 15 -54.5t4 -69.5q0 -45 -9 -83.5t-29 -65.5q-21 -28 -55 -44t-83 -16q-37 0 -69 13
t-55 36t-36.5 53.5t-13.5 66.5v38h102v-32q0 -28 16.5 -50.5t55.5 -22.5q26 0 40.5 7.5t22.5 21.5t9.5 33.5t1.5 43.5q0 28 -2 46t-8 29q-7 11 -18.5 18t-30.5 15l-73 30q-66 27 -88.5 71.5t-22.5 111.5q0 40 11 76t33 62q21 26 53.5 41.5t77.5 15.5q38 0 69.5 -14t54.5 -37
q46 -48 46 -110v-50zM152 -234v176h102v-102z" />
    <glyph glyph-name="scommaaccent" unicode="&#x219;" horiz-adv-x="352" 
d="M227 365q-1 26 -16.5 39t-35.5 13q-24 0 -37 -15.5t-13 -35.5q0 -14 7 -27.5t36 -24.5l60 -24q57 -22 78.5 -60t21.5 -83q0 -32 -11.5 -59.5t-31.5 -48.5t-48 -33t-61 -12q-62 0 -104 39q-21 19 -34 47.5t-14 66.5h96q3 -21 14.5 -39t40.5 -18q22 0 39.5 14.5t17.5 40.5
q0 21 -11 36t-40 26l-49 18q-48 18 -75.5 53.5t-27.5 86.5q0 32 12 59.5t33 47.5q20 20 47 30.5t58 10.5t57.5 -11t45.5 -31t30 -47.5t11 -58.5h-96zM125 -234v176h102v-102z" />
    <glyph glyph-name="Tcommaaccent" unicode="&#x21a;" horiz-adv-x="332" 
d="M115 0v616h-118v96h338v-96h-118v-616h-102zM115 -234v176h102v-102z" />
    <glyph glyph-name="tcommaaccent" unicode="&#x21b;" horiz-adv-x="204" 
d="M42 507v154h102v-154h63v-80h-63v-281q0 -18 3.5 -28t11.5 -15t19.5 -6t28.5 -1v-96h-42q-35 0 -58.5 11t-37.5 28t-20.5 38.5t-6.5 41.5v308h-51v80h51zM51 -234v176h102v-102z" />
    <glyph glyph-name="u0250" unicode="&#x250;" 
d="M135.015 507v-51.9971h2q19.998 27.999 40.4971 42.998t57.4961 14.999q17.999 0 36.498 -5.5t35.498 -20.499q16.999 -13.999 27.498 -40.4971q10.5 -26.499 10.5 -68.4961q0 -42.9971 -7 -75.4951t-25.998 -54.4971q-17.999 -20.998 -48.9971 -31.498
q-30.998 -10.499 -78.9951 -10.499h-11q-5.99902 0 -10.999 1t-11.999 1q-7 0 -14.999 1v-52.9971q0 -25.998 10.999 -42.9971t39.998 -16.999q19.998 0 36.4971 12.999t21.499 37.9971h98.9941q-4 -67.9951 -45.9971 -109.993q-19.999 -19.998 -47.9971 -31.498
q-27.999 -11.499 -62.9961 -11.499q-31.998 0 -59.9971 9.99902q-27.998 10 -48.9971 29.999q-19.998 19.998 -31.998 49.9961q-11.999 29.999 -11.999 69.9961v352.979h101.994zM135.015 289.014q16.999 -3 27.998 -3q32.998 0 56.4961 15.499
q23.499 15.499 23.499 56.4961q0 28.999 -13.999 46.9971q-13.999 17.999 -38.998 17.999q-25.998 0 -40.4971 -16.999t-14.499 -47.9971v-68.9951z" />
    <glyph glyph-name="u0251" unicode="&#x251;" horiz-adv-x="378" 
d="M257 0l-6 60h-2q-21 -38 -46.5 -52t-55.5 -14q-31 0 -52 13t-35 33q-16 22 -21.5 54.5t-5.5 68.5v193q0 42 7.5 67t19.5 42q16 23 40 35.5t56 12.5q28 0 50.5 -14.5t38.5 -47.5h2l5 56h100l-16 -253l21 -254h-100zM135 154q0 -24 10.5 -41t34.5 -17q27 0 39 20t17 58
l10 80l-10 83q-9 74 -51 74q-26 0 -38 -18t-12 -49v-190z" />
    <glyph glyph-name="u0252" unicode="&#x252;" horiz-adv-x="378" 
d="M121.016 0l6 60h2q20.998 -38 46.4971 -52q25.498 -14 55.4961 -14q30.998 0 51.9971 13t34.998 33q15.999 22 21.498 54.5q5.5 32.5 5.5 68.5v193q0 42 -7.49902 67q-7.5 25 -19.499 42q-15.999 23 -39.998 35.5q-23.998 12.5 -55.9961 12.5q-27.998 0 -50.4971 -14.5
t-38.498 -47.5h-2l-4.99902 56h-99.9941l15.999 -253l-20.999 -254h99.9941zM243.008 154q0 -24 -10.499 -41t-34.498 -17q-26.998 0 -38.9971 20q-12 20 -16.999 58l-10 80l10 83q8.99902 74 50.9971 74q25.998 0 37.9971 -18t11.999 -49v-190z" />
    <glyph glyph-name="u0253" unicode="&#x253;" horiz-adv-x="389" 
d="M205 616h-9q-13 0 -24 -3.5t-18 -14.5q-10 -17 -10 -60v-77h2q17 25 40.5 38.5t53.5 13.5q37 0 58 -12.5t33 -33.5q13 -22 14.5 -54.5t1.5 -68.5v-193q0 -42 -4 -67t-13 -42q-26 -48 -89 -48q-38 0 -58 15t-39 37v-46h-102v545q0 38 9 71t30 56q17 18 42.5 29t70.5 11h11
v-96zM245 351q0 24 -10.5 42t-39.5 18q-22 0 -36.5 -15.5t-14.5 -39.5v-197q0 -28 14 -45.5t37 -17.5q26 0 38 19t12 50v186z" />
    <glyph glyph-name="u0254" unicode="&#x254;" horiz-adv-x="355" 
d="M220 353q0 29 -13.5 43.5t-36.5 14.5t-36.5 -15t-13.5 -47v-20h-102v14q0 38 10 70.5t30 54.5q20 21 48.5 33t63.5 12q48 0 81.5 -20t51.5 -53q11 -20 15 -46t4 -57v-167q0 -31 -4 -57t-15 -46q-18 -33 -51.5 -53t-81.5 -20q-35 0 -63 12t-48 33q-20 20 -30.5 52
t-10.5 67v11h102v-18q0 -9 2.5 -18.5t8 -17.5t15 -13.5t24.5 -5.5q23 0 36.5 13t13.5 37v207v0z" />
    <glyph glyph-name="u0255" unicode="&#x255;" horiz-adv-x="367" 
d="M238 351q0 31 -13.5 45.5t-36.5 14.5t-36.5 -14.5t-13.5 -43.5v-137q22 21 47 27t42 6q26 0 49 -8t40 -23t27 -37.5t10 -51.5q0 -68 -40.5 -101.5t-108.5 -33.5q-31 0 -60.5 9.5t-52.5 29.5q-5 -11 -10 -20t-8 -17q-4 -9 -7 -17l-64 27q6 13 13 27q6 12 13.5 28t15.5 33
q-5 17 -6.5 36t-1.5 40v167q0 31 4 57t15 46q18 33 51.5 53t81.5 20q35 0 63.5 -12t48.5 -33q40 -45 40 -117h-102zM205 79q29 0 42.5 15t13.5 33q0 6 -2 13t-8 13.5t-16 11t-26 4.5q-24 0 -41.5 -14.5t-26.5 -34.5q8 -20 26 -30.5t38 -10.5z" />
    <glyph glyph-name="u0256" unicode="&#x256;" horiz-adv-x="394" 
d="M408 -205h-11q-45 0 -70.5 11t-42.5 29q-21 23 -30 56t-9 71v84q-10 -11 -19 -20.5t-20 -16.5t-25 -11t-33 -4q-64 0 -89 48q-9 17 -13 42t-4 67v193q0 55 3 81q6 50 47 75q19 13 57 13q30 0 53.5 -13.5t40.5 -38.5h2v251h102v-743q0 -43 10 -60q7 -11 18 -14.5t24 -3.5
h9v-96zM144 165q0 -31 12 -50t38 -19q23 0 37 17.5t14 45.5v197q0 24 -14.5 39.5t-36.5 15.5q-29 0 -39.5 -18t-10.5 -42v-186z" />
    <glyph glyph-name="u0257" unicode="&#x257;" horiz-adv-x="394" 
d="M408 616h-9q-13 0 -24 -3.5t-18 -14.5q-10 -17 -10 -60v-538h-102v46q-10 -11 -19 -20.5t-20 -16.5t-25 -11t-33 -4q-64 0 -89 48q-9 17 -13 42t-4 67v193q0 55 3 81q6 50 47 75q19 13 57 13q30 0 53.5 -13.5t40.5 -38.5h2v84q0 38 9 71t30 56q17 18 42.5 29t70.5 11h11
v-96zM144 165q0 -31 12 -50t38 -19q23 0 37 17.5t14 45.5v197q0 24 -14.5 39.5t-36.5 15.5q-29 0 -39.5 -18t-10.5 -42v-186z" />
    <glyph glyph-name="u0258" unicode="&#x258;" 
d="M33.0205 215h201.987v-69q0 -24 -13.499 -37t-36.4971 -13q-28.999 0 -38.498 17t-11.499 34h-101.994q0 -67 40.9971 -108q19.999 -21 47.998 -33q27.998 -12 62.9961 -12q47.9971 0 81.4941 20q33.498 20 51.4971 53q11 20 14.999 46q4 26 4 57v167q0 31 -4 57
q-3.99902 26 -14.999 46q-17.999 33 -51.4971 53q-33.4971 20 -81.4941 20q-34.998 0 -63.4961 -12q-28.499 -12 -48.4971 -33q-39.998 -45 -39.998 -113v-140zM235.008 295h-99.9932v58q0 29 13.499 43.5t36.498 14.5q22.998 0 36.4971 -14.5t13.499 -43.5v-58z" />
    <glyph glyph-name="u0259" unicode="&#x259;" 
d="M235 292v61q0 29 -13.5 43.5t-36.5 14.5t-36.5 -14.5t-13.5 -45.5h-102q0 72 40 117q20 21 48.5 33t63.5 12q48 0 81.5 -20t51.5 -53q11 -20 15 -46t4 -57v-167q0 -31 -4 -57t-15 -46q-18 -33 -51.5 -53t-81.5 -20q-35 0 -63 12t-48 33q-41 41 -41 107v146h202zM235 212
h-100v-66q2 -17 11.5 -33.5t38.5 -16.5q23 0 36.5 13t13.5 37v66z" />
    <glyph glyph-name="u025A" unicode="&#x25a;" horiz-adv-x="488" 
d="M33 262l202 60v39q0 24 -13.5 37t-36.5 13q-29 0 -38.5 -17t-11.5 -34h-102q0 67 41 108q20 21 48 33t63 12q34 0 60.5 -10.5t45.5 -29.5q25 -25 33.5 -57t10.5 -69l65 21l21 -70q2 -7 5 -16t7.5 -16.5t11 -12.5t16.5 -5t18 4l15 -61q-5 -2 -14.5 -6t-22.5 -4
q-15 0 -31 3t-30 17q-12 11 -20 28t-15 38l-3 9l-23 -9v-97q0 -31 -4 -57t-15 -46q-18 -33 -50.5 -53t-80.5 -20q-35 0 -63.5 12t-48.5 33q-40 45 -40 113v110zM235 242l-100 -30v-58q0 -29 13.5 -43.5t36.5 -14.5t36.5 14.5t13.5 43.5v88z" />
    <glyph glyph-name="u025B" unicode="&#x25b;" horiz-adv-x="372" 
d="M249 365q-2 29 -17 40.5t-35 11.5q-25 0 -39 -16t-14 -36q0 -7 1.5 -19.5t8.5 -23.5q14 -22 51 -22h30v-85h-32q-17 0 -30 -4.5t-21 -14.5q-8 -9 -10.5 -21.5t-2.5 -23.5q0 -30 17 -45.5t40 -15.5q29 0 44.5 15t17.5 42h96q-1 -38 -15 -66.5t-35 -47.5q-20 -19 -49.5 -29
t-59.5 -10t-61 9.5t-57 33.5q-22 21 -33 49.5t-11 60.5q0 16 3 32.5t11.5 31.5t22.5 27t37 20q-22 11 -35 25t-19.5 29t-8.5 29.5t-2 25.5q0 32 11 60.5t33 47.5q26 23 54 30.5t57 7.5t57 -11t48 -31q19 -19 30 -48t13 -58h-96z" />
    <glyph glyph-name="u025C" unicode="&#x25c;" horiz-adv-x="366" 
d="M19 365q2 30 13.5 56.5t31 47t46.5 32.5t59 12t61.5 -10.5t50.5 -30.5q20 -19 31.5 -45.5t11.5 -59.5q0 -11 -2 -25.5t-8.5 -29.5t-19 -29.5t-33.5 -24.5q22 -8 36.5 -20t22 -27t10.5 -31.5t3 -32.5q0 -31 -10 -56t-30 -47q-22 -24 -53.5 -37t-68.5 -13q-71 0 -115 47
q-39 42 -42 106h96q2 -27 16.5 -42t43.5 -15q26 0 41.5 15.5t15.5 45.5q0 29 -12.5 46.5t-45.5 17.5h-32v85h28q30 0 43.5 15t13.5 49q0 22 -14 37.5t-39 15.5q-20 0 -36 -11.5t-18 -40.5h-96z" />
    <glyph glyph-name="u025D" unicode="&#x25d;" horiz-adv-x="478" 
d="M42 365q2 29 13 58t30 48q20 20 48 31t57 11q50 0 86.5 -24.5t51.5 -67.5l62 20l21 -70q2 -7 5 -16t7.5 -16.5t11 -12.5t16.5 -5t18 4l15 -61q-5 -2 -14.5 -6t-22.5 -4q-15 0 -31 3t-30 17q-12 11 -20 28t-15 38l-3 9l-14 -5q-3 -26 -16 -48.5t-42 -37.5q23 -8 38 -20
t24 -27t12.5 -31.5t3.5 -32.5q0 -32 -11 -60.5t-33 -49.5q-26 -24 -57 -33.5t-61 -9.5t-59.5 10t-49.5 29q-21 19 -35 47.5t-15 66.5h96q2 -27 17.5 -42t44.5 -15q23 0 40 15.5t17 45.5q0 11 -2.5 23.5t-10.5 21.5q-8 10 -21 14.5t-30 4.5h-32v85h30q37 0 51 22
q7 11 8.5 23.5t1.5 19.5q0 20 -14 36t-39 16q-20 0 -35 -11.5t-17 -40.5h-96z" />
    <glyph glyph-name="u025E" unicode="&#x25e;" horiz-adv-x="406" 
d="M304 258q22 -8 36.5 -20t23 -27t11.5 -31.5t3 -32.5q0 -32 -11 -60.5t-33 -49.5q-26 -24 -57 -33.5t-61 -9.5q-52 0 -93.5 25.5t-65.5 71.5q-19 36 -25 77t-7 84q0 15 1 34t5.5 41t11.5 44.5t19 43.5q23 41 61.5 69.5t90.5 28.5q29 0 57 -7.5t54 -30.5q22 -19 33 -47.5
t11 -60.5q0 -11 -2 -25.5t-8.5 -29.5t-19.5 -29t-35 -25zM114 261q-2 -30 4.5 -68.5t24.5 -66.5q23 -36 72 -36q23 0 40 15.5t17 45.5q0 11 -2.5 23.5t-10.5 21.5q-8 10 -21 14.5t-30 4.5h-22v85h20q37 0 51 22q7 11 8.5 23.5t1.5 19.5q0 20 -14 36t-39 16q-46 0 -69 -35
q-16 -23 -23 -56.5t-8 -64.5z" />
    <glyph glyph-name="u025F" unicode="&#x25f;" horiz-adv-x="222" 
d="M162 0v-54q0 -75 -47 -113t-119 -38v96q37 0 51 19q8 11 10.5 28.5t2.5 45.5v16h-68v60h68v447h102v-447h68v-60h-68z" />
    <glyph glyph-name="u0260" unicode="&#x260;" horiz-adv-x="394" 
d="M408 616h-9q-13 0 -24 -3.5t-18 -14.5q-10 -17 -10 -60v-600q0 -26 -8.5 -52.5t-27.5 -47.5q-19 -22 -48 -35.5t-69 -13.5q-23 0 -48 7.5t-46 25.5q-22 17 -37.5 45.5t-20.5 73.5h102q1 -18 14.5 -34t39.5 -16q25 0 36 15.5t11 39.5v100h-2q-17 -25 -40.5 -38.5
t-54.5 -13.5q-64 0 -89 48q-9 17 -13 42t-4 67v193q0 55 3 81q6 50 47 75q19 13 57 13q19 0 32.5 -4t24.5 -11t20 -16.5t19 -20.5v84q0 38 9 71t30 56q17 18 42.5 29t70.5 11h11v-96zM144 156q0 -24 10.5 -42t39.5 -18q22 0 36.5 15.5t14.5 39.5v197q0 28 -14 45.5t-37 17.5
q-26 0 -38 -19t-12 -50v-186z" />
    <glyph glyph-name="u0261" unicode="&#x261;" horiz-adv-x="389" 
d="M144 -59q1 -18 14.5 -34t39.5 -16q25 0 36 15.5t11 39.5v100h-2q-17 -25 -40.5 -38.5t-54.5 -13.5q-64 0 -89 48q-9 17 -13 42t-4 67v193q0 55 3 81q6 50 47 75q19 13 57 13q19 0 32.5 -4t24.5 -11t20 -16.5t19 -20.5v46h102v-569q0 -26 -8.5 -52.5t-27.5 -47.5
q-19 -22 -48 -35.5t-69 -13.5q-23 0 -48 7.5t-46 25.5q-22 17 -37.5 45.5t-20.5 73.5h102zM144 156q0 -24 10.5 -42t39.5 -18q22 0 36.5 15.5t14.5 39.5v197q0 28 -14 45.5t-37 17.5q-26 0 -38 -19t-12 -50v-186z" />
    <glyph glyph-name="u0262" unicode="&#x262;" horiz-adv-x="383" 
d="M33 359q0 67 41 110.5t115 43.5q36 0 65 -11.5t49 -32t31 -48.5t11 -61v-21h-102v11q0 61 -54 61t-54 -72v-175q0 -37 15.5 -54.5t43.5 -17.5t41.5 16.5t13.5 53.5v14h-60v86h156v-109q0 -34 -10 -63t-29.5 -50.5t-48.5 -33.5t-66 -12q-70 0 -114 40t-44 122v203z" />
    <glyph glyph-name="u0263" unicode="&#x263;" horiz-adv-x="366" 
d="M-1 507h106l77 -267h2l77 267h106l-131 -379q31 -60 50 -105.5t19 -95.5q0 -29 -8 -54t-24 -43.5t-38.5 -29.5t-51.5 -11q-56 0 -89 38t-33 100q0 45 21 96.5t48 104.5zM145 -73q0 -23 9 -38.5t29 -15.5q22 0 30 17.5t8 36.5q0 27 -11.5 55.5t-26.5 63.5q-16 -34 -27 -65
t-11 -54z" />
    <glyph glyph-name="u0264" unicode="&#x264;" horiz-adv-x="366" 
d="M-1 507h106l77 -166h2l77 166h106l-131 -243q2 -5 13 -18t23 -32t21.5 -42.5t9.5 -48.5q0 -57 -31 -93t-89 -36q-56 0 -88 35t-32 89q0 22 9 46t21 44t23 35t14 21zM147 119q0 -45 36 -45q20 0 28 13t8 32q0 13 -4 25t-10 22t-12 18t-10 14q-9 -11 -22.5 -33.5
t-13.5 -45.5z" />
    <glyph glyph-name="u0265" unicode="&#x265;" horiz-adv-x="389" 
d="M347.003 507v-711.957h-101.994v253.985h-2q-15.999 -23.999 -38.4971 -39.498q-22.499 -15.499 -57.4971 -15.499q-18.999 0 -37.9971 6.5q-18.999 6.49902 -33.998 21.498t-23.999 38.498q-8.99902 23.498 -8.99902 57.4961v388.977h101.993v-350.979
q0 -27.998 12.999 -43.9971q13 -15.999 36.998 -15.999q28.998 0 39.998 17.999q10.999 17.998 10.999 51.9961v340.979h101.994z" />
    <glyph glyph-name="u0266" unicode="&#x266;" horiz-adv-x="389" 
d="M205 616h-9q-13 0 -24 -3.5t-18 -14.5q-10 -17 -10 -60v-80h2q16 24 38.5 39.5t57.5 15.5q19 0 38 -6.5t34 -21.5t24 -38.5t9 -57.5v-389h-102v351q0 28 -13 44t-37 16q-29 0 -40 -18t-11 -52v-341h-102v545q0 38 9 71t30 56q17 18 42.5 29t70.5 11h11v-96z" />
    <glyph glyph-name="u0267" unicode="&#x267;" horiz-adv-x="389" 
d="M42 545q0 38 9 71t30 56q17 18 42.5 29t70.5 11h11v-96h-9q-13 0 -24 -3.5t-18 -14.5q-10 -17 -10 -60v-90h2q16 24 38.5 39.5t57.5 15.5q19 0 38 -6.5t34 -21.5t24 -38.5t9 -57.5v-433q0 -75 -47 -113t-119 -38v96q37 0 51 19q8 11 10.5 28.5t2.5 45.5v357q0 28 -13 44
t-37 16q-29 0 -40 -18t-11 -52v-331h-102v545z" />
    <glyph glyph-name="u0268" unicode="&#x268;" horiz-adv-x="204" 
d="M51 0v240h-55v60h55v207h102v-207h55v-60h-55v-240h-102zM51 610v102h102v-102h-102z" />
    <glyph glyph-name="u0269" unicode="&#x269;" horiz-adv-x="202" 
d="M144 183q0 -28 0.5 -46t7.5 -29t20 -14t28 -4v-96q-49 0 -79.5 10t-48 28.5t-24 46.5t-6.5 66v362h102v-324z" />
    <glyph glyph-name="u026A" unicode="&#x26a;" horiz-adv-x="194" 
d="M46 0v507h102v-507h-102z" />
    <glyph glyph-name="u026B" unicode="&#x26b;" horiz-adv-x="280" 
d="M89 330q-4 1 -7.5 1h-6.5q-20 0 -26.5 -14t-7.5 -34h-51q1 17 6 36t15.5 34.5t26 26t37.5 10.5q4 0 14 -2v324h102v-358q11 -4 19 -4q10 0 16 4.5t8.5 11t3 14.5t1.5 15h51q-1 -18 -5.5 -36.5t-13.5 -33.5t-23 -24.5t-35 -9.5q-10 0 -22 3v-151q0 -29 10.5 -39.5
t39.5 -13.5v-96q-35 0 -63 5.5t-48 21.5q-20 15 -30.5 42.5t-10.5 72.5v194z" />
    <glyph glyph-name="u026C" unicode="&#x26c;" horiz-adv-x="272" 
d="M102 457v255h102v-362h68v-60h-68v-147q0 -29 10.5 -39.5t39.5 -13.5v-96q-35 0 -63 5.5t-48 21.5q-20 15 -30.5 42.5t-10.5 72.5v154h-14q-38 0 -63 19t-25 69q0 23 7.5 38.5t19.5 24.5t27.5 12.5t31.5 3.5h16zM52 380q0 -30 31 -30h19v59h-16q-34 0 -34 -29z" />
    <glyph glyph-name="u026D" unicode="&#x26d;" horiz-adv-x="178" 
d="M36 712h102v-764q0 -8 2 -23t13 -23q15 -12 45 -12v-96q-35 0 -68 5.5t-53 21.5q-20 15 -30.5 42.5t-10.5 72.5v776z" />
    <glyph glyph-name="u026E" unicode="&#x26e;" horiz-adv-x="457" 
d="M327 252q31 -8 51 -21.5t31.5 -32t15.5 -41t4 -49.5v-133q0 -38 -9 -71.5t-28.5 -59t-50 -40.5t-72.5 -15q-32 0 -58.5 11.5t-46 32t-31 48.5t-13.5 60h96q4 -24 16.5 -40t41.5 -16q28 0 38.5 18t10.5 48v150q0 32 -15.5 53t-52.5 21h-32v75l89 167h-174v-274
q0 -29 10.5 -39.5t39.5 -13.5v-96q-35 0 -63 5.5t-48 21.5q-20 15 -30.5 42.5t-10.5 72.5v576h102v-205h285v-81z" />
    <glyph glyph-name="u026F" unicode="&#x26f;" horiz-adv-x="592" 
d="M550.003 507v-506.969h-101.994v48.9971h-2q-15.999 -23.999 -38.4971 -39.498q-22.499 -15.499 -57.4971 -15.499q-32.998 0 -54.9961 15.999q-21.999 15.999 -35.998 34.998q-18.999 -20.999 -41.998 -35.998q-22.998 -14.999 -63.9961 -14.999q-18.998 0 -38.9971 6.5
q-19.999 6.49902 -35.998 21.498t-25.998 38.498q-10 23.498 -10 57.4961v388.977h101.994v-350.979q0 -27.998 12.999 -43.9971t36.998 -15.999q28.998 0 39.9971 17.999q11 17.998 11 51.9961v340.979h101.993v-350.979q0 -27.998 12.999 -43.9971
q13 -15.999 36.998 -15.999q28.998 0 39.998 17.999q10.999 17.998 10.999 51.9961v340.979h101.994z" />
    <glyph glyph-name="u0270" unicode="&#x270;" horiz-adv-x="592" 
d="M550 507v-712h-102v254h-2q-16 -24 -38.5 -39.5t-57.5 -15.5q-33 0 -55 16t-36 35q-19 -21 -42 -36t-64 -15q-19 0 -39 6.5t-36 21.5t-26 38.5t-10 57.5v389h102v-351q0 -28 13 -44t37 -16q29 0 40 18t11 52v341h102v-351q0 -28 13 -44t37 -16q29 0 40 18t11 52v341h102z
" />
    <glyph glyph-name="u0271" unicode="&#x271;" horiz-adv-x="592" 
d="M447 65h1v286q0 28 -13 44t-37 16q-29 0 -40 -18t-11 -52v-341h-102v351q0 28 -13 44t-37 16q-29 0 -40 -18t-11 -52v-341h-102v507h102v-49h2q16 24 38.5 39.5t57.5 15.5q33 0 55 -16t36 -35q19 21 42 36t64 15q19 0 39 -6.5t36 -21.5t26 -38.5t10 -57.5v-389h-1v-54
q0 -75 -47 -113t-119 -38v96q37 0 51 19q8 11 10.5 28.5t2.5 45.5v81z" />
    <glyph glyph-name="u0272" unicode="&#x272;" horiz-adv-x="397" 
d="M50 507h102v-49h2q16 24 38.5 39.5t57.5 15.5q19 0 38 -6.5t34 -21.5t24 -38.5t9 -57.5v-389h-102v351q0 28 -13 44t-37 16q-29 0 -40 -18t-11 -52v-395q0 -75 -47 -113t-119 -38v96q37 0 51 19q8 11 10.5 28.5t2.5 45.5v523z" />
    <glyph glyph-name="u0273" unicode="&#x273;" horiz-adv-x="393" 
d="M42 0v507h102v-49h2q16 24 38.5 39.5t57.5 15.5q19 0 38 -6.5t34 -21.5t24 -38.5t9 -57.5v-405q0 -28 2.5 -45.5t10.5 -28.5q14 -19 51 -19v-96q-72 0 -119 38t-47 113v405q0 28 -13 44t-37 16q-29 0 -40 -18t-11 -52v-341h-102z" />
    <glyph glyph-name="u0274" unicode="&#x274;" horiz-adv-x="396" 
d="M42 0v507h94l116 -296h2v296h100v-507h-92l-118 292h-2v-292h-100z" />
    <glyph glyph-name="u0275" unicode="&#x275;" 
d="M33 337q0 31 4 57t15 46q18 33 51.5 53t81.5 20t81.5 -20t51.5 -53q11 -20 15 -46t4 -57v-167q0 -31 -4 -57t-15 -46q-18 -33 -51.5 -53t-81.5 -20t-81.5 20t-51.5 53q-11 20 -15 46t-4 57v167zM129 154q0 -29 16.5 -44.5t39.5 -15.5t39.5 15.5t16.5 44.5v62h-112v-62z
M129 299h112v54q0 29 -16.5 44.5t-39.5 15.5t-39.5 -15.5t-16.5 -44.5v-54z" />
    <glyph glyph-name="u0276" unicode="&#x276;" horiz-adv-x="530" 
d="M246 0v31h-2q-14 -21 -33.5 -29t-43.5 -8q-37 0 -62.5 14t-41.5 37.5t-23 55t-7 66.5v176q0 32 6.5 62.5t22 54.5t41.5 38.5t64 14.5q17 0 40 -6.5t37 -32.5h2v33h270v-90h-170v-117h140v-90h-140v-120h170v-90h-270zM135 164q0 -37 15 -52.5t41 -15.5q25 0 39.5 15.5
t14.5 52.5v179q0 37 -15.5 52.5t-41.5 15.5t-39.5 -15.5t-13.5 -52.5v-179z" />
    <glyph glyph-name="u0277" unicode="&#x277;" horiz-adv-x="530" 
d="M264 70q-6 -13 -16 -26.5t-24.5 -24t-33 -17t-40.5 -6.5q-35 0 -58 12.5t-36 34.5t-18 51.5t-5 64.5v153q0 51 18 88t49 60.5t73.5 35t91.5 11.5q46 0 88 -10.5t74 -33.5t51 -60t19 -91v-153q0 -35 -5 -64.5t-18 -51.5t-36 -34.5t-58 -12.5q-23 0 -41 6.5t-32.5 17
t-24.5 24t-16 26.5h-2zM316 135q0 -11 10.5 -25t29.5 -14q14 0 22 5t11.5 14t4.5 20t1 23v155q0 27 -11 48t-29 35t-41.5 21t-48.5 7q-26 0 -49.5 -7t-41.5 -21t-28.5 -35t-10.5 -48v-155q0 -12 1 -23t4.5 -20t11.5 -14t22 -5q19 0 29.5 14t10.5 25v165h102v-165z" />
    <glyph glyph-name="u0278" unicode="&#x278;" horiz-adv-x="540" 
d="M507 198q0 -98 -49 -150t-137 -52v-201h-102v201q-88 0 -137 52t-49 150v111q0 98 49 150t137 52v201h102v-201q88 0 137 -52t49 -150v-111zM135 178q0 -20 3 -36.5t12 -27.5q13 -16 29.5 -21t39.5 -4v329q-23 1 -39.5 -4t-29.5 -21q-9 -11 -12 -27.5t-3 -36.5v-151z
M405 329q0 20 -3 36.5t-12 27.5q-13 16 -29.5 21t-39.5 4v-329q23 -1 39.5 4t29.5 21q9 11 12 27.5t3 36.5v151z" />
    <glyph glyph-name="u0279" unicode="&#x279;" horiz-adv-x="278" 
d="M236.003 507v-506.969h-101.994v53.9961q-30.998 -27.998 -60.9961 -43.9971t-73.9961 -15.999v107.993q14.999 -5.99902 30.999 -5.99902q15.998 0 34.4971 5.49902q18.499 5.5 33.498 18.499q15.999 12.999 25.999 33.998q9.99902 20.999 9.99902 51.9971v300.981
h101.994z" />
    <glyph glyph-name="u027A" unicode="&#x27a;" horiz-adv-x="278" 
d="M236 712v-712h-102v54q-31 -28 -61 -44t-74 -16v108q15 -6 31 -6t34.5 5.5t33.5 18.5q16 13 26 34t10 52v506h102z" />
    <glyph glyph-name="u027B" unicode="&#x27b;" horiz-adv-x="283" 
d="M297 -205h-11q-45 0 -70.5 11t-42.5 29q-21 23 -30 56t-9 71v92q-31 -28 -61 -44t-74 -16v108q15 -6 31 -6t34.5 5.5t33.5 18.5q16 13 26 34t10 52v301h102v-538q0 -43 10 -60q7 -11 18 -14.5t24 -3.5h9v-96z" />
    <glyph glyph-name="u027C" unicode="&#x27c;" horiz-adv-x="278" 
d="M42 -205v712h102v-54q31 28 61 44t74 16v-108q-15 6 -31 6t-34.5 -5.5t-33.5 -18.5q-16 -13 -26 -34t-10 -52v-506h-102z" />
    <glyph glyph-name="u027D" unicode="&#x27d;" horiz-adv-x="278" 
d="M205 -205h-11q-45 0 -70.5 11t-42.5 29q-21 23 -30 56t-9 71v545h102v-54q31 28 61 44t74 16v-108q-15 6 -31 6t-34.5 -5.5t-33.5 -18.5q-16 -13 -26 -34t-10 -52v-332q0 -43 10 -60q7 -11 18 -14.5t24 -3.5h9v-96z" />
    <glyph glyph-name="u027E" unicode="&#x27e;" horiz-adv-x="274" 
d="M42 0v313q0 11 1 28.5t6 37t15 40t27 37.5q19 19 39.5 30.5t43 17t47.5 7.5t54 2v-105q-15 3 -30 3q-16 0 -36.5 -4.5t-37.5 -23.5q-27 -29 -27 -83v-300h-102z" />
    <glyph glyph-name="u027F" unicode="&#x27f;" horiz-adv-x="274" 
d="M130 -205v505q0 54 -27 83q-17 19 -37.5 23.5t-36.5 4.5q-15 0 -30 -3v105q28 0 53.5 -2t48 -7.5t43 -17t39.5 -30.5q17 -17 27 -37.5t15 -40t6 -37t1 -28.5v-518h-102z" />
    <glyph glyph-name="u0280" unicode="&#x280;" horiz-adv-x="371" 
d="M144 0h-102v507h138q88 0 129.5 -38.5t41.5 -124.5q0 -30 -7.5 -53.5t-18 -40t-21.5 -26.5t-19 -13l76 -211h-106l-61 190h-50v-190zM144 411v-131h45q38 0 50 15.5t12 50.5q0 34 -12.5 48.5t-54.5 16.5h-40z" />
    <glyph glyph-name="u0281" unicode="&#x281;" horiz-adv-x="371" 
d="M144 507h-102v-506.969h138q88 0 129.5 38.4971q41.5 38.498 41.5 124.493q0 29.998 -7.5 53.4961q-7.5 23.499 -18 39.998t-21.5 26.498t-19 12.999l76 210.987h-106l-61 -189.988h-50v189.988zM144 96.0254v130.992h45q38 0 50 -15.5q12 -15.499 12 -50.4961
q0 -33.998 -12.5 -48.4971t-54.5 -16.499h-40z" />
    <glyph glyph-name="u0282" unicode="&#x282;" horiz-adv-x="355" 
d="M185 -205h-6q-45 0 -72.5 11.5t-45.5 29.5q-22 23 -30.5 55.5t-8.5 70.5v185h92q6 -57 64 -57q22 0 39.5 14.5t17.5 40.5q0 21 -11 36t-40 26l-49 18q-48 18 -75.5 53.5t-27.5 86.5q0 32 12 59.5t33 47.5q20 20 47 30.5t58 10.5t57.5 -11t45.5 -31t30 -47.5t11 -58.5h-96
q-1 26 -16.5 39t-35.5 13q-24 0 -37 -15.5t-13 -35.5q0 -14 7 -27.5t36 -24.5l60 -24q57 -22 78.5 -60t21.5 -83q0 -29 -10 -57t-28 -49q-20 -23 -48 -35t-62 -12q-16 0 -35.5 4.5t-31.5 13.5h-2v-43q0 -23 3.5 -37t10.5 -23q8 -10 21.5 -14t26.5 -4h9v-96z" />
    <glyph glyph-name="u0283" unicode="&#x283;" horiz-adv-x="214" 
d="M56 576q0 37 11 62.5t30 42.5q18 17 41.5 24t48.5 7h47v-96h-46q-30 0 -30 -35v-650q0 -37 -11 -62.5t-30 -42.5q-18 -17 -41.5 -24t-48.5 -7h-47v96h36q8 0 18 3t15 10q4 5 5.5 14.5t1.5 17.5v640z" />
    <glyph glyph-name="u0284" unicode="&#x284;" horiz-adv-x="230" 
d="M166 0v-69q0 -37 -11 -62.5t-30 -42.5q-18 -17 -41.5 -24t-48.5 -7h-47v96h36q8 0 18 3t15 10q4 5 5.5 14.5t1.5 17.5v64h-68v60h68v516q0 37 11 62.5t30 42.5q18 17 41.5 24t48.5 7h47v-96h-46q-30 0 -30 -35v-521h68v-60h-68z" />
    <glyph glyph-name="u0285" unicode="&#x285;" horiz-adv-x="214" 
d="M158 -64q0 -8 1.5 -17.5t5.5 -14.5q5 -7 15 -10t18 -3h36v-96h-47q-25 0 -48.5 7t-41.5 24q-19 17 -30 42.5t-11 62.5v445q0 35 -30 35h-46v96h47q25 0 48.5 -7t41.5 -24q19 -17 30 -42.5t11 -62.5v-435z" />
    <glyph glyph-name="u0286" unicode="&#x286;" horiz-adv-x="312" 
d="M256 -5q0 -15 -1.5 -38t-6.5 -36q8 -17 16.5 -35t16.5 -34q9 -18 17 -36l-64 -27l-9 18q-4 8 -8 17t-9 19q-13 -20 -36.5 -37t-65.5 -17q-27 0 -50 7.5t-40 22.5t-26.5 37t-9.5 51q0 48 30.5 82t88.5 34q14 0 28 -2.5t27 -8.5v564q0 37 11 62.5t30 42.5q18 17 41.5 24
t48.5 7h47v-96h-46q-30 0 -30 -35v-586zM103 -126q24 0 37.5 17.5t13.5 43.5q-9 7 -20 12.5t-27 5.5q-22 0 -33.5 -13t-11.5 -30q0 -13 10 -24.5t31 -11.5z" />
    <glyph glyph-name="u0287" unicode="&#x287;" horiz-adv-x="204" 
d="M162.003 154.031v-153.991h-101.994v153.991h-62.9961v79.9951h62.9961v280.982q0 17.999 -3.5 27.998q-3.5 10 -11.499 14.999q-8 5 -19.499 6t-28.498 1v95.9941h41.9971q34.998 0 58.4971 -10.999q23.498 -11 37.4971 -27.999q13.999 -16.998 20.499 -38.4971
t6.5 -41.498v-307.98h50.9961v-79.9951h-50.9961z" />
    <glyph glyph-name="u0288" unicode="&#x288;" horiz-adv-x="204" 
d="M42 507v154h102v-154h63v-80h-63v-486q0 -18 3.5 -28t11.5 -15t19.5 -6t28.5 -1v-96h-42q-35 0 -58.5 11t-37.5 28t-20.5 38.5t-6.5 41.5v513h-51v80h51z" />
    <glyph glyph-name="u0289" unicode="&#x289;" horiz-adv-x="393" 
d="M349 240v-240h-102v49h-2q-16 -24 -38.5 -39.5t-57.5 -15.5q-19 0 -38 6.5t-34 21.5t-24 38.5t-9 57.5v122h-48v60h48v207h102v-207h101v207h102v-207h48v-60h-48zM196 96q29 0 40 18t11 52v74h-101v-84q0 -28 13 -44t37 -16z" />
    <glyph glyph-name="u028A" unicode="&#x28a;" horiz-adv-x="402" 
d="M259 335q0 30 -3.5 47t-9 27t-10.5 13.5t-8 6.5v78h156v-85h-74v-5q16 -8 26.5 -21t15.5 -29t7 -32.5t2 -30.5v-143q0 -35 -10.5 -64.5t-28.5 -50.5q-45 -52 -121 -52q-33 0 -64.5 12t-54.5 38q-19 22 -30 51t-11 66v143q0 14 2 30.5t7 32.5t15 29t27 21v5h-74v85h156
v-78q-3 -3 -8 -6.5t-10.5 -13.5t-9 -27t-3.5 -47v-169q0 -38 16.5 -54t41.5 -16t41.5 17t16.5 55v167z" />
    <glyph glyph-name="u028B" unicode="&#x28b;" horiz-adv-x="389" 
d="M144 507v-351q0 -28 13 -44t37 -16q29 0 40 18t11 52v192v23t-2 36.5t-6.5 43.5t-13.5 46h97q10 -22 16 -45t8 -43t2.5 -36t0.5 -25v-197q0 -33 -10.5 -70.5t-39.5 -61.5q-18 -15 -36.5 -22.5t-33.5 -10.5q-18 -4 -33 -2q-38 0 -65.5 12.5t-42.5 27.5q-29 29 -36.5 60.5
t-7.5 65.5v347h102z" />
    <glyph glyph-name="u028C" unicode="&#x28c;" horiz-adv-x="352" 
d="M353 0.03125l-132 506.969h-90l-132 -506.969h108l68 323.979h2l68 -323.979h108z" />
    <glyph glyph-name="u028D" unicode="&#x28d;" horiz-adv-x="536" 
d="M535 0.03125l-120 506.969h-90l-56 -300.981h-2l-56 300.981h-90l-120 -506.969h108l62 314.98h2l57 -314.98h80l54 314.98h2l61 -314.98h108z" />
    <glyph glyph-name="u028E" unicode="&#x28e;" horiz-adv-x="352" 
d="M353 0.03125h-107.993l-69.9961 315.98h-2l-68.9951 -315.98h-104.994l145.991 594.963q7.99902 33.998 22.499 55.9971q14.499 21.999 33.4971 35.998q18.999 13.999 40.498 19.499q21.499 5.49902 44.4971 5.49902h27.998v-95.9941h-22.998q-14.999 0 -25.999 -4
q-10.999 -3.99902 -19.998 -17.998q-8 -14 -14.999 -39.498q-7 -25.498 -15.999 -70.4961z" />
    <glyph glyph-name="u028F" unicode="&#x28f;" horiz-adv-x="348" 
d="M225 0h-102v212l-122 295h106l66 -189h2l66 189h106l-122 -295v-212z" />
    <glyph glyph-name="u0290" unicode="&#x290;" horiz-adv-x="338" 
d="M308 -16q0 -28 2.5 -45.5t10.5 -28.5t18.5 -15t28.5 -4v-96q-76 0 -117 38t-41 113v54h-193v81l165 336h-152v90h268v-81l-165 -330h175v-112v0z" />
    <glyph glyph-name="u0291" unicode="&#x291;" horiz-adv-x="389" 
d="M123 88h40q3 7 7 16l8.5 17t10.5 20q24 44 49 58.5t57 14.5q15 0 31 -4.5t29 -16t21.5 -30t8.5 -46.5q0 -34 -10.5 -56.5t-30 -36t-46.5 -19t-61 -5.5h-51q-5 -11 -12 -24t-13 -26l-14 -30l-52 27q5 11 10 21q5 8 9 17t7 15h-104v81l171 336h-158v90h268v-81zM264 88
q29 0 39 8t10 23q0 27 -27 27q-12 0 -20.5 -7t-15 -16.5t-11 -19.5t-7.5 -15h32z" />
    <glyph glyph-name="u0292" unicode="&#x292;" horiz-adv-x="341" 
d="M211 252q31 -8 51 -21.5t31.5 -32t15.5 -41t4 -49.5v-133q0 -38 -9 -71.5t-28.5 -59t-50 -40.5t-72.5 -15q-32 0 -58.5 11.5t-46 32t-31 48.5t-13.5 60h96q4 -24 16.5 -40t41.5 -16q28 0 38.5 18t10.5 48v150q0 32 -15.5 53t-52.5 21h-32v75l89 167h-164v90h275v-81z" />
    <glyph glyph-name="u0293" unicode="&#x293;" horiz-adv-x="336" 
d="M206 252q31 -8 51 -21.5t31.5 -32t15.5 -41t4 -49.5v-113q0 -15 -1.5 -38t-6.5 -36q8 -17 16.5 -35t16.5 -34q9 -18 17 -36l-64 -27l-9 18q-4 8 -8 17t-9 19q-22 -25 -47.5 -39.5t-71.5 -14.5q-27 0 -51.5 9t-43.5 25.5t-30.5 40.5t-11.5 54q0 57 35 92.5t93 35.5
q14 0 35 -3.5t39 -17.5v86q0 64 -72 64h-32v75l89 167h-164v90h275v-81zM146 -126q26 0 43 18.5t17 45.5q-10 13 -26.5 20.5t-33.5 7.5q-24 0 -37 -14t-13 -31t12 -32t38 -15z" />
    <glyph glyph-name="u0294" unicode="&#x294;" horiz-adv-x="347" 
d="M192.01 0v225q29.998 5 52.4961 19.5q22.499 14.5 37.498 34.5q31.998 42 31.998 116v147q0 31 -4 57q-3.99902 26 -14.999 46q-17.999 33 -51.4971 53q-33.4971 20 -81.4941 20q-34.998 0 -63.4961 -12q-28.499 -12 -48.4971 -33q-39.998 -45 -39.998 -117h101.994
q0 31 13.499 45.5t36.498 14.5q22.998 0 36.4971 -14.5t13.499 -43.5v-147q0 -50 -24.998 -70t-66.9961 -20h-29.998v-321h101.994z" />
    <glyph glyph-name="u0295" unicode="&#x295;" horiz-adv-x="347" 
d="M155 0v225q-30 5 -52.5 19.5t-37.5 34.5q-32 42 -32 116v147q0 31 4 57t15 46q18 33 51.5 53t81.5 20q35 0 63.5 -12t48.5 -33q40 -45 40 -117h-102q0 31 -13.5 45.5t-36.5 14.5t-36.5 -14.5t-13.5 -43.5v-147q0 -50 25 -70t67 -20h30v-321h-102z" />
    <glyph glyph-name="u0296" unicode="&#x296;" horiz-adv-x="347" 
d="M192.01 712v-224.986q29.998 -5 52.4961 -19.499q22.499 -14.499 37.498 -34.498q31.998 -41.9971 31.998 -115.992v-146.991q0 -30.998 -4 -56.9971q-3.99902 -25.998 -14.999 -45.9971q-17.999 -32.998 -51.4971 -52.9961q-33.4971 -19.999 -81.4941 -19.999
q-34.998 0 -63.4961 11.999q-28.499 11.999 -48.4971 32.998q-39.998 44.9971 -39.998 116.993h101.994q0 -30.998 13.499 -45.4971q13.499 -14.5 36.498 -14.5q22.998 0 36.4971 14.5q13.499 14.499 13.499 43.4971v146.991q0 49.9971 -24.998 69.9951
q-24.998 19.999 -66.9961 19.999h-29.998v320.98h101.994z" />
    <glyph glyph-name="u0297" unicode="&#x297;" horiz-adv-x="351" 
d="M135 -59q0 -24 13.5 -37t36.5 -13q15 0 25 5.5t16.5 13t9.5 16.5t5 16h96q-3 -30 -15 -57.5t-31 -48.5t-46 -34t-60 -13q-48 0 -81.5 20t-51.5 53q-11 20 -15 46t-4 57v372q0 31 4 57t15 46q18 33 51.5 53t81.5 20q70 0 108.5 -45t43.5 -117h-96q-9 60 -56 60
q-23 0 -36.5 -14.5t-13.5 -43.5v-412z" />
    <glyph glyph-name="u0298" unicode="&#x298;" horiz-adv-x="426" 
d="M42 544q0 43 15 76t40 55q24 21 54.5 32t61.5 11t61.5 -11t55.5 -32q24 -22 39 -55t15 -76v-376q0 -45 -15 -77t-39 -53q-25 -22 -55.5 -33t-61.5 -11t-61.5 11t-54.5 33q-25 21 -40 53t-15 77v376zM144 168q0 -37 20.5 -54.5t48.5 -17.5t48.5 17.5t20.5 54.5v376
q0 37 -20.5 54.5t-48.5 17.5t-48.5 -17.5t-20.5 -54.5v-376zM168 310v102h90v-102h-90z" />
    <glyph glyph-name="u0299" unicode="&#x299;" horiz-adv-x="377" 
d="M42 0v507h132q30 0 62 -6t58 -28q24 -20 33.5 -47t9.5 -59q0 -11 -2 -25.5t-8 -29.5t-17.5 -29.5t-30.5 -24.5q21 -8 34 -20t20.5 -27t10 -31.5t2.5 -32.5q0 -32 -8.5 -59t-28.5 -48q-24 -25 -59 -32.5t-68 -7.5h-140zM144 85h41q11 0 21.5 2.5t19 9.5t13.5 19t5 31
q0 31 -11.5 50.5t-47.5 19.5h-41v-132zM144 297h40q31 0 43 19t12 51q0 23 -14 39t-39 16h-42v-125z" />
    <glyph glyph-name="u029A" unicode="&#x29a;" horiz-adv-x="406" 
d="M102.019 258q-21.999 -8 -36.498 -20t-22.998 -27q-8.5 -15 -11.5 -31.5q-2.99902 -16.5 -2.99902 -32.5q0 -32 10.999 -60.5t32.998 -49.5q25.998 -24 56.9961 -33.5t60.9971 -9.5q51.9961 0 93.4941 25.5q41.4971 25.5 65.4961 71.5q18.998 36 24.998 77t7 84
q0 15 -1 34t-5.5 41t-11.499 44.5q-7 22.5 -18.999 43.5q-22.999 41 -61.4961 69.5q-38.498 28.5 -90.4951 28.5q-28.998 0 -56.9961 -7.5t-53.9971 -30.5q-21.998 -19 -32.998 -47.5q-10.999 -28.5 -10.999 -60.5q0 -11 2 -25.5t8.49902 -29.5q6.5 -15 19.499 -29
t34.998 -25zM292.007 261q2 -30 -4.5 -68.5q-6.49902 -38.5 -24.498 -66.5q-22.999 -36 -71.9961 -36q-22.998 0 -39.9971 15.5t-16.999 45.5q0 11 2.5 23.5t10.499 21.5q8 10 20.999 14.5t29.998 4.5h21.999v85h-19.999q-36.998 0 -50.9971 22q-7 11 -8.49902 23.5
q-1.5 12.5 -1.5 19.5q0 20 13.999 36t38.9971 16q45.9971 0 68.9961 -35q15.999 -23 22.999 -56.5q6.99902 -33.5 7.99902 -64.5z" />
    <glyph glyph-name="u029B" unicode="&#x29b;" horiz-adv-x="392" 
d="M33 359q0 67 41 110.5t115 43.5q22 0 40 -5t35 -14q0 16 0.5 34.5t4.5 36.5t11 34.5t20 30.5q14 14 33.5 22.5t56.5 8.5h9v-96h-7q-13 0 -22 -3.5t-16 -14.5q-5 -9 -7 -23t-2 -37v-148h-102v16q0 28 -14 42t-40 14q-54 0 -54 -72v-175q0 -37 15.5 -54.5t43.5 -17.5
t41.5 16.5t13.5 53.5v14h-60v86h156v-109q0 -34 -10 -63t-29.5 -50.5t-48.5 -33.5t-66 -12q-70 0 -114 40t-44 122v203z" />
    <glyph glyph-name="u029C" unicode="&#x29c;" horiz-adv-x="391" 
d="M42 0v507h102v-207h103v207h102v-507h-102v215h-103v-215h-102z" />
    <glyph glyph-name="u029D" unicode="&#x29d;" horiz-adv-x="298" 
d="M256 -5q0 -15 -1.5 -38t-6.5 -36q8 -17 16.5 -35t16.5 -34q9 -18 17 -36l-64 -27l-9 18q-4 8 -8 17t-9 19q-13 -20 -36.5 -37t-65.5 -17q-27 0 -50 7.5t-40 22.5t-26.5 37t-9.5 51q0 48 30.5 82t88.5 34q14 0 28 -2.5t27 -8.5v495h102v-512zM154 610v102h102v-102h-102z
M103 -126q24 0 37.5 17.5t13.5 43.5q-9 7 -20 12.5t-27 5.5q-22 0 -33.5 -13t-11.5 -30q0 -13 10 -24.5t31 -11.5z" />
    <glyph glyph-name="u029E" unicode="&#x29e;" horiz-adv-x="389" 
d="M347.003 507v-711.957h-101.994v425.975h-2l-122.992 -220.986h-101.994l120.993 205.987l-145.991 300.981h110.993l91.9941 -218.986l48.9971 76.9951v141.991h101.994z" />
    <glyph glyph-name="u029F" unicode="&#x29f;" horiz-adv-x="323" 
d="M42 0v507h102v-405h167v-102h-269z" />
    <glyph glyph-name="u02A0" unicode="&#x2a0;" horiz-adv-x="394" 
d="M245 -205v251h-2q-17 -25 -40.5 -38.5t-53.5 -13.5q-37 0 -57.5 13t-33.5 33q-10 16 -13 42q-3 25 -3 81v193q0 42 4 67t13 42q25 48 89 48q19 0 33 -4t25 -11t20 -16.5t19 -20.5v84q0 38 9 71t30 56q17 18 42.5 29t70.5 11h11v-96h-9q-13 0 -24 -3.5t-18 -14.5
q-10 -17 -10 -60v-743h-102zM144 156q0 -24 10.5 -42t39.5 -18q22 0 36.5 15.5t14.5 39.5v197q0 28 -14 45.5t-37 17.5q-26 0 -38 -19t-12 -50v-186z" />
    <glyph glyph-name="u02A1" unicode="&#x2a1;" horiz-adv-x="347" 
d="M90 0v110h-68v60h68v151h30q42 0 67 20t25 70v147q0 29 -13.5 43.5t-36.5 14.5t-36.5 -14.5t-13.5 -45.5h-102q0 72 40 117q20 21 48.5 33t63.5 12q48 0 81.5 -20t51.5 -53q11 -20 15 -46t4 -57v-147q0 -74 -32 -116q-15 -20 -37.5 -34.5t-52.5 -19.5v-55h78v-60h-78
v-110h-102z" />
    <glyph glyph-name="u02A2" unicode="&#x2a2;" horiz-adv-x="347" 
d="M257.006 0v110h67.9951v60h-67.9951v151h-29.998q-41.998 0 -66.9961 20q-24.999 20 -24.999 70v147q0 29 13.499 43.5q13.5 14.5 36.498 14.5q22.999 0 36.498 -14.5t13.499 -45.5h101.994q0 72 -39.998 117q-19.999 21 -48.4971 33t-63.4961 12
q-47.9971 0 -81.4951 -20t-51.4971 -53q-10.999 -20 -14.999 -46q-3.99902 -26 -3.99902 -57v-147q0 -74 31.998 -116q14.999 -20 37.4971 -34.5q22.499 -14.5 52.4971 -19.5v-55h-77.9951v-60h77.9951v-110h101.994z" />
    <glyph glyph-name="u02A3" unicode="&#x2a3;" horiz-adv-x="628" 
d="M245 0v46q-10 -11 -19 -20.5t-20 -16.5t-25 -11t-33 -4q-64 0 -89 48q-9 17 -13 42t-4 67v193q0 55 3 81q6 50 47 75q19 13 57 13q30 0 53.5 -13.5t40.5 -38.5h2v251h102v-205h264v-81l-161 -330h161v-96h-366zM144 165q0 -31 12 -50t38 -19q23 0 37 17.5t14 45.5v197
q0 24 -14.5 39.5t-36.5 15.5q-29 0 -39.5 -18t-10.5 -42v-186zM347 417v-321l159 321h-159z" />
    <glyph glyph-name="u02A4" unicode="&#x2a4;" horiz-adv-x="647" 
d="M245 0v46q-10 -11 -19 -20.5t-20 -16.5t-25 -11t-33 -4q-64 0 -89 48q-9 17 -13 42t-4 67v193q0 55 3 81q6 50 47 75q19 13 57 13q30 0 53.5 -13.5t40.5 -38.5h2v251h102v-205h266v-81l-96 -174q31 -8 51 -21.5t31.5 -32t15.5 -41t4 -49.5v-133q0 -38 -9 -71.5t-28.5 -59
t-50 -40.5t-72.5 -15q-32 0 -58.5 11.5t-46 32t-31 48.5t-13.5 60h96q4 -24 16.5 -40t41.5 -16q28 0 38.5 18t10.5 48v150q0 32 -15.5 53t-52.5 21h-32v75l89 167h-155v-417h-102zM144 165q0 -31 12 -50t38 -19q23 0 37 17.5t14 45.5v197q0 24 -14.5 39.5t-36.5 15.5
q-29 0 -39.5 -18t-10.5 -42v-186z" />
    <glyph glyph-name="u02A5" unicode="&#x2a5;" horiz-adv-x="706" 
d="M440 88h40q3 7 7 16l8.5 17t10.5 20q24 44 49 58.5t57 14.5q15 0 31 -4.5t29 -16t21.5 -30t8.5 -46.5q0 -34 -10.5 -56.5t-30 -36t-46.5 -19t-61 -5.5h-51q-5 -11 -12 -24t-13 -26l-14 -30l-52 27q5 11 10 21q5 8 9 17t7 15h-193v46q-10 -11 -19 -20.5t-20 -16.5t-25 -11
t-33 -4q-64 0 -89 48q-9 17 -13 42t-4 67v193q0 55 3 81q6 50 47 75q19 13 57 13q30 0 53.5 -13.5t40.5 -38.5h2v251h102v-205h268v-81zM144 165q0 -31 12 -50t38 -19q23 0 37 17.5t14 45.5v197q0 24 -14.5 39.5t-36.5 15.5q-29 0 -39.5 -18t-10.5 -42v-186zM347 417v-311
l158 311h-158zM581 88q29 0 39 8t10 23q0 27 -27 27q-12 0 -20.5 -7t-15 -16.5t-11 -19.5t-7.5 -15h32z" />
    <glyph glyph-name="u02A6" unicode="&#x2a6;" horiz-adv-x="501" 
d="M377 365q-1 26 -15.5 39t-34.5 13q-24 0 -36 -15t-12 -32q0 -13 6.5 -29t35.5 -30l61 -28q53 -24 74 -57.5t21 -78.5q0 -62 -41 -105q-20 -21 -54 -31.5t-67 -10.5h-150q-35 0 -58.5 11t-37.5 28t-20.5 38.5t-6.5 41.5v308h-51v80h51v154h102v-154h141q21 6 44 6
q31 0 57.5 -11t45.5 -31t30 -47.5t11 -58.5h-96zM144 153q0 -27 12 -42t48 -15h120q22 0 39.5 11.5t17.5 37.5q0 21 -12.5 34.5t-44.5 27.5l-42 19q-51 23 -73 56.5t-22 81.5q0 17 3 33t10 30h-56v-274z" />
    <glyph glyph-name="u02A7" unicode="&#x2a7;" horiz-adv-x="400" 
d="M242 0h-77q-35 0 -58.5 11t-37.5 28t-20.5 38.5t-6.5 41.5v308h-51v80h51v154h102v-154h98v69q0 37 11 62.5t30 42.5q18 17 41.5 24t48.5 7h47v-96h-46q-30 0 -30 -35v-650q0 -37 -11 -62.5t-30 -42.5q-18 -17 -41.5 -24t-48.5 -7h-47v96h36q8 0 18 3t15 10q4 5 5.5 14.5
t1.5 17.5v64zM242 427h-98v-281q0 -28 15 -40q8 -6 18 -8t27 -2h38v331z" />
    <glyph glyph-name="u02A8" unicode="&#x2a8;" horiz-adv-x="564" 
d="M435 351q0 31 -13.5 45.5t-36.5 14.5t-36.5 -14.5t-13.5 -43.5v-140q20 22 46 29t43 7q26 0 49 -8t40 -23t27 -37.5t10 -51.5q0 -68 -40.5 -101.5t-108.5 -33.5q-15 0 -32.5 1.5t-35.5 6.5t-35 14.5t-31 25.5q-4 -4 -12 -11t-20.5 -14t-29.5 -12t-38 -5q-35 0 -59.5 11
t-38.5 28t-20.5 38.5t-6.5 41.5v308h-51v80h51v154h102v-154h63v-80h-63v-281q0 -25 10 -36q5 -6 13 -10t20 -4t21 3t15 7q7 4 13 10q-2 14 -2.5 23.5t-0.5 30.5v167q0 31 4 57t15 46q18 33 51.5 53t81.5 20q35 0 63.5 -12t48.5 -33q40 -45 40 -117h-102zM402 79
q29 0 42.5 15t13.5 33q0 6 -2 13t-8 13.5t-16 11t-26 4.5q-24 0 -41.5 -14.5t-26.5 -34.5q8 -20 26 -30.5t38 -10.5z" />
    <glyph glyph-name="u02A9" unicode="&#x2a9;" horiz-adv-x="586" 
d="M55 0v427h-50v80h50v69q0 37 11 62.5t30 42.5q18 17 41.5 24t48.5 7h47v-96h-46q-30 0 -30 -35v-74h86h102v-59h2q16 24 36.5 39.5t55.5 15.5q19 0 38 -6.5t34 -21.5t24 -38.5t9 -57.5v-433q0 -75 -47 -113t-119 -38v96q37 0 51 19q8 11 10.5 28.5t2.5 45.5v357
q0 28 -11.5 44t-35.5 16q-29 0 -39.5 -18t-10.5 -52v-331h-102v427h-86v-427h-102z" />
    <glyph glyph-name="u02AA" unicode="&#x2aa;" horiz-adv-x="497" 
d="M36 712h102v-569q0 -29 10 -39.5t39 -13.5h134q21 0 38.5 14.5t17.5 40.5q0 21 -11 36t-40 26l-49 18q-48 18 -75.5 53.5t-27.5 86.5q0 32 12 59.5t33 47.5q20 20 47 30.5t58 10.5t57.5 -11t45.5 -31t30 -47.5t11 -58.5h-96q-1 26 -16.5 39t-35.5 13q-24 0 -37 -15.5
t-13 -35.5q0 -14 7 -27.5t36 -24.5l60 -24q57 -22 78.5 -60t21.5 -83q0 -32 -11.5 -59.5t-31.5 -48.5q-42 -43 -107 -45h-135q-35 0 -63 5.5t-48 21.5q-20 15 -30.5 42.5t-10.5 72.5v576z" />
    <glyph glyph-name="u02AB" unicode="&#x2ab;" horiz-adv-x="489" 
d="M188 0q-35 0 -63 2.5t-48 18.5q-20 15 -30.5 42.5t-10.5 72.5v576h102v-563q0 -29 14 -41t46 -12v-1l162 322h-156v90h268v-81l-169 -330h169v-96h-284z" />
    <glyph glyph-name="u02AC" unicode="&#x2ac;" horiz-adv-x="536" 
d="M529 328l-115 -328h-84l-61 207h-2l-61 -207h-84l-115 328h100l61 -201h2l60 201h80l57 -201h2l60 201h100zM529 712l-115 -328h-84l-61 207h-2l-61 -207h-84l-115 328h100l61 -201h2l60 201h80l57 -201h2l60 201h100z" />
    <glyph glyph-name="u02AD" unicode="&#x2ad;" horiz-adv-x="469" 
d="M42 0v268h385v-268h-102v183h-181v-183h-102zM42 444v268h385v-268h-102v183h-181v-183h-102z" />
    <glyph glyph-name="u02AE" unicode="&#x2ae;" horiz-adv-x="389" 
d="M347 507v-712h-102v254h-2q-16 -24 -38.5 -39.5t-57.5 -15.5q-19 0 -38 6.5t-34 21.5t-24 38.5t-9 57.5v405q0 28 -2.5 45.5t-10.5 28.5q-14 19 -51 19v96q72 0 119 -38t47 -113v-405q0 -28 13 -44t37 -16q29 0 40 18t11 52v341h102z" />
    <glyph glyph-name="u02AF" unicode="&#x2af;" horiz-adv-x="389" 
d="M408 -211h-11q-45 0 -70.5 11t-42.5 29q-21 23 -30 56t-9 71v93h-2q-16 -24 -38.5 -39.5t-57.5 -15.5q-19 0 -38 6.5t-34 21.5t-24 38.5t-9 57.5v405q0 28 -2.5 45.5t-10.5 28.5q-14 19 -51 19v96q72 0 119 -38t47 -113v-405q0 -28 13 -44t37 -16q29 0 40 18t11 52v341
h102v-544q0 -43 10 -60q7 -11 18 -14.5t24 -3.5h9v-96z" />
    <glyph glyph-name="circumflex" unicode="&#x2c6;" horiz-adv-x="186" 
d="M-52 574l98 141h94l98 -141h-78l-67 95l-67 -95h-78z" />
    <glyph glyph-name="caron" unicode="&#x2c7;" horiz-adv-x="186" 
d="M238 715l-98 -141h-94l-98 141h78l67 -95l67 95h78z" />
    <glyph glyph-name="uni02C9" unicode="&#x2c9;" horiz-adv-x="186" 
d="M-44 607v60h274v-60h-274z" />
    <glyph glyph-name="breve" unicode="&#x2d8;" horiz-adv-x="186" 
d="M247 715q-21 -136 -154 -136t-154 136h51q2 -14 7.5 -27.5t17.5 -24.5t31 -17.5t47 -6.5t47 6.5t31 17.5t17.5 24.5t7.5 27.5h51z" />
    <glyph glyph-name="dotaccent" unicode="&#x2d9;" horiz-adv-x="186" 
d="M48 586v102h90v-102h-90z" />
    <glyph glyph-name="ring" unicode="&#x2da;" horiz-adv-x="186" 
d="M-9 660q0 42 30 72t72 30t72 -30t30 -72t-30 -72t-72 -30t-72 30t-30 72zM32 660q0 -26 17.5 -43.5t43.5 -17.5t43.5 17.5t17.5 43.5t-17.5 43.5t-43.5 17.5t-43.5 -17.5t-17.5 -43.5z" />
    <glyph glyph-name="ogonek" unicode="&#x2db;" horiz-adv-x="186" 
d="M195 -202q-15 -8 -39.5 -15t-57.5 -7q-42 0 -70.5 24.5t-28.5 66.5q0 24 7 43t20 35q13 15 29.5 28t36.5 27h51q-30 -29 -47 -62t-17 -64q0 -24 14.5 -38t34.5 -14q17 0 29.5 3.5t23.5 9.5z" />
    <glyph glyph-name="tilde" unicode="&#x2dc;" horiz-adv-x="186" 
d="M263 699q-5 -23 -12 -43t-19 -35t-29 -24t-41 -9q-12 0 -32.5 6t-42.5 14q-11 4 -21 7t-20 7q-20 6 -28 6q-21 0 -32 -12.5t-12 -32.5h-51q8 49 31 78q12 15 29 24t41 9q12 0 32.5 -6t42.5 -14t41.5 -14t27.5 -6q21 0 32 12.5t12 32.5h51z" />
    <glyph glyph-name="hungarumlaut" unicode="&#x2dd;" horiz-adv-x="186" 
d="M-54 574l90 141h108l-132 -141h-66zM108 574l90 141h108l-132 -141h-66z" />
    <glyph glyph-name="hookabovecomb" unicode="&#x309;" horiz-adv-x="192" 
d="M62 637q12 0 22.5 1t18.5 4q24 9 24 29q0 18 -19 26q-8 4 -20.5 5.5t-21.5 1.5q-13 0 -25.5 -2.5t-23 -5t-17 -5l-6.5 -2.5l-9 45l32 8q14 3 30 5.5t32 2.5q22 0 45.5 -4t40.5 -12q19 -9 30.5 -24t11.5 -35q0 -18 -8.5 -32t-22.5 -23q-29 -18 -72 -18v-28h-42v63z" />
    <glyph glyph-name="gravedblnosp" unicode="&#x30f;" horiz-adv-x="348" 
d="M68 715l90 -141h-66l-132 141h108zM230 715l90 -141h-66l-132 141h108z" />
    <glyph glyph-name="dotsubnosp" unicode="&#x323;" horiz-adv-x="186" 
d="M48 -160v102h90v-102h-90z" />
    <glyph glyph-name="u0370" unicode="&#x370;" horiz-adv-x="296" 
d="M48 0v712h102v-305h126v-90h-126v-317h-102z" />
    <glyph glyph-name="u0371" unicode="&#x371;" horiz-adv-x="273" 
d="M58 324q0 28 -0.5 46t-7.5 29t-20 14t-28 4v90q49 0 79.5 -10t48 -28.5t24 -47t6.5 -65.5v-56h103v-85h-103v-221h-102v330z" />
    <glyph glyph-name="u0372" unicode="&#x372;" horiz-adv-x="418" 
d="M158 0v622h-64v-164h-80v254h390v-254h-80v164h-64v-622h-102z" />
    <glyph glyph-name="u0373" unicode="&#x373;" horiz-adv-x="389" 
d="M377 507v-176h-74v91h-61v-626h-102v626h-1q-25 -1 -41.5 -8.5t-16.5 -37.5v-10v-10q0 -5 0.5 -11t1.5 -14h-72q-2 6 -4 23.5t-2 28.5v4q0 26 4 50.5t23 42.5q13 13 33.5 20t54.5 7h257z" />
    <glyph glyph-name="u0374" unicode="&#x374;" horiz-adv-x="228" 
d="M10 779l84 141h124l-152 -141h-56z" />
    <glyph glyph-name="u0375" unicode="&#x375;" horiz-adv-x="228" 
d="M218 -27l-84 -141h-124l152 141h56z" />
    <glyph glyph-name="u0376" unicode="&#x376;" horiz-adv-x="436" 
d="M286 0v442h-2l-134 -442h-102v712h102v-443h2l134 443h102v-712h-102z" />
    <glyph glyph-name="u0377" unicode="&#x377;" horiz-adv-x="401" 
d="M357 183v-47t7 -30q5 -9 14.5 -12t20.5 -4v-96q-43 -1 -70 9t-42 29.5t-20.5 48t-5.5 64.5v177h-2l-113 -322h-104v507h96v-322h2l112 322h105v-324z" />
    <glyph glyph-name="u037A" unicode="&#x37a;" horiz-adv-x="195" 
d="M115 -40v-65q0 -14 6.5 -25t24.5 -11h19v-64h-51q-40 0 -62 19t-22 50v96h85z" />
    <glyph glyph-name="u037B" unicode="&#x37b;" 
d="M220 353q0 29 -13.5 43.5t-36.5 14.5t-36.5 -14.5t-13.5 -45.5h-102q0 72 40 117q20 21 48.5 33t63.5 12q48 0 81.5 -20t51.5 -53q11 -20 15 -46t4 -57v-167q0 -31 -4 -57t-15 -46q-18 -33 -51.5 -53t-81.5 -20q-35 0 -63 12t-48 33q-41 41 -41 108h102q2 -17 11.5 -34
t38.5 -17q23 0 36.5 13t13.5 37v207v0z" />
    <glyph glyph-name="u037C" unicode="&#x37c;" 
d="M150.014 353q0 29 13.499 43.5t36.498 14.5q22.998 0 36.4971 -14.5q13.5 -14.5 13.5 -45.5h101.993q0 72 -39.9971 117q-19.999 21 -48.4971 33q-28.499 12 -63.4961 12q-47.9971 0 -81.4951 -20t-51.4971 -53q-10.999 -20 -14.999 -46t-4 -57v-167q0 -31 4 -57
t14.999 -46q17.999 -33 51.4971 -53t81.4951 -20q34.9971 0 62.9961 12q27.998 12 47.9971 33q40.9971 41 40.9971 108h-101.993q-2 -17 -11.5 -34q-9.49902 -17 -38.4971 -17q-22.999 0 -36.498 13t-13.499 37v207zM266.006 216v76h-75.9951v-76h75.9951z" />
    <glyph glyph-name="u037D" unicode="&#x37d;" 
d="M220 353q0 29 -13.5 43.5t-36.5 14.5t-36.5 -14.5t-13.5 -45.5h-102q0 72 40 117q20 21 48.5 33t63.5 12q48 0 81.5 -20t51.5 -53q11 -20 15 -46t4 -57v-167q0 -31 -4 -57t-15 -46q-18 -33 -51.5 -53t-81.5 -20q-35 0 -63 12t-48 33q-41 41 -41 108h102q2 -17 11.5 -34
t38.5 -17q23 0 36.5 13t13.5 37v207zM104 216v76h76v-76h-76z" />
    <glyph glyph-name="u037E" unicode="&#x37e;" horiz-adv-x="186" 
d="M42 -74v176h102v-102zM42 227v102h102v-102h-102z" />
    <glyph glyph-name="u037F" unicode="&#x37f;" horiz-adv-x="333" 
d="M285 712v-544q0 -73 -46 -122q-23 -24 -54.5 -38t-73.5 -14q-49 0 -81.5 21.5t-51.5 42.5l80 64q11 -11 25.5 -18.5t30.5 -7.5q9 0 21 3.5t23 13.5q11 9 18 25.5t7 43.5v530h102z" />
    <glyph glyph-name="u0384" unicode="&#x384;" horiz-adv-x="181" 
d="M23 583l37 129h98l-80 -129h-55z" />
    <glyph glyph-name="u0385" unicode="&#x385;" horiz-adv-x="308" 
d="M223 586v92h80v-92h-80zM100 586l37 129h88l-76 -129h-49zM5 586v92h80v-92h-80z" />
    <glyph glyph-name="u0386" unicode="&#x386;" horiz-adv-x="434" 
d="M281 249l-50 258h-2l-50 -258h102zM29 0l159 712h85l159 -712h-102l-30 153h-139l-30 -153h-102zM0 583l37 129h98l-80 -129h-55z" />
    <glyph glyph-name="u0387" unicode="&#x387;" horiz-adv-x="186" 
d="M42 227v102h102v-102h-102z" />
    <glyph glyph-name="u0388" unicode="&#x388;" horiz-adv-x="517" 
d="M195 0v712h304v-96h-202v-209h176v-96h-176v-209h202v-102h-304zM0 583l37 129h98l-80 -129h-55z" />
    <glyph glyph-name="u0389" unicode="&#x389;" horiz-adv-x="573" 
d="M195 0v712h102v-305h126v305h102v-712h-102v317h-126v-317h-102zM0 583l37 129h98l-80 -129h-55z" />
    <glyph glyph-name="u038A" unicode="&#x38a;" horiz-adv-x="351" 
d="M198 0v712h102v-712h-102zM0 583l37 129h98l-80 -129h-55z" />
    <glyph glyph-name="u038C" unicode="&#x38c;" horiz-adv-x="523" 
d="M139 544q0 43 15 76t40 55q24 21 54.5 32t61.5 11t61.5 -11t55.5 -32q24 -22 39 -55t15 -76v-376q0 -45 -15 -77t-39 -53q-25 -22 -55.5 -33t-61.5 -11t-61.5 11t-54.5 33q-25 21 -40 53t-15 77v376zM241 168q0 -37 20.5 -54.5t48.5 -17.5t48.5 17.5t20.5 54.5v376
q0 37 -20.5 54.5t-48.5 17.5t-48.5 -17.5t-20.5 -54.5v-376zM0 583l37 129h98l-80 -129h-55z" />
    <glyph glyph-name="u038E" unicode="&#x38e;" horiz-adv-x="555" 
d="M310 0v301l-140 411h108l82 -283h2l82 283h108l-140 -411v-301h-102zM0 583l37 129h98l-80 -129h-55z" />
    <glyph glyph-name="u038F" unicode="&#x38f;" horiz-adv-x="533" 
d="M283 0h-172v90h88v5q-17 7 -28 20.5t-18.5 29t-10.5 32.5t-3 31v336q0 43 15 76t39 55q25 21 58 32t64 11t64 -11t58 -32q24 -22 39 -55t15 -76v-336q0 -14 -3 -31t-10.5 -32.5t-19 -29t-27.5 -20.5v-5h88v-90h-172v83q3 3 10 9t14 18t12.5 30.5t5.5 47.5v352
q0 38 -23 57t-51 19t-51 -19t-23 -57v-352q0 -29 5.5 -47.5t12.5 -30.5t14 -18t10 -9v-83zM0 583l37 129h98l-80 -129h-55z" />
    <glyph glyph-name="u0390" unicode="&#x390;" horiz-adv-x="202" 
d="M144 183q0 -28 0.5 -46t7.5 -29t20 -14t28 -4v-96q-49 0 -79.5 10t-48 28.5t-24 46.5t-6.5 66v362h102v-324zM166 586v92h80v-92h-80zM43 586l37 129h88l-76 -129h-49zM-52 586v92h80v-92h-80z" />
    <glyph glyph-name="u0391" unicode="&#x391;" horiz-adv-x="407" 
d="M254 249l-50 258h-2l-50 -258h102zM2 0l159 712h85l159 -712h-102l-30 153h-139l-30 -153h-102z" />
    <glyph glyph-name="u0392" unicode="&#x392;" horiz-adv-x="426" 
d="M48 0v712h149q49 0 83.5 -15t56.5 -40t31.5 -57.5t9.5 -67.5v-26q0 -29 -4.5 -49t-13.5 -35q-17 -28 -52 -48q36 -17 53 -50t17 -90v-40q0 -94 -45.5 -144t-145.5 -50h-139zM150 330v-228h44q31 0 48.5 9t26.5 25t11 38t2 48q0 27 -3 47t-12 34q-10 14 -27 20.5t-45 6.5
h-45zM150 616v-196h46q51 0 68.5 25.5t17.5 74.5q0 48 -19.5 72t-70.5 24h-42z" />
    <glyph glyph-name="u0393" unicode="&#x393;" horiz-adv-x="342" 
d="M48 0v712h284v-96h-182v-616h-102z" />
    <glyph glyph-name="u0394" unicode="&#x394;" horiz-adv-x="407" 
d="M284 96l-80 411h-2l-79 -411h161zM405 0h-403l159 712h85z" />
    <glyph glyph-name="u0395" unicode="&#x395;" 
d="M48 0v712h304v-96h-202v-209h176v-96h-176v-209h202v-102h-304z" />
    <glyph glyph-name="u0396" unicode="&#x396;" horiz-adv-x="333" 
d="M15 0v90l192 526h-182v96h293v-81l-196 -535h196v-96h-303z" />
    <glyph glyph-name="u0397" unicode="&#x397;" horiz-adv-x="426" 
d="M48 0v712h102v-305h126v305h102v-712h-102v317h-126v-317h-102z" />
    <glyph glyph-name="u0398" unicode="&#x398;" horiz-adv-x="446" 
d="M42 544q0 43 15 76t40 55q24 21 59.5 32t66.5 11t66.5 -11t60.5 -32q24 -22 39 -55t15 -76v-376q0 -45 -15 -77t-39 -53q-25 -22 -60.5 -33t-66.5 -11t-66.5 11t-59.5 33q-25 21 -40 53t-15 77v376zM144 170q0 -18 7 -32t18.5 -23.5t25.5 -14t28 -4.5t28 4.5t25.5 14
t18.5 23.5t7 32v372q0 18 -7 32t-18.5 23.5t-25.5 14t-28 4.5t-28 -4.5t-25.5 -14t-18.5 -23.5t-7 -32v-372zM168 407h110v-90h-110v90z" />
    <glyph glyph-name="u0399" unicode="&#x399;" horiz-adv-x="204" 
d="M51 0v712h102v-712h-102z" />
    <glyph glyph-name="u039A" unicode="&#x39a;" horiz-adv-x="426" 
d="M48 0v712h102v-325h2l149 325h102l-139 -285l165 -427h-108l-116 316l-55 -103v-213h-102z" />
    <glyph glyph-name="u039B" unicode="&#x39b;" horiz-adv-x="387" 
d="M2 0l149 712h85l149 -712h-102l-89 497h-2l-88 -497h-102z" />
    <glyph glyph-name="u039C" unicode="&#x39c;" horiz-adv-x="556" 
d="M48 0v712h98l131 -377h2l130 377h99v-712h-102v433h-2l-101 -306h-51l-100 306h-2v-433h-102z" />
    <glyph glyph-name="u039D" unicode="&#x39d;" horiz-adv-x="444" 
d="M44 0v712h98l154 -429h2v429h102v-712h-96l-156 428h-2v-428h-102z" />
    <glyph glyph-name="u039E" unicode="&#x39e;" horiz-adv-x="352" 
d="M14 -25v102h324v-102h-324zM14 591v96h324v-96h-324zM80 286v95h192v-95h-192z" />
    <glyph glyph-name="u039F" unicode="&#x39f;" horiz-adv-x="426" 
d="M42 544q0 43 15 76t40 55q24 21 54.5 32t61.5 11t61.5 -11t55.5 -32q24 -22 39 -55t15 -76v-376q0 -45 -15 -77t-39 -53q-25 -22 -55.5 -33t-61.5 -11t-61.5 11t-54.5 33q-25 21 -40 53t-15 77v376zM144 168q0 -37 20.5 -54.5t48.5 -17.5t48.5 17.5t20.5 54.5v376
q0 37 -20.5 54.5t-48.5 17.5t-48.5 -17.5t-20.5 -54.5v-376z" />
    <glyph glyph-name="u03A0" unicode="&#x3a0;" horiz-adv-x="421" 
d="M48 0v712h325v-712h-102v622h-121v-622h-102z" />
    <glyph glyph-name="u03A1" unicode="&#x3a1;" horiz-adv-x="407" 
d="M48 0v712h153q42 0 74 -11t58 -39t36 -65.5t10 -101.5q0 -48 -5.5 -81t-23.5 -62q-21 -35 -56 -54.5t-92 -19.5h-52v-278h-102zM150 616v-242h49q31 0 48 9t25 25q8 15 9.5 37t1.5 49q0 25 -1 47.5t-9 39.5t-24 26t-46 9h-53z" />
    <glyph glyph-name="u03A3" unicode="&#x3a3;" horiz-adv-x="355" 
d="M18 0v90l150 290l-143 246v86h302v-96h-195l138 -236l-147 -278h214v-102h-319z" />
    <glyph glyph-name="u03A4" unicode="&#x3a4;" horiz-adv-x="332" 
d="M115 0v616h-118v96h338v-96h-118v-616h-102z" />
    <glyph glyph-name="u03A5" unicode="&#x3a5;" horiz-adv-x="388" 
d="M143 0v301l-140 411h108l82 -283h2l82 283h108l-140 -411v-301h-102z" />
    <glyph glyph-name="u03A6" unicode="&#x3a6;" horiz-adv-x="592" 
d="M233 98q-49 0 -87 16t-60 44q-16 20 -26.5 46t-16.5 54t-8.5 57t-2.5 55q0 64 12.5 122.5t41.5 90.5q26 29 65.5 41.5t81.5 12.5h12v75h102v-75h12q42 0 81.5 -12.5t65.5 -41.5q29 -32 41.5 -90.5t12.5 -122.5q0 -26 -2.5 -55t-8.5 -57t-16.5 -54t-26.5 -46
q-22 -28 -60 -44t-87 -16h-12v-98h-102v98h-12zM345 545v-357h22q25 0 42 9t28 24q7 9 12 25.5t8.5 36.5t5 42.5t1.5 43.5q0 20 -2 43t-6 44t-10 38.5t-14 26.5q-14 14 -30.5 18.5t-37.5 5.5h-19zM228 545q-21 -1 -37.5 -5.5t-30.5 -18.5q-8 -9 -14 -26.5t-10 -38.5t-6 -44
t-2 -43q0 -21 1.5 -43.5t5 -42.5t8.5 -36.5t12 -25.5q11 -15 28 -24t42 -9h22v357h-19z" />
    <glyph glyph-name="u03A7" unicode="&#x3a7;" horiz-adv-x="389" 
d="M-2 0l144 373l-133 339h108l77 -211l78 211h108l-136 -339l147 -373h-108l-89 240l-88 -240h-108z" />
    <glyph glyph-name="u03A8" unicode="&#x3a8;" horiz-adv-x="554" 
d="M226 712h102v-373h15q25 0 39.5 6.5t23.5 18.5q14 18 17 48t3 72v228h100v-231q0 -45 -5.5 -87t-25.5 -73q-22 -35 -59 -56.5t-92 -21.5h-16v-243h-102v712zM226 243h-16q-55 0 -92 21.5t-59 56.5q-20 31 -25.5 73t-5.5 87v231h100v-228q0 -42 3 -72t17 -48
q9 -12 23.5 -18.5t39.5 -6.5h15v-96z" />
    <glyph glyph-name="u03A9" unicode="&#x3a9;" horiz-adv-x="436" 
d="M186 0h-172v90h88v5q-17 7 -28 20.5t-18.5 29t-10.5 32.5t-3 31v336q0 43 15 76t39 55q25 21 58 32t64 11t64 -11t58 -32q24 -22 39 -55t15 -76v-336q0 -14 -3 -31t-10.5 -32.5t-19 -29t-27.5 -20.5v-5h88v-90h-172v83q3 3 10 9t14 18t12.5 30.5t5.5 47.5v352
q0 38 -23 57t-51 19t-51 -19t-23 -57v-352q0 -29 5.5 -47.5t12.5 -30.5t14 -18t10 -9v-83z" />
    <glyph glyph-name="u03AA" unicode="&#x3aa;" horiz-adv-x="204" 
d="M51 0v712h102v-712h-102zM-24 756v102h90v-102h-90zM138 756v102h90v-102h-90z" />
    <glyph glyph-name="u03AB" unicode="&#x3ab;" horiz-adv-x="388" 
d="M143 0v301l-140 411h108l82 -283h2l82 283h108l-140 -411v-301h-102zM68 756v102h90v-102h-90zM230 756v102h90v-102h-90z" />
    <glyph glyph-name="u03AC" unicode="&#x3ac;" horiz-adv-x="378" 
d="M257 0l-6 60h-2q-21 -38 -46.5 -52t-55.5 -14q-31 0 -52 13t-35 33q-16 22 -21.5 54.5t-5.5 68.5v193q0 42 7.5 67t19.5 42q16 23 40 35.5t56 12.5q28 0 50.5 -14.5t38.5 -47.5h2l5 56h100l-16 -253l21 -254h-100zM135 154q0 -24 10.5 -41t34.5 -17q27 0 39 20t17 58
l10 80l-10 83q-9 74 -51 74q-26 0 -38 -18t-12 -49v-190zM123 583l37 129h98l-80 -129h-55z" />
    <glyph glyph-name="u03AD" unicode="&#x3ad;" horiz-adv-x="372" 
d="M249 365q-2 29 -17 40.5t-35 11.5q-25 0 -39 -16t-14 -36q0 -7 1.5 -19.5t8.5 -23.5q14 -22 51 -22h30v-85h-32q-17 0 -30 -4.5t-21 -14.5q-8 -9 -10.5 -21.5t-2.5 -23.5q0 -30 17 -45.5t40 -15.5q29 0 44.5 15t17.5 42h96q-1 -38 -15 -66.5t-35 -47.5q-20 -19 -49.5 -29
t-59.5 -10t-61 9.5t-57 33.5q-22 21 -33 49.5t-11 60.5q0 16 3 32.5t11.5 31.5t22.5 27t37 20q-22 11 -35 25t-19.5 29t-8.5 29.5t-2 25.5q0 32 11 60.5t33 47.5q26 23 54 30.5t57 7.5t57 -11t48 -31q19 -19 30 -48t13 -58h-96zM163 583l37 129h98l-80 -129h-55z" />
    <glyph glyph-name="u03AE" unicode="&#x3ae;" horiz-adv-x="389" 
d="M42 0v507h102v-49h2q16 24 38.5 39.5t57.5 15.5q19 0 38 -6.5t34 -21.5t24 -38.5t9 -57.5v-594h-102v556q0 28 -13 44t-37 16q-29 0 -40 -18t-11 -52v-341h-102zM173 583l37 129h98l-80 -129h-55z" />
    <glyph glyph-name="u03AF" unicode="&#x3af;" horiz-adv-x="202" 
d="M144 183q0 -28 0.5 -46t7.5 -29t20 -14t28 -4v-96q-49 0 -79.5 10t-48 28.5t-24 46.5t-6.5 66v362h102v-324zM63 583l37 129h98l-80 -129h-55z" />
    <glyph glyph-name="u03B0" unicode="&#x3b0;" horiz-adv-x="389" 
d="M144 507v-351q0 -28 13 -44t37 -16q29 0 40 18t11 52v192v23t-2 36.5t-6.5 43.5t-13.5 46h97q10 -22 16 -45t8 -43t2.5 -36t0.5 -25v-197q0 -33 -10.5 -70.5t-39.5 -61.5q-18 -15 -36.5 -22.5t-33.5 -10.5q-18 -4 -33 -2q-38 0 -65.5 12.5t-42.5 27.5q-29 29 -36.5 60.5
t-7.5 65.5v347h102zM253 586v92h80v-92h-80zM130 586l37 129h88l-76 -129h-49zM35 586v92h80v-92h-80z" />
    <glyph glyph-name="u03B1" unicode="&#x3b1;" horiz-adv-x="378" 
d="M257 0l-6 60h-2q-21 -38 -46.5 -52t-55.5 -14q-31 0 -52 13t-35 33q-16 22 -21.5 54.5t-5.5 68.5v193q0 42 7.5 67t19.5 42q16 23 40 35.5t56 12.5q28 0 50.5 -14.5t38.5 -47.5h2l5 56h100l-16 -253l21 -254h-100zM135 154q0 -24 10.5 -41t34.5 -17q27 0 39 20t17 58
l10 80l-10 83q-9 74 -51 74q-26 0 -38 -18t-12 -49v-190z" />
    <glyph glyph-name="u03B2" unicode="&#x3b2;" horiz-adv-x="389" 
d="M42 -205v753q0 33 8.5 65t27.5 55q18 23 47 36.5t68 13.5q43 0 73 -14t48 -38q18 -25 25.5 -58.5t7.5 -71.5q0 -21 -1.5 -39t-7.5 -33.5t-18 -28.5t-32 -23q33 -16 46 -40t13 -62v-172q0 -70 -24 -104q-17 -24 -38 -32t-47 -8q-27 0 -49 11.5t-43 40.5h-2v-251h-102z
M144 154q0 -17 5 -28t13 -18t17.5 -9.5t17.5 -2.5q19 0 33.5 13t14.5 42v169q0 20 -11.5 32t-32.5 12h-20v90h16q48 0 48 49v62q0 21 -11 39t-38 18q-21 0 -36.5 -14.5t-15.5 -58.5v-395z" />
    <glyph glyph-name="u03B3" unicode="&#x3b3;" horiz-adv-x="372" 
d="M22 507q34 0 58 -7t41 -26q13 -14 21 -36.5t14 -47.5l47 -199h2l63 316h105l-116 -484v-228h-102v228l-88 343q-9 31 -19 40q-8 7 -17.5 9t-17.5 2h-11v90h20z" />
    <glyph glyph-name="u03B4" unicode="&#x3b4;" 
d="M241 570q0 26 -14.5 39t-34.5 13q-24 0 -36 -13t-12 -31q0 -7 2 -14.5t10 -16t24 -18.5t45 -21q34 -14 56 -30t34.5 -36.5t17 -46t4.5 -58.5v-167q0 -31 -4 -57t-15 -46q-18 -33 -51.5 -53t-81.5 -20t-81.5 20t-51.5 53q-11 20 -15 46t-4 57v167q0 19 2.5 39.5t12 39.5
t28.5 33.5t51 20.5v2q-23 9 -38.5 20.5t-24.5 26t-12.5 30t-3.5 31.5q0 31 10.5 56.5t29.5 43.5t45 28t58 10q66 0 105 -41t41 -107h-96zM135 154q0 -29 13.5 -43.5t36.5 -14.5t36.5 14.5t13.5 43.5v199q0 29 -13.5 43.5t-36.5 14.5t-36.5 -14.5t-13.5 -43.5v-199z" />
    <glyph glyph-name="u03B5" unicode="&#x3b5;" horiz-adv-x="372" 
d="M249 365q-2 29 -17 40.5t-35 11.5q-25 0 -39 -16t-14 -36q0 -7 1.5 -19.5t8.5 -23.5q14 -22 51 -22h30v-85h-32q-17 0 -30 -4.5t-21 -14.5q-8 -9 -10.5 -21.5t-2.5 -23.5q0 -30 17 -45.5t40 -15.5q29 0 44.5 15t17.5 42h96q-1 -38 -15 -66.5t-35 -47.5q-20 -19 -49.5 -29
t-59.5 -10t-61 9.5t-57 33.5q-22 21 -33 49.5t-11 60.5q0 16 3 32.5t11.5 31.5t22.5 27t37 20q-22 11 -35 25t-19.5 29t-8.5 29.5t-2 25.5q0 32 11 60.5t33 47.5q26 23 54 30.5t57 7.5t57 -11t48 -31q19 -19 30 -48t13 -58h-96z" />
    <glyph glyph-name="u03B6" unicode="&#x3b6;" horiz-adv-x="336" 
d="M176 -109h12q17 0 34 9.5t18 38.5q0 10 -1 21t-6 20t-14 14.5t-25 5.5h-3q-45 0 -73 11.5t-48 41.5q-16 25 -22.5 60t-6.5 84v120v24t2.5 43t7.5 55t15 59q14 43 38.5 76t52.5 51v2h-131v85h277v-85h-28q-19 0 -35.5 -10t-30.5 -27.5t-25 -40t-19 -47.5q-7 -23 -11.5 -48
t-6.5 -49.5t-3 -47t-1 -38.5v-103q0 -9 0.5 -21t2 -24.5t4 -24t6.5 -18.5q17 -32 55 -32h2q32 0 54 -9t37 -26q22 -25 27 -54t5 -68q0 -33 -10.5 -59.5t-29 -45t-44 -29t-54.5 -10.5h-22v96z" />
    <glyph glyph-name="u03B7" unicode="&#x3b7;" horiz-adv-x="389" 
d="M42 0v507h102v-49h2q16 24 38.5 39.5t57.5 15.5q19 0 38 -6.5t34 -21.5t24 -38.5t9 -57.5v-594h-102v556q0 28 -13 44t-37 16q-29 0 -40 -18t-11 -52v-341h-102z" />
    <glyph glyph-name="u03B8" unicode="&#x3b8;" 
d="M33 542q0 31 4 57t15 46q18 33 51.5 53t81.5 20t81.5 -20t51.5 -53q11 -20 15 -46t4 -57v-372q0 -31 -4 -57t-15 -46q-18 -33 -51.5 -53t-81.5 -20t-81.5 20t-51.5 53q-11 20 -15 46t-4 57v372zM135 154q0 -29 13.5 -43.5t36.5 -14.5t36.5 14.5t13.5 43.5v162h-100v-162z
M135 401h100v157q0 29 -13.5 43.5t-36.5 14.5t-36.5 -14.5t-13.5 -43.5v-157z" />
    <glyph glyph-name="u03B9" unicode="&#x3b9;" horiz-adv-x="202" 
d="M144 183q0 -28 0.5 -46t7.5 -29t20 -14t28 -4v-96q-49 0 -79.5 10t-48 28.5t-24 46.5t-6.5 66v362h102v-324z" />
    <glyph glyph-name="u03BA" unicode="&#x3ba;" horiz-adv-x="389" 
d="M42 0v507h102v-221h2l123 221h102l-121 -206l146 -301h-111l-93 217l-48 -75v-142h-102z" />
    <glyph glyph-name="u03BB" unicode="&#x3bb;" horiz-adv-x="363" 
d="M363 -6q-24 0 -41.5 2t-30.5 6.5t-22.5 11.5t-17.5 16q-20 23 -28 58t-15 67l-30 149h-2l-72 -304h-104l133 484l-11 57q-3 15 -6.5 28.5t-10 24t-17.5 16.5t-29 6h-16v96h18q23 0 45 -4t41 -18q22 -16 34.5 -38.5t20.5 -56.5l101 -442q7 -29 16 -46t35 -17h9v-96v0z" />
    <glyph glyph-name="u03BC" unicode="&#x3bc;" horiz-adv-x="391" 
d="M347 507v-324v-46.5t7 -29.5t17 -14t18 -3v-96q-36 0 -58.5 5.5t-36 15.5t-21 23t-13.5 27h-2q-11 -38 -32 -54.5t-49 -16.5q-13 0 -21 5t-10 7h-2v-211h-102v712h102v-351q0 -28 13 -44t37 -16q27 0 39 20.5t12 49.5v341h102z" />
    <glyph glyph-name="u03BD" unicode="&#x3bd;" horiz-adv-x="347" 
d="M107 507l68 -324h2l52 219q5 18 6.5 35t1.5 26q0 13 -2.5 22t-10.5 22h107q3 -5 7 -14.5t4 -23.5q0 -5 -1.5 -14.5t-3.5 -20.5t-4.5 -22.5t-5.5 -21.5l-106 -390h-90l-132 507h108z" />
    <glyph glyph-name="u03BE" unicode="&#x3be;" horiz-adv-x="335" 
d="M175 -109h14q8 0 16.5 2t16 7.5t12.5 16t5 27.5q0 9 -1 18.5t-5.5 18t-12.5 14t-23 5.5h-2q-45 0 -74.5 11.5t-49.5 41.5q-16 25 -23.5 60t-7.5 70v34q0 16 1 39.5t8 47t22.5 43.5t45.5 31q-26 8 -40 24t-20 34.5t-7 36t-1 28.5q0 10 1.5 26.5t8 34.5t20 35t37.5 28v2
h-101v85h282v-85h-49q-32 0 -51 -13t-29.5 -32.5t-13.5 -41t-3 -39.5t2.5 -32.5t9.5 -25.5t19.5 -17t32.5 -6h27v-85h-32q-29 0 -45 -16q-16 -17 -19.5 -41.5t-3.5 -55.5v-11q0 -20 2 -47t16 -47q7 -10 20.5 -15.5t27.5 -5.5h2q26 0 49.5 -6.5t43.5 -28.5q20 -21 26 -52
t6 -70q0 -30 -9.5 -56.5t-27.5 -46t-44 -30.5t-58 -11h-21v96z" />
    <glyph glyph-name="u03BF" unicode="&#x3bf;" 
d="M33 337q0 31 4 57t15 46q18 33 51.5 53t81.5 20t81.5 -20t51.5 -53q11 -20 15 -46t4 -57v-167q0 -31 -4 -57t-15 -46q-18 -33 -51.5 -53t-81.5 -20t-81.5 20t-51.5 53q-11 20 -15 46t-4 57v167zM135 154q0 -29 13.5 -43.5t36.5 -14.5t36.5 14.5t13.5 43.5v199
q0 29 -13.5 43.5t-36.5 14.5t-36.5 -14.5t-13.5 -43.5v-199z" />
    <glyph glyph-name="u03C0" unicode="&#x3c0;" horiz-adv-x="393" 
d="M383 422h-42v-239v-30t3.5 -30t11.5 -23.5t25 -9.5h2v-96q-41 0 -69 9.5t-44.5 29t-23.5 50t-7 72.5v267h-91v-422h-102v422h-42v85h379v-85z" />
    <glyph glyph-name="u03C1" unicode="&#x3c1;" horiz-adv-x="372" 
d="M34 -205v551q-1 22 3 44q3 19 11 39t23 36q23 23 50.5 35.5t65.5 12.5q24 0 48 -6t55 -30q29 -23 39 -59.5t10 -71.5v-183q0 -29 -3.5 -59t-15 -54.5t-33.5 -40t-60 -15.5q-30 0 -51 13.5t-38 38.5h-2v-251h-102zM237 347q0 64 -50 64q-25 0 -38 -16t-13 -44v-200
q0 -24 14.5 -39.5t36.5 -15.5q29 0 39.5 18t10.5 42v191z" />
    <glyph glyph-name="u03C2" unicode="&#x3c2;" horiz-adv-x="364" 
d="M144 216q0 -9 0.5 -21t1.5 -24.5t3 -24t6 -18.5q17 -32 53 -32h13q32 0 52.5 -9t35.5 -26q22 -25 27 -54t5 -68q0 -33 -10.5 -59.5t-29 -45t-44 -29t-54.5 -10.5h-22v96h12q17 0 34 9.5t18 38.5q0 10 -0.5 21t-4 20t-12 14.5t-24.5 5.5h-12q-45 0 -73 11.5t-48 41.5
q-16 25 -22.5 60t-6.5 84v140q0 31 4 57t15 46q18 33 51.5 53t81.5 20q35 0 63.5 -12t48.5 -33q40 -45 40 -117h-102q0 31 -13.5 45.5t-36.5 14.5t-36.5 -14.5t-13.5 -43.5v-137z" />
    <glyph glyph-name="u03C3" unicode="&#x3c3;" horiz-adv-x="388" 
d="M42 330q0 35 8 67t26 56.5t47 39t71 14.5h179v-85h-57v-2q21 -18 25.5 -38.5t4.5 -44.5v-167q0 -31 -4 -57t-15 -46q-18 -33 -51.5 -53t-81.5 -20t-81.5 20t-51.5 53q-11 20 -15 46t-4 57v160zM144 159q0 -29 13.5 -46t36.5 -17t36.5 14.5t13.5 43.5v197q0 33 -6.5 46.5
t-17.5 24.5h-4q-26 0 -40 -7t-21.5 -19.5t-9 -29t-1.5 -34.5v-173z" />
    <glyph glyph-name="u03C4" unicode="&#x3c4;" horiz-adv-x="306" 
d="M304 417h-100v-234q0 -28 1 -47t7 -29q7 -11 16.5 -14t22.5 -3h4v-96h-10q-26 0 -43.5 2t-30 6.5t-21.5 11t-18 15.5q-18 19 -24 50t-6 69v269h-100v90h302v-90z" />
    <glyph glyph-name="u03C5" unicode="&#x3c5;" horiz-adv-x="389" 
d="M144 507v-351q0 -28 13 -44t37 -16q29 0 40 18t11 52v192v23t-2 36.5t-6.5 43.5t-13.5 46h97q10 -22 16 -45t8 -43t2.5 -36t0.5 -25v-197q0 -33 -10.5 -70.5t-39.5 -61.5q-18 -15 -36.5 -22.5t-33.5 -10.5q-18 -4 -33 -2q-38 0 -65.5 12.5t-42.5 27.5q-29 29 -36.5 60.5
t-7.5 65.5v347h102z" />
    <glyph glyph-name="u03C6" unicode="&#x3c6;" horiz-adv-x="540" 
d="M135 178q0 -20 3 -36.5t12 -27.5q13 -16 29.5 -21t39.5 -4v254q0 36 8.5 67t26.5 53.5t45 35t65 12.5q72 0 107.5 -42.5t35.5 -114.5v-175q0 -87 -50 -133.5t-136 -49.5v-201h-102v201q-88 0 -137 52t-49 150v138q0 36 8.5 69.5t32.5 59.5q20 23 50 34.5t66 11.5h7v-96
h-5q-35 0 -45.5 -16.5t-11.5 -51.5v-169zM321 89q15 0 30.5 2t28.5 13q15 12 20 30t5 38v174q0 31 -7.5 48t-33.5 17q-43 0 -43 -60v-262z" />
    <glyph glyph-name="u03C7" unicode="&#x3c7;" horiz-adv-x="376" 
d="M391 -205q-38 0 -63 6.5t-45 28.5q-12 13 -22 35t-18 48l-52 170l-98 -288h-108l153 395l-60 181q-11 29 -23 37q-13 9 -35 9h-11v90h13q24 0 47 -3t41 -15q19 -13 29 -30.5t19 -44.5l39 -123l72 216h108l-127 -317l81 -254q7 -24 22 -36q7 -5 16 -7t16 -2h6v-96v0z" />
    <glyph glyph-name="u03C8" unicode="&#x3c8;" horiz-adv-x="534" 
d="M500 179q0 -81 -47 -131t-130 -52v-201h-102v201q-87 0 -131 55t-44 147v151q0 35 -8.5 50.5t-37.5 17.5v90q37 0 65 -8t48 -30q25 -28 30 -64.5t5 -72.5v-154q0 -36 16 -62t57 -27v623h102v-623q36 0 55.5 23t19.5 61v175v23.5t-1.5 38.5t-6 47t-14.5 50h97
q11 -24 16.5 -48.5t8 -46t2.5 -38.5v-26v-169z" />
    <glyph glyph-name="u03C9" unicode="&#x3c9;" horiz-adv-x="530" 
d="M316 135q0 -11 10.5 -25t29.5 -14q14 0 22 5t11.5 14t4.5 20t1 23v188q0 36 -9.5 52.5t-35.5 16.5v96h18q37 0 62 -13t40 -35t21 -49.5t6 -57.5v-197q0 -35 -5 -64.5t-18 -51.5t-36 -34.5t-58 -12.5q-23 0 -41 6.5t-32.5 17t-24.5 24t-16 26.5h-2q-6 -13 -16 -26.5
t-24.5 -24t-33 -17t-40.5 -6.5q-35 0 -58 12.5t-36 34.5t-18 51.5t-5 64.5v197q0 30 6 57.5t21 49.5t39.5 35t62.5 13h18v-96q-26 0 -35.5 -16.5t-9.5 -52.5v-188q0 -12 1 -23t4.5 -20t11.5 -14t22 -5q19 0 29.5 14t10.5 25v165h102v-165z" />
    <glyph glyph-name="u03CA" unicode="&#x3ca;" horiz-adv-x="202" 
d="M144 183q0 -28 0.5 -46t7.5 -29t20 -14t28 -4v-96q-49 0 -79.5 10t-48 28.5t-24 46.5t-6.5 66v362h102v-324zM-33 586v102h90v-102h-90zM129 586v102h90v-102h-90z" />
    <glyph glyph-name="u03CB" unicode="&#x3cb;" horiz-adv-x="389" 
d="M144 507v-351q0 -28 13 -44t37 -16q29 0 40 18t11 52v192v23t-2 36.5t-6.5 43.5t-13.5 46h97q10 -22 16 -45t8 -43t2.5 -36t0.5 -25v-197q0 -33 -10.5 -70.5t-39.5 -61.5q-18 -15 -36.5 -22.5t-33.5 -10.5q-18 -4 -33 -2q-38 0 -65.5 12.5t-42.5 27.5q-29 29 -36.5 60.5
t-7.5 65.5v347h102zM57 586v102h90v-102h-90zM219 586v102h90v-102h-90z" />
    <glyph glyph-name="u03CC" unicode="&#x3cc;" 
d="M33 337q0 31 4 57t15 46q18 33 51.5 53t81.5 20t81.5 -20t51.5 -53q11 -20 15 -46t4 -57v-167q0 -31 -4 -57t-15 -46q-18 -33 -51.5 -53t-81.5 -20t-81.5 20t-51.5 53q-11 20 -15 46t-4 57v167zM135 154q0 -29 13.5 -43.5t36.5 -14.5t36.5 14.5t13.5 43.5v199
q0 29 -13.5 43.5t-36.5 14.5t-36.5 -14.5t-13.5 -43.5v-199zM153 583l37 129h98l-80 -129h-55z" />
    <glyph glyph-name="u03CD" unicode="&#x3cd;" horiz-adv-x="389" 
d="M144 507v-351q0 -28 13 -44t37 -16q29 0 40 18t11 52v192v23t-2 36.5t-6.5 43.5t-13.5 46h97q10 -22 16 -45t8 -43t2.5 -36t0.5 -25v-197q0 -33 -10.5 -70.5t-39.5 -61.5q-18 -15 -36.5 -22.5t-33.5 -10.5q-18 -4 -33 -2q-38 0 -65.5 12.5t-42.5 27.5q-29 29 -36.5 60.5
t-7.5 65.5v347h102zM161 583l37 129h98l-80 -129h-55z" />
    <glyph glyph-name="u03CE" unicode="&#x3ce;" horiz-adv-x="530" 
d="M316 135q0 -11 10.5 -25t29.5 -14q14 0 22 5t11.5 14t4.5 20t1 23v188q0 36 -9.5 52.5t-35.5 16.5v96h18q37 0 62 -13t40 -35t21 -49.5t6 -57.5v-197q0 -35 -5 -64.5t-18 -51.5t-36 -34.5t-58 -12.5q-23 0 -41 6.5t-32.5 17t-24.5 24t-16 26.5h-2q-6 -13 -16 -26.5
t-24.5 -24t-33 -17t-40.5 -6.5q-35 0 -58 12.5t-36 34.5t-18 51.5t-5 64.5v197q0 30 6 57.5t21 49.5t39.5 35t62.5 13h18v-96q-26 0 -35.5 -16.5t-9.5 -52.5v-188q0 -12 1 -23t4.5 -20t11.5 -14t22 -5q19 0 29.5 14t10.5 25v165h102v-165zM242 583l37 129h98l-80 -129h-55z
" />
    <glyph glyph-name="u03CF" unicode="&#x3cf;" horiz-adv-x="426" 
d="M258 -211h-108l166 211l-111 316l-55 -103v-213h-102v712h102v-325h2l149 325h102l-139 -285l160 -427z" />
    <glyph glyph-name="u03D0" unicode="&#x3d0;" horiz-adv-x="389" 
d="M42 548q0 33 8.5 65t27.5 55q18 23 47 36.5t68 13.5q43 0 73 -14t48 -38q18 -25 25.5 -58.5t7.5 -71.5q0 -21 -1.5 -39t-7.5 -33.5t-18 -28.5t-32 -23q33 -16 46 -40t13 -62v-140q0 -31 -4 -57t-15 -46q-18 -33 -51.5 -53t-81.5 -20t-82 19.5t-52 52.5q-11 20 -15 46.5
t-4 57.5v378zM144 154q0 -29 13.5 -43.5t36.5 -14.5t37 14.5t14 43.5v166q0 20 -11.5 32t-32.5 12h-20v90h16q48 0 48 49v62q0 21 -11 39t-38 18q-21 0 -36.5 -14.5t-15.5 -58.5v-395z" />
    <glyph glyph-name="u03D1" unicode="&#x3d1;" horiz-adv-x="393" 
d="M330 170q0 -31 -4 -57t-15 -46q-18 -33 -51.5 -53t-81.5 -20t-81.5 20t-51.5 53q-11 20 -15 46t-4 57v90h102v-106q0 -29 13.5 -43.5t36.5 -14.5t36.5 14.5t13.5 43.5v162q-15 0 -34.5 1t-39.5 6t-40 14t-35 24q-32 30 -40 60t-9 68v53q0 32 5.5 66t28.5 60
q19 23 47.5 36.5t66.5 13.5q67 0 108 -41q26 -26 34.5 -59.5t9.5 -75.5v-141h60v-85h-60v-146zM128 498q-2 -21 3.5 -41t14.5 -30q10 -11 27 -18.5t55 -7.5v157q0 58 -48 58q-23 0 -37.5 -14.5t-14.5 -43.5v-60z" />
    <glyph glyph-name="u03D2" unicode="&#x3d2;" horiz-adv-x="394" 
d="M146 0v301l-91 268q-5 16 -11 25t-13 13.5t-14.5 6t-16.5 2.5v96q33 0 62 -10t52 -38q14 -17 23 -39.5t17 -51.5l42 -144h2l42 144q8 29 17 51.5t23 39.5q23 28 52 38t62 10v-96q-9 -1 -17 -2.5t-14.5 -6t-12.5 -13.5t-11 -25l-91 -268v-301h-102z" />
    <glyph glyph-name="u03D3" unicode="&#x3d3;" horiz-adv-x="571" 
d="M323 0v301l-91 268q-5 16 -11 25t-13 13.5t-14.5 6t-16.5 2.5v96q33 0 62 -10t52 -38q14 -17 23 -39.5t17 -51.5l42 -144h2l42 144q8 29 17 51.5t23 39.5q23 28 52 38t62 10v-96q-9 -1 -17 -2.5t-14.5 -6t-12.5 -13.5t-11 -25l-91 -268v-301h-102zM0 583l37 129h98
l-80 -129h-55z" />
    <glyph glyph-name="u03D4" unicode="&#x3d4;" horiz-adv-x="394" 
d="M146 0v301l-91 268q-5 16 -11 25t-13 13.5t-14.5 6t-16.5 2.5v96q33 0 62 -10t52 -38q14 -17 23 -39.5t17 -51.5l42 -144h2l42 144q8 29 17 51.5t23 39.5q23 28 52 38t62 10v-96q-9 -1 -17 -2.5t-14.5 -6t-12.5 -13.5t-11 -25l-91 -268v-301h-102zM71 756v102h90v-102
h-90zM233 756v102h90v-102h-90z" />
    <glyph glyph-name="u03D5" unicode="&#x3d5;" horiz-adv-x="540" 
d="M507 198q0 -98 -49 -150t-137 -52v-201h-102v201q-88 0 -137 52t-49 150v111q0 98 49 150t137 52v201h102v-201q88 0 137 -52t49 -150v-111zM135 178q0 -20 3 -36.5t12 -27.5q13 -16 29.5 -21t39.5 -4v329q-23 1 -39.5 -4t-29.5 -21q-9 -11 -12 -27.5t-3 -36.5v-151z
M405 329q0 20 -3 36.5t-12 27.5q-13 16 -29.5 21t-39.5 4v-329q23 -1 39.5 4t29.5 21q9 11 12 27.5t3 36.5v151z" />
    <glyph glyph-name="u03D6" unicode="&#x3d6;" horiz-adv-x="530" 
d="M520 507v-90h-62v-2q17 -11 28 -31.5t11 -49.5v-175q0 -35 -5.5 -64.5t-19.5 -51.5t-37.5 -34.5t-58.5 -12.5q-23 0 -40.5 6.5t-31 17t-23 24t-15.5 26.5h-2q-6 -13 -15.5 -26.5t-23 -24t-31.5 -17t-40 -6.5q-35 0 -58.5 12.5t-37.5 34.5t-19.5 51.5t-5.5 64.5v175
q0 29 11 49.5t28 31.5v2h-62v90h510zM314 300v-165q0 -11 11.5 -25t30.5 -14q14 0 22 5t11.5 14t4.5 20t1 23v182q0 36 -12 54t-23 23h-190q-11 -5 -23 -23t-12 -54v-182q0 -12 1 -23t4.5 -20t11.5 -14t22 -5q19 0 30.5 14t11.5 25v165h98z" />
    <glyph glyph-name="u03D7" unicode="&#x3d7;" horiz-adv-x="435" 
d="M342 0q-28 6 -45 19t-26.5 31t-12.5 42t-3 53v122l-155 -267h-90l55 91v233q0 28 -0.5 46t-7.5 29t-18 14t-26 4v90q49 0 78 -10t44.5 -28.5t20.5 -47t5 -65.5v-116l155 267h90l-55 -91v-238q0 -28 0.5 -46t7.5 -29q6 -11 15.5 -14t23.5 -4h30v-86q0 -15 -0.5 -35
t-3.5 -41.5t-11 -42.5t-23 -39q-29 -33 -60 -39.5t-59 -6.5h-35v85h29q18 0 34 5t25 15q11 12 14.5 29.5t3.5 34.5v36v0z" />
    <glyph glyph-name="u03D8" unicode="&#x3d8;" horiz-adv-x="426" 
d="M162 0v175q-35 10 -65 37q-25 21 -40 53t-15 77v202q0 43 15 76t40 55q24 21 54.5 32t61.5 11t61.5 -11t55.5 -32q24 -22 39 -55t15 -76v-202q0 -45 -15 -77t-39 -53q-32 -27 -66 -37v-175h-102zM144 342q0 -37 20.5 -54.5t48.5 -17.5t48.5 17.5t20.5 54.5v202
q0 37 -20.5 54.5t-48.5 17.5t-48.5 -17.5t-20.5 -54.5v-202z" />
    <glyph glyph-name="u03D9" unicode="&#x3d9;" 
d="M134 -205v206q-28 8 -48.5 25.5t-33.5 40.5q-11 20 -15 46t-4 57v167q0 31 4 57t15 46q18 33 51.5 53t81.5 20t81.5 -20t51.5 -53q11 -20 15 -46t4 -57v-167q0 -31 -4 -57t-15 -46q-13 -23 -33.5 -40.5t-48.5 -25.5v-206h-102zM135 154q0 -29 13.5 -43.5t36.5 -14.5
t36.5 14.5t13.5 43.5v199q0 29 -13.5 43.5t-36.5 14.5t-36.5 -14.5t-13.5 -43.5v-199z" />
    <glyph glyph-name="u03DA" unicode="&#x3da;" horiz-adv-x="394" 
d="M167 -115h24q8 0 16.5 2t16 8t12.5 17t5 28q0 16 -6 26.5t-15.5 18t-21.5 13.5t-25 13q-27 15 -55 31t-46 42q-19 26 -24.5 55.5t-5.5 64.5v350q0 35 12 65t34 52t52.5 34.5t67.5 12.5q72 0 117 -47q22 -23 34.5 -54.5t12.5 -68.5v-40h-102v34q0 30 -17 52t-46 22
q-38 0 -50.5 -23.5t-12.5 -59.5v-305q0 -26 3 -44.5t11 -32.5q9 -15 26.5 -26.5t40.5 -24.5q26 -14 47.5 -26t36.5 -29q20 -22 26 -46t6 -60q0 -30 -10.5 -57t-29 -48t-45 -33t-58.5 -12h-31v96z" />
    <glyph glyph-name="u03DB" unicode="&#x3db;" 
d="M150 220q0 -18 2.5 -40t8.5 -33q8 -16 25.5 -27.5t49.5 -23.5q24 -9 49 -22.5t39 -31.5q16 -22 19.5 -45t3.5 -58q0 -33 -10.5 -59.5t-29 -45t-44 -29t-54.5 -10.5h-32v96h22q17 0 34 9.5t18 38.5q1 21 -7 37t-46 29q-45 15 -76 32.5t-45 37.5q-9 12 -14.5 24.5
t-8.5 26.5t-4.5 32.5t-1.5 42.5v136q0 31 4 57t15 46q18 33 51.5 53t81.5 20q35 0 63.5 -12t48.5 -33q40 -45 40 -117h-102q0 31 -13.5 45.5t-36.5 14.5t-36.5 -14.5t-13.5 -43.5v-133z" />
    <glyph glyph-name="u03DC" unicode="&#x3dc;" 
d="M48 0v712h304v-96h-202v-216h176v-96h-176v-304h-102z" />
    <glyph glyph-name="u03DD" unicode="&#x3dd;" horiz-adv-x="329" 
d="M72 -204v711h252v-90h-150v-117h106v-85h-106v-419h-102z" />
    <glyph glyph-name="u03DE" unicode="&#x3de;" horiz-adv-x="350" 
d="M10 317l100 395h102l-81 -305h209l-100 -407h-102l82 317h-210z" />
    <glyph glyph-name="u03DF" unicode="&#x3df;" horiz-adv-x="323" 
d="M315 299l-80 -299h-102l60 215h-185l80 292h102l-60 -208h185z" />
    <glyph glyph-name="u03E0" unicode="&#x3e0;" horiz-adv-x="404" 
d="M260 531v13q0 37 -20.5 54.5t-48.5 17.5t-48.5 -17.5t-20.5 -54.5v-37h-102v37q0 43 15 76t40 55q24 21 54.5 32t61.5 11t61.5 -11t55.5 -32q24 -22 39 -55t15 -76v-376q0 -45 -15 -77t-39 -53q-25 -22 -55 -33t-60 -11h-3v102h2q31 0 50 20q18 20 18 52v110l-65 -88h-61
l126 172v74l-178 -246h-62z" />
    <glyph glyph-name="u03E1" unicode="&#x3e1;" horiz-adv-x="364" 
d="M225 313l-4 52l-2 17l-150 -210h-62l201 286q-8 38 -22.5 72.5t-37.5 57.5q-27 26 -57 31.5t-65 5.5h-10v87h20q60 0 104 -14.5t77 -48.5q46 -48 66.5 -122t26.5 -158q3 -39 5 -79t3.5 -76.5t2.5 -66t1 -47.5v-100h-90v100q0 64 -3 135l-47 -63h-61z" />
    <glyph glyph-name="u03E2" unicode="&#x3e2;" horiz-adv-x="596" 
d="M287 66q-21 -40 -49 -56t-60 -16q-34 0 -59.5 13.5t-42.5 36.5t-25.5 53.5t-8.5 64.5v550h102v-547q0 -31 10.5 -50t42.5 -19q28 0 39 18t11 50v548h102v-548q0 -32 11 -50t39 -18q32 0 42.5 19t10.5 50v547h102v-747q0 -35 -9.5 -69t-34.5 -60q-20 -21 -53 -34t-71 -13
h-324v90h304q47 0 73 29q22 23 23 65v67h-2q-11 -18 -23 -27.5t-23 -13.5t-21 -4.5t-17 -0.5q-32 0 -54 19.5t-33 52.5h-2z" />
    <glyph glyph-name="u03E3" unicode="&#x3e3;" horiz-adv-x="574" 
d="M430 49h-2q-13 -23 -32.5 -39t-54.5 -16q-33 0 -54 16t-34 38q-8 -10 -17 -20t-20.5 -17.5t-26.5 -12t-36 -4.5q-19 0 -39 6.5t-36 21.5t-26 38.5t-10 57.5v389h102v-351q0 -28 12 -44t36 -16q25 0 34.5 18t9.5 52v341h102v-351q0 -28 11.5 -44t34.5 -16q26 0 36 18
t10 52v341h102v-529q0 -43 -11.5 -77.5t-31.5 -55.5q-22 -24 -58 -37t-74 -13h-285v90h267q49 0 70 24t21 75v65z" />
    <glyph glyph-name="u03E4" unicode="&#x3e4;" horiz-adv-x="407" 
d="M124 483q0 -19 3.5 -37.5t12.5 -30.5q20 -26 58 -26q22 0 41 7q10 3 18 7v309h102v-712h-102v309q-5 -3 -27 -9.5t-42 -6.5q-37 0 -68 12.5t-52 38.5q-20 24 -30 58.5t-10 73.5v19q0 64 10 101.5t36 65.5t58 39t74 11h11v-96h-13q-30 0 -46 -9t-24 -26t-9 -39.5t-1 -47.5
v-11z" />
    <glyph glyph-name="u03E5" unicode="&#x3e5;" horiz-adv-x="389" 
d="M245 507h102v-712h-102v251h-2q-17 -25 -40.5 -38.5t-53.5 -13.5q-37 0 -57.5 13t-33.5 33q-10 16 -13 42q-3 25 -3 81v173q0 13 1 29t4 32.5t9 32t16 28.5q17 23 44.5 36t64.5 13h24v-85h-7q-29 0 -42 -21q-8 -13 -10 -28t-2 -30v-187q0 -24 10.5 -42t39.5 -18
q22 0 36.5 15.5t14.5 39.5v356z" />
    <glyph glyph-name="u03E6" unicode="&#x3e6;" horiz-adv-x="410" 
d="M243 -92q11 11 17 32.5t6 42.5v240q0 17 -3 34t-14 28q-19 19 -57 19q-9 0 -16.5 -1t-13.5 -2l-12 -3v-298h-102v712h102v-319q7 2 23.5 4.5t36.5 2.5q30 0 61.5 -10t53.5 -31t32.5 -54t10.5 -70v-260q0 -89 -52 -139q-24 -23 -57.5 -35t-78.5 -12h-112v90h102
q47 0 73 29z" />
    <glyph glyph-name="u03E7" unicode="&#x3e7;" horiz-adv-x="389" 
d="M245 341q0 28 -13 44t-37 16q-29 0 -40 -18t-11 -52v-331h-102v712h102v-264h2q16 24 38.5 39.5t57.5 15.5q19 0 38 -6.5t34 -21.5t24 -38.5t9 -57.5v-410q0 -35 -10.5 -70.5t-33.5 -58.5q-22 -22 -57.5 -33.5t-73.5 -11.5h-100v96h83q48 0 69 22t21 71v357z" />
    <glyph glyph-name="u03E8" unicode="&#x3e8;" horiz-adv-x="406" 
d="M33 544q0 34 12.5 65.5t34.5 55.5t53 38.5t68 14.5q45 0 77 -16t53 -42q22 -26 32 -61.5t10 -75.5q0 -33 -6.5 -58.5t-21 -46t-36.5 -38t-53 -34.5l-41 -23q-21 -12 -38.5 -26t-26.5 -28q-20 -29 -20 -75q0 -21 2 -39t9.5 -31t22 -20.5t40.5 -7.5q39 0 55.5 22.5
t16.5 50.5v32h102v-38q0 -36 -13.5 -66.5t-36.5 -53.5t-55 -36t-69 -13q-49 0 -83 18t-55 46q-20 27 -29 59.5t-9 77.5q0 37 8 70.5t30 63.5q17 23 37 39.5t49 33.5l47 28q16 10 29.5 19t23 19.5t14.5 24t5 31.5q0 16 -3 32.5t-10.5 29.5t-20.5 21.5t-33 8.5q-39 0 -55 -24
t-16 -57q0 -21 5 -39q2 -10 5 -19h-98q-3 10 -6 21q-2 10 -4 22t-2 24z" />
    <glyph glyph-name="u03E9" unicode="&#x3e9;" horiz-adv-x="332" 
d="M318 -58q-9 -66 -45.5 -109.5t-101.5 -43.5q-41 0 -70.5 15.5t-48.5 42t-28.5 61t-9.5 73.5v31v28t1.5 34t5.5 37.5t12 39.5q13 31 36 53t42 36l60 44q25 18 35.5 36t10.5 46q0 20 -13 35.5t-37 15.5q-20 0 -36 -14t-16 -40q0 -8 0.5 -16t1.5 -15q1 -8 2 -15h-94
q-2 9 -3 18q-3 15 -3 35q0 28 11 54.5t30 46.5t45.5 31t57.5 11t58 -10.5t47 -30.5q21 -20 33 -47.5t12 -59.5q0 -26 -4 -46t-15 -38.5t-30 -37t-49 -41.5l-43 -33q-18 -14 -30.5 -28.5t-19.5 -31.5q-8 -22 -9 -47.5t-1 -52.5v-10q0 -24 2 -45t8.5 -36.5t18 -24t29.5 -8.5
q15 0 24 5.5t15 14t8.5 18.5t4.5 19h96z" />
    <glyph glyph-name="u03EA" unicode="&#x3ea;" horiz-adv-x="413" 
d="M146 395l-78 174q-14 31 -27.5 39t-31.5 8v96q33 0 60 -10t50 -38q14 -17 25.5 -40t22.5 -51l38 -94h2l38 94q11 28 22.5 51t25.5 40q23 28 50 38t60 10v-96q-18 0 -31.5 -8.5t-27.5 -38.5l-80 -176l149 -393h-413zM132 90h148l-74 210z" />
    <glyph glyph-name="u03EB" unicode="&#x3eb;" horiz-adv-x="366" 
d="M121 269l-44 102q-12 28 -26 37q-8 5 -17.5 7t-20.5 2h-2v90h4q24 0 43.5 -3t37.5 -15q19 -13 30.5 -31t22.5 -44l34 -85l34 86q10 26 21.5 43.5t30.5 30.5q18 12 38 15t44 3h4v-90h-2q-11 0 -20 -2t-17 -7q-5 -3 -12 -11.5t-15 -25.5l-44 -98l115 -273h-354zM133 81h100
l-50 126z" />
    <glyph glyph-name="u03EC" unicode="&#x3ec;" horiz-adv-x="426" 
d="M144 511q23 17 48 22t42 5q20 0 49.5 -8.5t51.5 -28.5q26 -24 37.5 -57t11.5 -81v-195q0 -45 -15 -77t-39 -53q-25 -22 -55.5 -33t-61.5 -11t-61.5 11t-54.5 33q-25 21 -40 53t-15 77v369q0 43 15 77.5t40 56.5q24 21 54 31t61 10h142v-96h-141q-28 0 -48.5 -17.5
t-20.5 -54.5v-33zM144 168q0 -37 20.5 -54.5t48.5 -17.5t48.5 17.5t20.5 54.5v195q0 18 -5.5 34.5t-16.5 26.5q-13 12 -26 15t-24 3q-21 0 -40.5 -7.5t-25.5 -12.5v-254z" />
    <glyph glyph-name="u03ED" unicode="&#x3ed;" horiz-adv-x="380" 
d="M316 622h-105q-20 0 -37 -6.5t-27 -20.5q-11 -14 -13 -32.5t-2 -37.5v-74h2q14 25 40 43.5t55 18.5q30 0 52 -7t39 -27q20 -26 23 -60.5t3 -71.5v-177q0 -31 -4 -57t-15 -46q-18 -33 -51.5 -53t-81.5 -20t-81.5 20t-51.5 53q-11 20 -15 46t-4 57v352q0 42 7 77.5t29 62.5
q22 26 55 38t62 12h121v-90zM144 154q0 -29 13.5 -43.5t36.5 -14.5t36.5 14.5t13.5 43.5v199q0 29 -13.5 43.5t-36.5 14.5t-36.5 -14.5t-13.5 -43.5v-199z" />
    <glyph glyph-name="u03EE" unicode="&#x3ee;" horiz-adv-x="450" 
d="M276 547v-547h-102v547h-21q-26 0 -39.5 -12t-13.5 -50v-16v-11q0 -5 0.5 -11.5t1.5 -14.5h-82q-2 8 -3 16.5t-2 15.5q-1 8 -1 16v4q0 42 5 65.5t19 41.5q15 19 41.5 30t68.5 11h26v80h102v-80h25q42 0 68.5 -11t41.5 -30q14 -18 19.5 -41.5t5.5 -65.5v-4l-2 -16
q-1 -7 -1.5 -15.5t-2.5 -16.5h-82q0 8 0.5 14.5t0.5 11.5q0 6 1 11v16q0 38 -13.5 50t-39.5 12h-21z" />
    <glyph glyph-name="u03EF" unicode="&#x3ef;" horiz-adv-x="404" 
d="M253 507v-711h-102v492h-13q-26 0 -39.5 -9.5t-13.5 -40.5v-6v-10q0 -5 0.5 -11t1.5 -14h-76q-2 6 -4 23.5t-2 28.5v4q0 26 5.5 50.5t24.5 42.5q16 16 39 21.5t61 5.5h16v134h102zM253 288v85h16q38 0 61 -5.5t39 -21.5q19 -18 24.5 -42.5t5.5 -50.5v-4q0 -11 -2 -28.5
t-4 -23.5h-76q1 8 1.5 14t0.5 11v10v6q0 31 -13.5 40.5t-39.5 9.5h-13z" />
    <glyph glyph-name="u03F0" unicode="&#x3f0;" horiz-adv-x="416" 
d="M351 416v-233q0 -28 0.5 -46t7.5 -29t18 -14t26 -4v-96q-49 0 -78 10.5t-44.5 30t-20.5 47.5t-5 63v122l-155 -267h-90l55 91v233q0 28 -0.5 46t-7.5 29t-18 14t-26 4v90q49 0 78 -10t44.5 -28.5t20.5 -47t5 -65.5v-116l155 267h90z" />
    <glyph glyph-name="u03F1" unicode="&#x3f1;" horiz-adv-x="379" 
d="M286 -205h-91q-29 0 -62 12t-55 38q-22 27 -29 62.5t-7 77.5v352q0 31 4 57t15 46q18 33 51.5 53t81.5 20t81.5 -20t51.5 -53q11 -20 15 -46t4 -57v-177q0 -37 -6 -71.5t-26 -60.5q-17 -20 -37.5 -27t-46.5 -7q-31 0 -52 18t-32 34h-2v-64q0 -19 2 -37.5t13 -32.5
q10 -14 27 -20.5t37 -6.5h63v-90zM144 154q0 -29 13.5 -43.5t36.5 -14.5t36.5 14.5t13.5 43.5v199q0 29 -13.5 43.5t-36.5 14.5t-36.5 -14.5t-13.5 -43.5v-199z" />
    <glyph glyph-name="u03F2" unicode="&#x3f2;" 
d="M150 146q0 -24 13.5 -37t36.5 -13q29 0 38.5 17t11.5 34h102q0 -67 -41 -108q-20 -21 -48 -33t-63 -12q-48 0 -81.5 20t-51.5 53q-11 20 -15 46t-4 57v167q0 31 4 57t15 46q18 33 51.5 53t81.5 20q35 0 63.5 -12t48.5 -33q40 -45 40 -117h-102q0 31 -13.5 45.5
t-36.5 14.5t-36.5 -14.5t-13.5 -43.5v-207z" />
    <glyph glyph-name="u03F3" unicode="&#x3f3;" horiz-adv-x="186" 
d="M42 507h102v-561q0 -75 -47 -113t-119 -38v96q37 0 51 19q8 11 10.5 28.5t2.5 45.5v523zM42 610v102h102v-102h-102z" />
    <glyph glyph-name="u03F4" unicode="&#x3f4;" horiz-adv-x="426" 
d="M42 544q0 43 15 76t40 55q24 21 54.5 32t61.5 11t61.5 -11t55.5 -32q24 -22 39 -55t15 -76v-376q0 -45 -15 -77t-39 -53q-25 -22 -55.5 -33t-61.5 -11t-61.5 11t-54.5 33q-25 21 -40 53t-15 77v376zM144 168q0 -37 20.5 -54.5t48.5 -17.5t48.5 17.5t20.5 54.5v149h-138
v-149zM144 407h138v137q0 37 -20.5 54.5t-48.5 17.5t-48.5 -17.5t-20.5 -54.5v-137z" />
    <glyph glyph-name="u03F5" unicode="&#x3f5;" horiz-adv-x="332" 
d="M287.003 215v85h-150.991v32q0 45 27.998 68q14 12 34.998 17q20.999 5 43.998 5h63.9961v85h-62.9961q-50.9971 0 -87.9951 -9t-65.9961 -33q-23.998 -20 -40.4971 -56t-16.499 -93v-123q0 -48 13.499 -86t40.4971 -63q25.999 -25 68.9961 -34.5t90.9941 -9.5h59.9971
v86h-63.9961q-22.999 0 -42.998 4.5q-19.998 4.5 -34.998 17.5q-13.999 11 -21.498 31q-7.5 20 -7.5 43v33h150.991z" />
    <glyph glyph-name="u03F6" unicode="&#x3f6;" horiz-adv-x="332" 
d="M45 215v85h151v32q0 45 -28 68q-14 12 -35 17t-44 5h-64v85h63q51 0 88 -9t66 -33q24 -20 40.5 -56t16.5 -93v-123q0 -48 -13.5 -86t-40.5 -63q-26 -25 -69 -34.5t-91 -9.5h-60v86h64q23 0 43 4.5t35 17.5q14 11 21.5 31t7.5 43v33h-151z" />
    <glyph glyph-name="u03F7" unicode="&#x3f7;" horiz-adv-x="407" 
d="M48 0v712h102v-124h51q42 0 74 -11t58 -39t36 -65.5t10 -101.5q0 -48 -5.5 -81t-23.5 -62q-21 -35 -56 -54.5t-92 -19.5h-52v-154h-102zM150 492v-242h49q31 0 48 9t25 25q8 15 9.5 37t1.5 49q0 25 -1 47.5t-9 39.5t-24 26t-46 9h-53z" />
    <glyph glyph-name="u03F8" unicode="&#x3f8;" horiz-adv-x="380" 
d="M42 -205v917h102v-251q19 22 39 37t58 15q63 0 89 -48q9 -17 13 -42t4 -67v-193q0 -56 -3 -81q-6 -50 -46 -75q-20 -13 -58 -13q-30 0 -53.5 13.5t-40.5 38.5h-2v-251h-102zM245 342q0 31 -12 50t-38 19q-23 0 -37 -17.5t-14 -45.5v-197q0 -24 14.5 -39.5t36.5 -15.5
q29 0 39.5 18t10.5 42v186z" />
    <glyph glyph-name="u03F9" unicode="&#x3f9;" horiz-adv-x="407" 
d="M372 203v-44q0 -33 -12.5 -62.5t-34.5 -52.5t-51.5 -36.5t-63.5 -13.5q-29 0 -59 8t-54 28t-39.5 51.5t-15.5 80.5v392q0 35 12 65t34 52t52.5 34.5t67.5 12.5q72 0 117 -47q22 -23 34.5 -54.5t12.5 -68.5v-40h-102v34q0 30 -17 52t-46 22q-38 0 -50.5 -23.5t-12.5 -59.5
v-364q0 -31 13.5 -52t48.5 -21q10 0 21.5 3.5t21.5 11.5q9 8 15 22t6 35v35h102z" />
    <glyph glyph-name="u03FA" unicode="&#x3fa;" horiz-adv-x="556" 
d="M48 0v712h98l131 -217h2l130 217h99v-712h-102v533h-2l-101 -166h-51l-100 166h-2v-533h-102z" />
    <glyph glyph-name="u03FB" unicode="&#x3fb;" horiz-adv-x="500" 
d="M42 -205v712h104l103 -177h2l103 177h104v-507h-98v352h-2l-82 -144h-52l-82 144h-2v-557h-98z" />
    <glyph glyph-name="u03FC" unicode="&#x3fc;" horiz-adv-x="393" 
d="M0 -55h55v401q-1 22 3 44q3 19 11 39t23 36q23 23 50.5 35.5t65.5 12.5q24 0 48 -6t55 -30q29 -23 39 -59.5t10 -71.5v-183q0 -29 -3.5 -59t-15 -54.5t-33.5 -40t-60 -15.5q-30 0 -51 13.5t-38 38.5h-2v-101h90v-80h-90v-70h-102v70h-55v80zM258 347q0 64 -50 64
q-25 0 -38 -16t-13 -44v-200q0 -24 14.5 -39.5t36.5 -15.5q29 0 39.5 18t10.5 42v191z" />
    <glyph glyph-name="u03FD" unicode="&#x3fd;" horiz-adv-x="407" 
d="M137 203v-35q0 -21 6 -35t15 -22q10 -8 21.5 -11.5t21.5 -3.5q35 0 48.5 21t13.5 52v364q0 36 -12.5 59.5t-50.5 23.5q-29 0 -46 -22t-17 -52v-34h-102v40q0 37 12.5 68.5t34.5 54.5q45 47 117 47q37 0 67.5 -12.5t52.5 -34.5t34 -52t12 -65v-392q0 -49 -15.5 -80.5
t-39.5 -51.5t-54 -28t-59 -8q-34 0 -63.5 13.5t-51.5 36.5t-34.5 52.5t-12.5 62.5v44h102z" />
    <glyph glyph-name="u03FE" unicode="&#x3fe;" horiz-adv-x="407" 
d="M270.009 203v-35q0 -21 -6 -35t-14.999 -22q-10 -8 -21.499 -11.5t-21.498 -3.5q-34.998 0 -48.4971 21q-13.5 21 -13.5 52v364q0 36 12.5 59.5q12.499 23.5 50.4961 23.5q28.999 0 45.998 -22t16.999 -52v-34h101.993v40q0 37 -12.499 68.5t-34.498 54.5
q-44.9971 47 -116.993 47q-36.9971 0 -67.4951 -12.5t-52.4971 -34.5t-33.998 -52t-11.999 -65v-392q0 -49 15.499 -80.5t39.4971 -51.5q23.999 -20 53.9971 -28t58.9961 -8q33.998 0 63.4961 13.5t51.4971 36.5t34.498 52.5t12.499 62.5v44h-101.993zM194.013 308v102
h101.994v-102h-101.994z" />
    <glyph glyph-name="u03FF" unicode="&#x3ff;" horiz-adv-x="407" 
d="M137 203v-35q0 -21 6 -35t15 -22q10 -8 21.5 -11.5t21.5 -3.5q35 0 48.5 21t13.5 52v364q0 36 -12.5 59.5t-50.5 23.5q-29 0 -46 -22t-17 -52v-34h-102v40q0 37 12.5 68.5t34.5 54.5q45 47 117 47q37 0 67.5 -12.5t52.5 -34.5t34 -52t12 -65v-392q0 -49 -15.5 -80.5
t-39.5 -51.5t-54 -28t-59 -8q-34 0 -63.5 13.5t-51.5 36.5t-34.5 52.5t-12.5 62.5v44h102zM213 308v102h-102v-102h102z" />
    <glyph glyph-name="u0400" unicode="&#x400;" 
d="M48 0v712h304v-96h-202v-209h176v-96h-176v-209h202v-102h-304zM170 885l90 -141h-66l-132 141h108z" />
    <glyph glyph-name="u0401" unicode="&#x401;" 
d="M48 0v712h304v-96h-202v-209h176v-96h-176v-209h202v-102h-304zM69 756v102h90v-102h-90zM231 756v102h90v-102h-90z" />
    <glyph glyph-name="u0402" unicode="&#x402;" horiz-adv-x="464" 
d="M213 330v-330h-102v616h-114v96h361v-96h-145v-196h42q46 0 78 -11t53 -32q26 -26 36 -62.5t10 -80.5v-46q0 -46 -8.5 -82t-28.5 -60.5t-53 -38t-82 -13.5v96h3q26 0 39.5 8t21.5 23q9 17 10.5 42.5t1.5 51.5q0 10 -0.5 23.5t-3 26.5t-7 24.5t-12.5 19.5
q-12 12 -28.5 16.5t-40.5 4.5h-31z" />
    <glyph glyph-name="u0403" unicode="&#x403;" horiz-adv-x="342" 
d="M48 0v712h284v-96h-182v-616h-102zM147 744l90 141h108l-132 -141h-66z" />
    <glyph glyph-name="u0404" unicode="&#x404;" horiz-adv-x="407" 
d="M270 317h-126v-148q0 -31 13.5 -52t48.5 -21q10 0 21.5 3.5t21.5 11.5q9 8 15 22t6 35v35h102v-44q0 -33 -12.5 -62.5t-34.5 -52.5t-51.5 -36.5t-63.5 -13.5q-29 0 -59 8t-54 28t-39.5 51.5t-15.5 80.5v392q0 35 12 65t34 52t52.5 34.5t67.5 12.5q72 0 117 -47
q22 -23 34.5 -54.5t12.5 -68.5v-40h-102v34q0 30 -17 52t-46 22q-38 0 -50.5 -23.5t-12.5 -59.5v-126h126v-90z" />
    <glyph glyph-name="u0405" unicode="&#x405;" horiz-adv-x="406" 
d="M378 507h-102v23q0 35 -16.5 60.5t-55.5 25.5q-21 0 -34 -8t-21 -20q-8 -13 -11 -29.5t-3 -34.5q0 -21 1.5 -35t7.5 -25t17.5 -19t31.5 -16l78 -31q34 -13 55 -30.5t33 -40.5q11 -24 15 -54.5t4 -69.5q0 -45 -9 -83.5t-29 -65.5q-21 -28 -55 -44t-83 -16q-37 0 -69 13
t-55 36t-36.5 53.5t-13.5 66.5v38h102v-32q0 -28 16.5 -50.5t55.5 -22.5q26 0 40.5 7.5t22.5 21.5t9.5 33.5t1.5 43.5q0 28 -2 46t-8 29q-7 11 -18.5 18t-30.5 15l-73 30q-66 27 -88.5 71.5t-22.5 111.5q0 40 11 76t33 62q21 26 53.5 41.5t77.5 15.5q38 0 69.5 -14t54.5 -37
q46 -48 46 -110v-50z" />
    <glyph glyph-name="u0406" unicode="&#x406;" horiz-adv-x="204" 
d="M51 0v712h102v-712h-102z" />
    <glyph glyph-name="u0407" unicode="&#x407;" horiz-adv-x="204" 
d="M51 0v712h102v-712h-102zM2 756v102h84v-102h-84zM118 756v102h84v-102h-84z" />
    <glyph glyph-name="u0408" unicode="&#x408;" horiz-adv-x="333" 
d="M285 712v-544q0 -73 -46 -122q-23 -24 -54.5 -38t-73.5 -14q-49 0 -81.5 21.5t-51.5 42.5l80 64q11 -11 25.5 -18.5t30.5 -7.5q9 0 21 3.5t23 13.5q11 9 18 25.5t7 43.5v530h102z" />
    <glyph glyph-name="u0409" unicode="&#x409;" horiz-adv-x="651" 
d="M401 712v-292h36q53 0 88.5 -14.5t57.5 -40.5q23 -28 29 -60t7 -71v-40q0 -94 -45.5 -144t-145.5 -50h-129v622h-100v-207q0 -16 -1 -54.5t-5 -84.5t-12 -91t-22 -75q-24 -51 -61 -80.5t-90 -29.5h-6v102q30 2 47 18t28 40q9 21 14.5 51t8.5 64t4 70t1 69v298h296z
M401 330v-228h34q31 0 48.5 9t26.5 25t11 38t2 48q0 27 -3 47t-12 34q-10 14 -27 20.5t-45 6.5h-35z" />
    <glyph glyph-name="u040A" unicode="&#x40a;" horiz-adv-x="625" 
d="M272 330h-122v-330h-102v712h102v-292h122v292h102v-292h36q53 0 88.5 -14.5t57.5 -40.5q23 -28 29 -60t7 -71v-40q0 -94 -45.5 -144t-145.5 -50h-129v330zM374 330v-228h34q31 0 48.5 9t26.5 25t11 38t2 48q0 27 -3 47t-12 34q-10 14 -27 20.5t-45 6.5h-35z" />
    <glyph glyph-name="u040B" unicode="&#x40b;" horiz-adv-x="464" 
d="M213 412q8 1 20 1.5t27 0.5q28 0 63.5 -8t61.5 -31q24 -22 35 -55.5t11 -67.5v-252h-102v238q0 17 -3.5 34t-13.5 29q-11 14 -29 18.5t-32 4.5q-6 0 -12.5 -0.5t-12.5 -0.5q-7 -1 -13 -1v-322h-102v616h-114v96h361v-96h-145v-204z" />
    <glyph glyph-name="u040C" unicode="&#x40c;" horiz-adv-x="414" 
d="M404 616q-14 0 -23 -3.5t-17 -12.5t-11 -22t-5 -29l-9 -83q-1 -13 -3 -24q-2 -10 -4 -20.5t-6 -18.5q-6 -14 -14.5 -24.5t-16.5 -16.5l106 -362h-104l-90 317h-57v-317h-102v712h102v-305h34q18 0 29 5t18 14t10 20.5t5 25.5l10 85q1 4 2.5 16.5t5.5 28.5t11 33t18 32
q19 24 46.5 34.5t64.5 10.5v-96zM178 744l90 141h108l-132 -141h-66z" />
    <glyph glyph-name="u040D" unicode="&#x40d;" horiz-adv-x="436" 
d="M286 0v462h-2l-134 -462h-102v712h102v-463h2l134 463h102v-712h-102zM168 885l90 -141h-66l-132 141h108z" />
    <glyph glyph-name="u040E" unicode="&#x40e;" horiz-adv-x="405" 
d="M60 96q14 0 32 3t28 13q8 8 17.5 25.5t17.5 49.5l9 39l-154 486h108l96 -335h2l75 335h108l-148 -541q-14 -49 -30 -87t-45 -61q-24 -20 -50.5 -24.5t-58.5 -4.5h-14v102h7zM154 855q1 -6 2 -14.5t6.5 -17t16 -14.5t29.5 -6t29.5 6t16 14.5t6.5 17t2 14.5h85
q-7 -60 -39.5 -88t-99.5 -28t-99.5 28t-39.5 88h85z" />
    <glyph glyph-name="u040F" unicode="&#x40f;" horiz-adv-x="421" 
d="M48 0v712h102v-622h121v622h102v-712h-119v-125h-87v125h-119z" />
    <glyph glyph-name="u0410" unicode="&#x410;" horiz-adv-x="407" 
d="M254 249l-50 258h-2l-50 -258h102zM2 0l159 712h85l159 -712h-102l-30 153h-139l-30 -153h-102z" />
    <glyph glyph-name="u0411" unicode="&#x411;" horiz-adv-x="404" 
d="M48 712h292v-96h-190v-196h40q53 0 88.5 -14t57.5 -40q23 -28 29 -60.5t7 -71.5v-40q0 -94 -45.5 -144t-145.5 -50h-133v712zM150 330v-228h38q31 0 48.5 9t26.5 25t11 38t2 48q0 27 -3.5 47.5t-13.5 33.5t-26 20t-44 7h-39z" />
    <glyph glyph-name="u0412" unicode="&#x412;" horiz-adv-x="426" 
d="M48 0v712h149q49 0 83.5 -15t56.5 -40t31.5 -57.5t9.5 -67.5v-26q0 -29 -4.5 -49t-13.5 -35q-17 -28 -52 -48q36 -17 53 -50t17 -90v-40q0 -94 -45.5 -144t-145.5 -50h-139zM150 330v-228h44q31 0 48.5 9t26.5 25t11 38t2 48q0 27 -3 47t-12 34q-10 14 -27 20.5t-45 6.5
h-45zM150 616v-196h46q51 0 68.5 25.5t17.5 74.5q0 48 -19.5 72t-70.5 24h-42z" />
    <glyph glyph-name="u0413" unicode="&#x413;" horiz-adv-x="342" 
d="M48 0v712h284v-96h-182v-616h-102z" />
    <glyph glyph-name="u0414" unicode="&#x414;" horiz-adv-x="467" 
d="M90 0v-110h-88v200h52q9 19 17 43.5t14 51.5t11 55.5t8 55.5q2 21 3.5 47t2.5 53.5t1.5 55t0.5 52.5v208h293v-622h58v-200h-88v110h-285zM208 622v-117q0 -14 -1 -40.5t-3 -57.5t-4 -62.5t-5 -55.5q-2 -20 -6.5 -45.5t-10.5 -52.5t-13 -53.5t-16 -47.5h154v532h-95z" />
    <glyph glyph-name="u0415" unicode="&#x415;" 
d="M48 0v712h304v-96h-202v-209h176v-96h-176v-209h202v-102h-304z" />
    <glyph glyph-name="u0416" unicode="&#x416;" horiz-adv-x="616" 
d="M257 712h102v-305h30q18 0 28.5 5t17 14t9.5 20.5t5 25.5l10 85q1 4 2.5 16.5t6 28t11.5 33t19 31.5q21 26 46.5 36t60.5 10h1v-96h-2q-11 0 -20.5 -3.5t-17.5 -12.5t-10.5 -22t-4.5 -29l-9 -83q-1 -13 -3 -25q-2 -11 -4 -21.5t-5 -16.5q-12 -28 -30 -41l94 -362h-104
l-78 317h-53v-317h-102v317h-53l-78 -317h-104l94 362q-18 13 -30 41q-3 6 -5 16.5t-4 21.5q-2 12 -3 25l-9 83q-2 16 -4.5 29t-10.5 22t-17.5 12.5t-20.5 3.5h-2v96h1q35 0 60.5 -10t46.5 -36q12 -14 19 -31.5t11.5 -33t6 -28t2.5 -16.5l10 -85q2 -14 5 -25.5t9.5 -20.5
t17 -14t28.5 -5h30v305z" />
    <glyph glyph-name="u0417" unicode="&#x417;" horiz-adv-x="427" 
d="M35 532q0 30 12.5 68t38.5 65q23 23 52 38t67 15q45 0 77.5 -15.5t53.5 -41.5q22 -26 32 -62t10 -76q0 -20 -1 -40.5t-7.5 -41t-21 -38.5t-41.5 -33q27 -11 41.5 -28.5t21 -39t7.5 -47t1 -52.5q0 -45 -9.5 -84t-31.5 -65t-55.5 -43t-82.5 -17q-37 0 -69 13t-55 36t-35 59
t-12 72v27h102l1 -28q0 -14 3.5 -27.5t11.5 -24.5t21 -18t33 -7q45 0 60.5 28.5t15.5 77.5q0 28 -2 52.5t-10 38.5q-18 31 -60 31h-39v90h42q19 0 34 7t24 24q8 16 9.5 38t1.5 39q0 18 -3 35.5t-11 30.5q-8 12 -21.5 20t-34.5 8q-19 0 -31.5 -7t-20.5 -18q-9 -12 -13 -31
t-4 -37v-16h-102v25z" />
    <glyph glyph-name="u0418" unicode="&#x418;" horiz-adv-x="436" 
d="M286 0v462h-2l-134 -462h-102v712h102v-463h2l134 463h102v-712h-102z" />
    <glyph glyph-name="u0419" unicode="&#x419;" horiz-adv-x="436" 
d="M286 0v462h-2l-134 -462h-102v712h102v-463h2l134 463h102v-712h-102zM164 855q1 -6 2 -14.5t6.5 -17t16 -14.5t29.5 -6t29.5 6t16 14.5t6.5 17t2 14.5h85q-7 -60 -39.5 -88t-99.5 -28t-99.5 28t-39.5 88h85z" />
    <glyph glyph-name="u041A" unicode="&#x41a;" horiz-adv-x="414" 
d="M404 616q-14 0 -23 -3.5t-17 -12.5t-11 -22t-5 -29l-9 -83q-1 -13 -3 -24q-2 -10 -4 -20.5t-6 -18.5q-6 -14 -14.5 -24.5t-16.5 -16.5l106 -362h-104l-90 317h-57v-317h-102v712h102v-305h34q18 0 29 5t18 14t10 20.5t5 25.5l10 85q1 4 2.5 16.5t5.5 28.5t11 33t18 32
q19 24 46.5 34.5t64.5 10.5v-96z" />
    <glyph glyph-name="u041B" unicode="&#x41b;" horiz-adv-x="449" 
d="M199 622v-207q0 -16 -1 -54.5t-5 -84.5t-12 -91t-22 -75q-24 -51 -61 -80.5t-90 -29.5h-6v102q30 2 47 18t28 40q9 21 14.5 51t8.5 64t4 70t1 69v298h296v-712h-102v622h-100z" />
    <glyph glyph-name="u041C" unicode="&#x41c;" horiz-adv-x="556" 
d="M48 0v712h98l131 -377h2l130 377h99v-712h-102v433h-2l-101 -306h-51l-100 306h-2v-433h-102z" />
    <glyph glyph-name="u041D" unicode="&#x41d;" horiz-adv-x="426" 
d="M48 0v712h102v-305h126v305h102v-712h-102v317h-126v-317h-102z" />
    <glyph glyph-name="u041E" unicode="&#x41e;" horiz-adv-x="426" 
d="M42 544q0 43 15 76t40 55q24 21 54.5 32t61.5 11t61.5 -11t55.5 -32q24 -22 39 -55t15 -76v-376q0 -45 -15 -77t-39 -53q-25 -22 -55.5 -33t-61.5 -11t-61.5 11t-54.5 33q-25 21 -40 53t-15 77v376zM144 168q0 -37 20.5 -54.5t48.5 -17.5t48.5 17.5t20.5 54.5v376
q0 37 -20.5 54.5t-48.5 17.5t-48.5 -17.5t-20.5 -54.5v-376z" />
    <glyph glyph-name="u041F" unicode="&#x41f;" horiz-adv-x="421" 
d="M48 0v712h325v-712h-102v622h-121v-622h-102z" />
    <glyph glyph-name="u0420" unicode="&#x420;" horiz-adv-x="407" 
d="M48 0v712h153q42 0 74 -11t58 -39t36 -65.5t10 -101.5q0 -48 -5.5 -81t-23.5 -62q-21 -35 -56 -54.5t-92 -19.5h-52v-278h-102zM150 616v-242h49q31 0 48 9t25 25q8 15 9.5 37t1.5 49q0 25 -1 47.5t-9 39.5t-24 26t-46 9h-53z" />
    <glyph glyph-name="u0421" unicode="&#x421;" horiz-adv-x="407" 
d="M372 203v-44q0 -33 -12.5 -62.5t-34.5 -52.5t-51.5 -36.5t-63.5 -13.5q-29 0 -59 8t-54 28t-39.5 51.5t-15.5 80.5v392q0 35 12 65t34 52t52.5 34.5t67.5 12.5q72 0 117 -47q22 -23 34.5 -54.5t12.5 -68.5v-40h-102v34q0 30 -17 52t-46 22q-38 0 -50.5 -23.5t-12.5 -59.5
v-364q0 -31 13.5 -52t48.5 -21q10 0 21.5 3.5t21.5 11.5q9 8 15 22t6 35v35h102z" />
    <glyph glyph-name="u0422" unicode="&#x422;" horiz-adv-x="332" 
d="M115 0v616h-118v96h338v-96h-118v-616h-102z" />
    <glyph glyph-name="u0423" unicode="&#x423;" horiz-adv-x="405" 
d="M60 96q14 0 32 3t28 13q8 8 17.5 25.5t17.5 49.5l9 39l-154 486h108l96 -335h2l75 335h108l-148 -541q-14 -49 -30 -87t-45 -61q-24 -20 -50.5 -24.5t-58.5 -4.5h-14v102h7z" />
    <glyph glyph-name="u0424" unicode="&#x424;" horiz-adv-x="592" 
d="M233 98q-49 0 -87 16t-60 44q-16 20 -26.5 46t-16.5 54t-8.5 57t-2.5 55q0 64 12.5 122.5t41.5 90.5q26 29 65.5 41.5t81.5 12.5h12v75h102v-75h12q42 0 81.5 -12.5t65.5 -41.5q29 -32 41.5 -90.5t12.5 -122.5q0 -26 -2.5 -55t-8.5 -57t-16.5 -54t-26.5 -46
q-22 -28 -60 -44t-87 -16h-12v-98h-102v98h-12zM345 545v-357h22q25 0 42 9t28 24q7 9 12 25.5t8.5 36.5t5 42.5t1.5 43.5q0 20 -2 43t-6 44t-10 38.5t-14 26.5q-14 14 -30.5 18.5t-37.5 5.5h-19zM228 545q-21 -1 -37.5 -5.5t-30.5 -18.5q-8 -9 -14 -26.5t-10 -38.5t-6 -44
t-2 -43q0 -21 1.5 -43.5t5 -42.5t8.5 -36.5t12 -25.5q11 -15 28 -24t42 -9h22v357h-19z" />
    <glyph glyph-name="u0425" unicode="&#x425;" horiz-adv-x="389" 
d="M-2 0l144 373l-133 339h108l77 -211l78 211h108l-136 -339l147 -373h-108l-89 240l-88 -240h-108z" />
    <glyph glyph-name="u0426" unicode="&#x426;" horiz-adv-x="437" 
d="M48 0v712h102v-622h121v622h102v-622h58v-200h-88v110h-295z" />
    <glyph glyph-name="u0427" unicode="&#x427;" horiz-adv-x="408" 
d="M360 0h-102v316l-20 -2.5t-32 -1.5q-35 0 -68 10t-55 31t-32.5 54t-10.5 70v235h102v-223q0 -17 4 -34t15 -28q19 -19 57 -19q8 0 16 0.5t13 1.5q6 1 11 2v300h102v-712z" />
    <glyph glyph-name="u0428" unicode="&#x428;" horiz-adv-x="608" 
d="M150 712v-622h103v622h102v-622h103v622h102v-712h-512v712h102z" />
    <glyph glyph-name="u0429" unicode="&#x429;" horiz-adv-x="624" 
d="M48 0v712h102v-622h103v622h102v-622h103v622h102v-622h58v-200h-88v110h-482z" />
    <glyph glyph-name="u042A" unicode="&#x42a;" horiz-adv-x="460" 
d="M-3 712h211v-292h38q53 0 88.5 -14.5t57.5 -40.5q23 -28 29 -60t7 -71v-40q0 -94 -45.5 -144t-145.5 -50h-131v616h-109v96zM208 330v-228h36q31 0 48.5 9t26.5 25t11 38t2 48q0 27 -3.5 46.5t-12.5 33.5q-10 14 -26.5 21t-44.5 7h-37z" />
    <glyph glyph-name="u042B" unicode="&#x42b;" horiz-adv-x="572" 
d="M48 712h102v-292h38q53 0 88.5 -14.5t57.5 -40.5q23 -28 29 -60t7 -71v-40q0 -94 -45.5 -144t-145.5 -50h-131v712zM150 330v-228h36q31 0 48.5 9t26.5 25t11 38t2 48q0 27 -3 46t-12 33q-10 14 -27 21.5t-45 7.5h-37zM422 0v712h102v-712h-102z" />
    <glyph glyph-name="u042C" unicode="&#x42c;" horiz-adv-x="402" 
d="M48 712h102v-292h38q53 0 88.5 -14.5t57.5 -40.5q23 -28 29.5 -60t6.5 -71v-40q0 -94 -45.5 -144t-145.5 -50h-131v712zM150 330v-228h36q31 0 48.5 9t26.5 25t11 38t2 48q0 55 -17 81q-10 14 -26 20.5t-44 6.5h-37z" />
    <glyph glyph-name="u042D" unicode="&#x42d;" horiz-adv-x="407" 
d="M137 407h126v126q0 36 -13.5 59.5t-50.5 23.5q-31 0 -46.5 -22t-15.5 -52v-34h-102v30q0 37 13.5 73.5t35.5 59.5t52.5 35t62.5 12q35 0 66.5 -12.5t53.5 -34.5t34 -52t12 -65v-382q0 -49 -16 -85t-40 -56t-53.5 -28.5t-58.5 -8.5q-34 0 -64 13.5t-52 36.5t-34 52.5
t-12 62.5v44h102v-35q0 -21 5.5 -35t14.5 -22q10 -8 21.5 -11.5t21.5 -3.5q35 0 49 22t14 53v146h-126v90z" />
    <glyph glyph-name="u042E" unicode="&#x42e;" horiz-adv-x="608" 
d="M228 317h-78v-317h-102v712h102v-305h78v137q0 43 15 76t40 55q24 21 53.5 32t60.5 11q64 0 115 -43q24 -22 39 -55t15 -76v-376q0 -45 -15 -77t-39 -53q-25 -22 -54.5 -33t-60.5 -11t-60.5 11t-53.5 33q-25 21 -40 53t-15 77v149zM330 168q0 -37 19.5 -54.5t47.5 -17.5
t47.5 17.5t19.5 54.5v376q0 37 -19.5 54.5t-47.5 17.5t-47.5 -17.5t-19.5 -54.5v-376z" />
    <glyph glyph-name="u042F" unicode="&#x42f;" horiz-adv-x="418" 
d="M224 616q-54 0 -70.5 -28.5t-16.5 -82.5q0 -27 3 -47.5t11 -34.5q9 -14 25 -21.5t43 -7.5h49v222h-44zM268 0v304h-47l-89 -304h-104l97 317q-24 9 -42 27t-29 41t-15 54t-4 64q0 209 180 209h155v-712h-102z" />
    <glyph glyph-name="u0430" unicode="&#x430;" 
d="M235 0v52h-2q-20 -28 -40.5 -43t-57.5 -15q-18 0 -36.5 5.5t-35.5 20.5q-17 14 -27.5 40.5t-10.5 68.5q0 43 7 75.5t26 54.5q18 21 49 31.5t79 10.5h11t11 -1t12 -1t15 -1v53q0 26 -11 43t-40 17q-20 0 -36.5 -13t-21.5 -38h-99q4 68 46 110q20 20 48 31.5t63 11.5
q32 0 60 -10t49 -30q20 -20 32 -50t12 -70v-353h-102zM235 218q-17 3 -28 3q-33 0 -56.5 -15.5t-23.5 -56.5q0 -29 14 -47t39 -18q26 0 40.5 17t14.5 48v69z" />
    <glyph glyph-name="u0431" unicode="&#x431;" horiz-adv-x="371" 
d="M333 712q0 -33 -9.5 -55.5t-24.5 -37t-34.5 -24t-39.5 -17.5q-26 -10 -49.5 -20.5t-37.5 -28.5q-11 -14 -13 -32t-2 -46h2q15 25 40.5 43.5t54.5 18.5q30 0 52 -7t39 -27q20 -26 23 -60.5t3 -71.5v-177q0 -31 -4 -57t-15 -46q-18 -33 -51.5 -53t-81.5 -20t-81.5 20
t-51.5 53q-11 20 -15 46t-4 57v262q0 60 7 93.5t29 60.5q22 26 52.5 40.5t54.5 24.5q16 7 26.5 13t16.5 12.5t8.5 15t3.5 20.5h102zM135 154q0 -29 13.5 -43.5t36.5 -14.5t36.5 14.5t13.5 43.5v199q0 29 -13.5 43.5t-36.5 14.5t-36.5 -14.5t-13.5 -43.5v-199z" />
    <glyph glyph-name="u0432" unicode="&#x432;" horiz-adv-x="377" 
d="M42 0v507h132q30 0 62 -6t58 -28q24 -20 33.5 -47t9.5 -59q0 -11 -2 -25.5t-8 -29.5t-17.5 -29.5t-30.5 -24.5q21 -8 34 -20t20.5 -27t10 -31.5t2.5 -32.5q0 -32 -8.5 -59t-28.5 -48q-24 -25 -59 -32.5t-68 -7.5h-140zM144 85h41q11 0 21.5 2.5t19 9.5t13.5 19t5 31
q0 31 -11.5 50.5t-47.5 19.5h-41v-132zM144 297h40q31 0 43 19t12 51q0 23 -14 39t-39 16h-42v-125z" />
    <glyph glyph-name="u0433" unicode="&#x433;" horiz-adv-x="289" 
d="M42 0v507h242v-90h-140v-417h-102z" />
    <glyph glyph-name="u0434" unicode="&#x434;" horiz-adv-x="419" 
d="M88 0v-100h-86v185h46q11 21 19.5 56t13.5 74q4 32 5 66t1 62v164h280v-422h48v-185h-86v100h-241zM183 422v-76q0 -13 -1 -31.5t-2.5 -38t-3 -38t-3.5 -31.5q-4 -26 -12.5 -61.5t-19.5 -60.5h124v337h-82z" />
    <glyph glyph-name="u0435" unicode="&#x435;" 
d="M337 215h-202v-69q0 -24 13.5 -37t36.5 -13q29 0 38.5 17t11.5 34h102q0 -67 -41 -108q-20 -21 -48 -33t-63 -12q-48 0 -81.5 20t-51.5 53q-11 20 -15 46t-4 57v167q0 31 4 57t15 46q18 33 51.5 53t81.5 20q35 0 63.5 -12t48.5 -33q40 -45 40 -113v-140zM135 295h100v58
q0 29 -13.5 43.5t-36.5 14.5t-36.5 -14.5t-13.5 -43.5v-58z" />
    <glyph glyph-name="u0436" unicode="&#x436;" horiz-adv-x="558" 
d="M228 507h102v-207h37q23 0 31 16t12 36l10 50q5 23 17 48t33 39q20 13 38.5 15.5t39.5 2.5h2v-90h-1q-15 0 -27 -6.5t-17 -32.5l-9 -53q-1 -3 -2.5 -12t-5.5 -19.5t-10.5 -20.5t-16.5 -15l86 -258h-104l-65 215h-48v-215h-102v215h-48l-65 -215h-104l86 258
q-11 5 -17.5 15t-10 20.5t-5 19.5t-2.5 12l-9 53q-5 26 -17 32.5t-27 6.5h-1v90h2q21 0 39.5 -3t38.5 -15q23 -14 34 -39t16 -48l10 -50q4 -20 12 -36t31 -16h37v207z" />
    <glyph glyph-name="u0437" unicode="&#x437;" horiz-adv-x="366" 
d="M19 365q2 30 13.5 56.5t31 47t46.5 32.5t59 12t61.5 -10.5t50.5 -30.5q20 -19 31.5 -45.5t11.5 -59.5q0 -11 -2 -25.5t-8.5 -29.5t-19 -29.5t-33.5 -24.5q22 -8 36.5 -20t22 -27t10.5 -31.5t3 -32.5q0 -31 -10 -56t-30 -47q-22 -24 -53.5 -37t-68.5 -13q-71 0 -115 47
q-39 42 -42 106h96q2 -27 16.5 -42t43.5 -15q26 0 41.5 15.5t15.5 45.5q0 29 -12.5 46.5t-45.5 17.5h-32v85h28q30 0 43.5 15t13.5 49q0 22 -14 37.5t-39 15.5q-20 0 -36 -11.5t-18 -40.5h-96z" />
    <glyph glyph-name="u0438" unicode="&#x438;" horiz-adv-x="399" 
d="M261 0v322h-2l-113 -322h-104v507h96v-322h2l112 322h105v-507h-96z" />
    <glyph glyph-name="u0439" unicode="&#x439;" horiz-adv-x="399" 
d="M261 0v322h-2l-113 -322h-104v507h96v-322h2l112 322h105v-507h-96zM149 695q1 -6 1.5 -14.5t5 -17t14.5 -14.5t29 -6t29 6t14.5 14.5t5 17t1.5 14.5h85q-5 -56 -36.5 -86t-98.5 -30t-98.5 30.5t-36.5 85.5h85z" />
    <glyph glyph-name="u043A" unicode="&#x43a;" horiz-adv-x="387" 
d="M42 0v507h102v-207h39q23 0 31 16t13 40l11 58q6 23 15.5 41.5t25.5 29.5q17 12 39.5 17t51.5 5h2v-90h-3q-18 0 -30 -6.5t-17 -29.5l-10 -56q-1 -3 -2.5 -12t-5.5 -19.5t-10.5 -20.5t-16.5 -15l102 -258h-104l-81 215h-50v-215h-102z" />
    <glyph glyph-name="u043B" unicode="&#x43b;" horiz-adv-x="405" 
d="M7 96q11 0 22.5 6t23.5 21q10 12 16 34.5t9 47t4 47t1 34.5v221h280v-507h-102v422h-82v-94q0 -35 -2 -70.5t-6.5 -68t-11.5 -60.5t-18 -48q-21 -39 -55 -60t-77 -21h-7v96h5z" />
    <glyph glyph-name="u043C" unicode="&#x43c;" horiz-adv-x="500" 
d="M42 0v507h104l103 -272h2l103 272h104v-507h-98v307h-2l-82 -224h-52l-82 224h-2v-307h-98z" />
    <glyph glyph-name="u043D" unicode="&#x43d;" horiz-adv-x="391" 
d="M42 0v507h102v-207h103v207h102v-507h-102v215h-103v-215h-102z" />
    <glyph glyph-name="u043E" unicode="&#x43e;" 
d="M33 337q0 31 4 57t15 46q18 33 51.5 53t81.5 20t81.5 -20t51.5 -53q11 -20 15 -46t4 -57v-167q0 -31 -4 -57t-15 -46q-18 -33 -51.5 -53t-81.5 -20t-81.5 20t-51.5 53q-11 20 -15 46t-4 57v167zM135 154q0 -29 13.5 -43.5t36.5 -14.5t36.5 14.5t13.5 43.5v199
q0 29 -13.5 43.5t-36.5 14.5t-36.5 -14.5t-13.5 -43.5v-199z" />
    <glyph glyph-name="u043F" unicode="&#x43f;" horiz-adv-x="385" 
d="M42 0v507h305v-507h-102v422h-101v-422h-102z" />
    </font>
</defs>
</svg>
