<?xml version="1.0" standalone="no"?>
<!DOCTYPE svg PUBLIC "-//W3C//DTD SVG 1.1//EN" "http://www.w3.org/Graphics/SVG/1.1/DTD/svg11.dtd" >
<svg xmlns="http://www.w3.org/2000/svg" xmlns:xlink="http://www.w3.org/1999/xlink" version="1.1">
<metadata></metadata>
<defs>
<font id="apercu_probold" horiz-adv-x="601" >
<font-face units-per-em="1024" ascent="819" descent="-205" />
<missing-glyph horiz-adv-x="253" />
<glyph unicode="fi" horiz-adv-x="585" d="M33 516h65v6q0 51 17.5 89.5t49 63.5t75.5 37.5t98 12.5q49 0 87.5 -9t60.5 -21l-40 -96q-25 10 -46 13.5t-55 3.5q-55 0 -87.5 -24.5t-32.5 -70.5v-5h290v-516h-127v408h-163v-408h-127v408h-65v108z" />
<glyph unicode="fl" horiz-adv-x="637" d="M33 516h65v27q0 94 49.5 138t128.5 44h284v-725h-127v616h-149q-27 0 -43 -14.5t-16 -49.5v-36h109v-108h-109v-408h-127v408h-65v108z" />
<glyph unicode=" "  horiz-adv-x="253" />
<glyph unicode="&#x09;" horiz-adv-x="253" />
<glyph unicode="&#xa0;" horiz-adv-x="253" />
<glyph unicode="!" horiz-adv-x="368" d="M271 717l-28 -469h-111l-29 469h168zM102 78q0 36 25 61t60 25q36 0 60.5 -25t24.5 -61t-24.5 -60t-60.5 -24t-60.5 24t-24.5 60z" />
<glyph unicode="&#x22;" horiz-adv-x="502" d="M82 725h144l-31 -255h-81zM276 725h145l-32 -255h-81z" />
<glyph unicode="#" horiz-adv-x="753" d="M108 519h141l41 198h102l-41 -198h117l40 198h102l-40 -198h117v-100h-137l-25 -121h121v-100h-141l-41 -198h-103l41 198h-116l-40 -198h-103l40 198h-116v100h137l24 121h-120v100zM306 298h117l24 121h-116z" />
<glyph unicode="$" horiz-adv-x="549" d="M374 526q-20 40 -44 58t-56 18q-30 0 -49 -18.5t-19 -46.5q0 -31 22.5 -52.5t56.5 -39.5t73.5 -36.5t74 -43.5t57 -61t22.5 -89q0 -90 -45.5 -145.5t-122.5 -71.5v-90h-125v92q-37 9 -67.5 27.5t-54 44t-39 56.5t-22.5 65l107 67q8 -29 20.5 -55.5t30 -46.5t40 -31.5 t52.5 -11.5q42 0 67.5 22t25.5 71q0 30 -22 49t-56 36t-72.5 35t-72 44t-55.5 63.5t-22 94.5q0 68 38.5 119t101.5 69v91h125v-93q93 -27 137 -121z" />
<glyph unicode="%" horiz-adv-x="858" d="M53 561q0 35 13 64.5t35 51.5t52.5 35t67.5 13t67.5 -13t53 -35t35 -51.5t12.5 -64.5t-12.5 -64.5t-35 -51.5t-53 -35t-67.5 -13t-67.5 13t-52.5 35t-35 51.5t-13 64.5zM158 561q0 -29 16.5 -47.5t46.5 -18.5t47 18.5t17 47.5t-17 48t-47 19t-46.5 -19t-16.5 -48z M469 156q0 35 13 64.5t35 51.5t52.5 34.5t67.5 12.5t67.5 -12.5t52.5 -34.5t35 -52t13 -64q0 -35 -13 -65t-35 -52t-52.5 -34.5t-67.5 -12.5t-67.5 12.5t-52.5 34.5t-35 52t-13 65zM573 156q0 -29 17 -48t47 -19t46.5 19t16.5 48t-16.5 47.5t-46.5 18.5t-47 -18.5t-17 -47.5 zM744 697l-550 -736l-74 59l551 736z" />
<glyph unicode="&#x26;" horiz-adv-x="712" d="M295 -8q-48 0 -89.5 15t-72.5 43t-48 68.5t-17 92.5q0 40 11 74t30 62t43.5 49t51.5 36q-22 30 -35.5 66.5t-13.5 73.5q0 32 11.5 59.5t33 48t52.5 33t70 12.5q40 0 70.5 -12.5t52 -32.5t32 -45.5t10.5 -52.5q0 -33 -9.5 -60.5t-25.5 -51t-37.5 -41t-43.5 -30.5l117 -154 q14 28 26.5 57.5t26.5 71.5l73 -86q-8 -36 -21 -71.5t-32 -66.5l115 -150h-151l-42 55q-37 -30 -83.5 -46.5t-104.5 -16.5zM296 110q39 0 65.5 9.5t51.5 30.5l-145 192q-37 -23 -57.5 -56.5t-20.5 -72.5q0 -43 28.5 -73t77.5 -30zM322 616q-24 0 -39.5 -14t-15.5 -38 t9.5 -42t23.5 -37q12 5 25 13t23.5 18t17.5 23t7 29q0 22 -13.5 35t-37.5 13z" />
<glyph unicode="'" horiz-adv-x="308" d="M82 725h144l-31 -255h-81z" />
<glyph unicode="(" horiz-adv-x="307" d="M283 768q-23 -42 -40.5 -85.5t-29.5 -92.5t-18.5 -106.5t-6.5 -125.5q0 -72 6.5 -129t18.5 -105.5t29.5 -91t40.5 -83.5h-110q-20 37 -39.5 77t-34.5 88t-24 108t-9 136q0 77 9 137t24 108t34.5 88t39.5 77h110z" />
<glyph unicode=")" horiz-adv-x="307" d="M134 768q20 -37 40 -77t34.5 -88t24 -108t9.5 -137t-9.5 -136.5t-24 -107.5t-34 -88t-40.5 -77h-109q23 41 40 83.5t29 91t18.5 106t6.5 128.5q0 68 -6.5 125.5t-18.5 106.5t-29.5 92.5t-39.5 85.5h109z" />
<glyph unicode="*" horiz-adv-x="497" d="M301 609l112 37l33 -101l-111 -38l68 -93l-87 -65l-67 95l-68 -95l-87 65l69 93l-112 38l34 101l112 -37v116h104v-116z" />
<glyph unicode="+" horiz-adv-x="598" d="M355 568v-188h189v-111h-189v-188h-110v188h-189v111h189v188h110z" />
<glyph unicode="," horiz-adv-x="371" d="M135 150h171l-159 -310h-89z" />
<glyph unicode="-" horiz-adv-x="515" d="M67 380h382v-111h-382v111z" />
<glyph unicode="." horiz-adv-x="335" d="M82 80q0 37 24.5 61.5t61.5 24.5t61.5 -24.5t24.5 -61.5t-24.5 -61.5t-61.5 -24.5t-61.5 24.5t-24.5 61.5z" />
<glyph unicode="/" horiz-adv-x="563" d="M578 768l-447 -819h-123l447 819h123z" />
<glyph unicode="0" horiz-adv-x="655" d="M328 725q65 0 113.5 -25t82 -72t51 -115.5t17.5 -154.5t-17.5 -154t-51 -115t-82.5 -72t-113 -25q-65 0 -114 25t-82.5 72t-51 115t-17.5 154t17.5 154.5t51 115.5t82.5 72t114 25zM328 606q-71 0 -104.5 -63.5t-33.5 -184.5t33.5 -184t104.5 -63t104 63.5t33 183.5 q0 121 -33 184.5t-104 63.5z" />
<glyph unicode="1" horiz-adv-x="423" d="M336 717v-717h-129v537l-137 -82v139l210 123h56z" />
<glyph unicode="2" horiz-adv-x="592" d="M66 51l256 331q33 41 44 70t11 60q0 44 -22 69t-66 25q-39 0 -63 -24t-30 -70l-119 23q3 41 20 75.5t45 60t66.5 40t83.5 14.5q51 0 91 -15.5t67 -43t41.5 -66t14.5 -83.5q0 -43 -14.5 -85t-47.5 -85l-175 -228h252v-119h-455v51z" />
<glyph unicode="3" horiz-adv-x="603" d="M181 215q11 -48 39 -76t77 -28q50 0 82 32t32 87q0 62 -32 94t-81 32q-17 0 -31.5 -3.5t-30.5 -11.5l-52 72l135 185h-228v119h411v-45l-169 -229q7 1 13 1.5t15 0.5q41 0 74.5 -15t56.5 -43.5t35.5 -67.5t12.5 -87q0 -55 -18.5 -99.5t-51.5 -75.5t-77 -48t-96 -17 q-50 0 -92 15.5t-73.5 43t-51 65.5t-23.5 83z" />
<glyph unicode="4" horiz-adv-x="629" d="M369 133h-309v66l302 518h136v-465h80v-119h-80v-133h-129v133zM369 252v273l-152 -273h152z" />
<glyph unicode="5" horiz-adv-x="596" d="M196 210q6 -30 16.5 -49t25 -30t31.5 -15.5t34 -4.5q52 0 79.5 32.5t27.5 94.5q0 60 -29 91.5t-84 31.5q-36 0 -68.5 -17.5t-58.5 -46.5l-81 16l40 404h369v-119h-264l-16 -149q20 12 46 19t55 7q56 0 97.5 -17.5t68.5 -48.5t40.5 -75t13.5 -96q0 -54 -17 -99.5t-48 -78 t-74.5 -50.5t-96.5 -18q-46 0 -85.5 13.5t-70 39.5t-50 61.5t-23.5 80.5z" />
<glyph unicode="6" horiz-adv-x="607" d="M319 459q49 0 92 -17t73.5 -47.5t48.5 -73.5t18 -96q0 -50 -18 -92.5t-50 -73.5t-76.5 -49t-95.5 -18t-94.5 17.5t-75.5 48.5t-50.5 74t-18.5 93q0 33 9.5 66.5t24.5 59.5l209 374h144l-156 -266h16zM311 340q-46 0 -78 -29.5t-32 -85.5q0 -27 8.5 -47.5t24 -35.5 t35.5 -23t42 -8q46 0 78.5 31t32.5 83q0 55 -32.5 85t-78.5 30z" />
<glyph unicode="7" horiz-adv-x="508" d="M484 664l-270 -664h-127l245 598h-282v119h434v-53z" />
<glyph unicode="8" horiz-adv-x="608" d="M304 725q46 0 84 -15.5t65 -42.5t42 -62.5t15 -75.5q0 -44 -17.5 -80.5t-50.5 -62.5q44 -25 70 -68t26 -104q0 -52 -19 -93.5t-51.5 -69.5t-74.5 -43.5t-89 -15.5t-89 15.5t-74 43.5t-51 69.5t-19 93.5q0 61 25 104t69 68q-33 26 -50 62.5t-17 80.5q0 40 15 75.5t42 62.5 t65 42.5t84 15.5zM304 317q-44 0 -74 -26.5t-30 -76.5t30 -76.5t74 -26.5t74.5 26.5t30.5 76.5t-30.5 76.5t-74.5 26.5zM304 616q-39 0 -62.5 -24.5t-23.5 -64.5q0 -41 23.5 -66t62.5 -25t62.5 25t23.5 66q0 40 -23.5 64.5t-62.5 24.5z" />
<glyph unicode="9" horiz-adv-x="607" d="M304 258q-49 0 -91.5 17t-73 47.5t-48.5 73.5t-18 96q0 50 18 92.5t50 73.5t76 49t95 18q50 0 94.5 -17.5t76.5 -48.5t50.5 -74t18.5 -93q0 -33 -10 -66.5t-25 -59.5l-209 -374h-143l156 266h-17zM312 377q46 0 78.5 29.5t32.5 85.5q0 26 -8.5 47t-24 36t-35.5 23t-43 8 q-46 0 -78 -31t-32 -83q0 -55 32 -85t78 -30z" />
<glyph unicode=":" horiz-adv-x="346" d="M84 80q0 37 24.5 61.5t61.5 24.5t61.5 -24.5t24.5 -61.5t-24.5 -61.5t-61.5 -24.5t-61.5 24.5t-24.5 61.5zM84 438q0 37 24.5 61.5t61.5 24.5t61.5 -24.5t24.5 -61.5t-24.5 -61.5t-61.5 -24.5t-61.5 24.5t-24.5 61.5z" />
<glyph unicode=";" horiz-adv-x="346" d="M89 150h171l-159 -310h-89zM83 438q0 37 24.5 61.5t61.5 24.5t61.5 -24.5t24.5 -61.5t-24.5 -61.5t-61.5 -24.5t-61.5 24.5t-24.5 61.5z" />
<glyph unicode="&#x3c;" horiz-adv-x="498" d="M46 377l400 209v-134l-258 -135l258 -134v-134l-400 209v119z" />
<glyph unicode="=" horiz-adv-x="631" d="M92 465h448v-111h-448v111zM92 281h448v-111h-448v111z" />
<glyph unicode="&#x3e;" horiz-adv-x="498" d="M453 258l-401 -209v134l258 134l-258 135v134l401 -209v-119z" />
<glyph unicode="?" horiz-adv-x="471" d="M385 324q-17 -49 -55 -77.5t-93 -28.5q-61 0 -101.5 36t-40.5 95q0 52 31 83.5t80 49.5q30 11 49.5 21.5t31.5 20.5t16.5 20.5t4.5 22.5q0 27 -19.5 39t-46.5 12q-67 0 -87 -68l-112 18q6 32 21.5 60.5t40 50t58.5 34t76 12.5q86 0 137.5 -44t51.5 -118q0 -31 -9.5 -53.5 t-27.5 -39t-44 -30t-60 -26.5q-26 -10 -43 -18t-26.5 -15.5t-13.5 -16t-4 -18.5q0 -17 10.5 -26.5t26.5 -9.5q22 0 36 13t22 34zM152 78q0 36 24.5 61t60.5 25t60.5 -25t24.5 -61t-25 -60t-60 -24q-36 0 -60.5 24t-24.5 60z" />
<glyph unicode="@" horiz-adv-x="927" d="M253 303q0 45 15 86t43.5 72t69.5 49t93 18q33 0 59 -9.5t48 -29.5l11 32h85l-21 -224q-1 -11 -1.5 -18t-0.5 -12q0 -28 10 -40t30 -12q17 0 29 11.5t19.5 31.5t10.5 47.5t3 60.5q0 68 -20.5 118t-57 82.5t-86.5 48.5t-110 16q-55 0 -108 -20t-95.5 -60t-68.5 -100.5 t-26 -142.5q0 -77 27.5 -133t70 -93t95 -55.5t104.5 -18.5q24 0 49.5 1.5t54.5 7t63.5 16.5t76.5 32l40 -100q-37 -17 -70 -29t-67 -19t-70 -10t-77 -3q-94 0 -171.5 30.5t-132.5 84.5t-85.5 128t-30.5 161q0 97 32 176t88.5 135t134.5 86t171 30q96 0 169.5 -27.5 t122.5 -77.5t74.5 -119t25.5 -151q0 -57 -14.5 -103t-40 -78.5t-61.5 -50t-79 -17.5q-40 0 -70 21t-42 49q-26 -32 -60 -51t-77 -19t-77 14t-57 39.5t-35.5 61t-12.5 77.5zM469 424q-19 0 -36.5 -8.5t-31.5 -24.5t-22 -39.5t-8 -53.5q0 -83 73 -83q23 0 43 9t34.5 26 t22.5 39t8 49q0 41 -21.5 63.5t-61.5 22.5z" />
<glyph unicode="A" horiz-adv-x="628" d="M428 169h-227l-53 -169h-143l243 717h133l243 -717h-144zM239 292h151l-76 249z" />
<glyph unicode="B" horiz-adv-x="638" d="M354 717q46 0 83.5 -12t64.5 -36t42 -60.5t15 -85.5q0 -44 -18.5 -79t-52.5 -53q51 -20 79.5 -63t28.5 -112q0 -105 -63 -160.5t-174 -55.5h-267v717h262zM225 594v-156h122q40 0 62 17t22 61t-22 61t-65 17h-119zM225 315v-192h122q62 0 89 25t27 71t-26.5 71t-89.5 25 h-122z" />
<glyph unicode="C" horiz-adv-x="716" d="M565 477q-20 54 -61 89.5t-116 35.5q-42 0 -79 -15t-64.5 -45t-44 -75.5t-16.5 -108.5q0 -62 16.5 -107.5t44 -76t64.5 -45t79 -14.5q75 0 116 35t61 90l120 -31q-26 -103 -102.5 -160t-194.5 -57q-68 0 -128.5 23.5t-108 69.5t-75 114.5t-27.5 158.5t27.5 159t75 115 t108.5 69.5t128 23.5q118 0 194.5 -57t102.5 -160z" />
<glyph unicode="D" horiz-adv-x="699" d="M92 0v717h224q63 0 123.5 -20.5t107.5 -64.5t75 -111.5t28 -162.5q0 -94 -28 -161.5t-75 -111.5t-107 -64.5t-124 -20.5h-224zM274 123q43 0 86 10t77.5 36.5t56 72t21.5 116.5q0 72 -21.5 117.5t-56 71.5t-77.5 36.5t-86 10.5h-49v-471h49z" />
<glyph unicode="E" horiz-adv-x="588" d="M536 717v-123h-311v-151h249v-122h-249v-198h321v-123h-454v717h444z" />
<glyph unicode="F" horiz-adv-x="575" d="M546 717v-123h-321v-164h258v-123h-258v-307h-133v717h454z" />
<glyph unicode="G" horiz-adv-x="749" d="M554 77q-20 -32 -62.5 -58.5t-111.5 -26.5q-65 0 -124.5 23t-106 68.5t-73.5 114t-27 160.5t28 161t76 114.5t109.5 68.5t127.5 23q59 0 108.5 -17t87 -47t63 -71.5t39.5 -90.5l-122 -32q-26 61 -68 98t-108 37q-43 0 -80.5 -15t-65.5 -44.5t-44 -75.5t-16 -109 q0 -65 16 -110.5t43.5 -75.5t64.5 -43.5t79 -13.5q40 0 68.5 12t48 31.5t30.5 43.5t14 49h-133v110h262v-361h-112z" />
<glyph unicode="H" horiz-adv-x="737" d="M92 717h133v-273h287v273h133v-717h-133v322h-287v-322h-133v717z" />
<glyph unicode="I" horiz-adv-x="317" d="M225 0h-133v717h133v-717z" />
<glyph unicode="J" horiz-adv-x="527" d="M133 205q9 -48 31.5 -69t58.5 -21q22 0 39.5 5.5t29.5 20t19 38t7 59.5v479h134v-465q0 -73 -16 -122.5t-46 -80.5t-72 -44t-95 -13q-94 0 -152 49t-69 136z" />
<glyph unicode="K" horiz-adv-x="658" d="M225 717v-266l245 266h164l-291 -321l311 -396h-169l-260 342v-342h-133v717h133z" />
<glyph unicode="L" horiz-adv-x="543" d="M225 717v-594h304v-123h-437v717h133z" />
<glyph unicode="M" horiz-adv-x="821" d="M92 717h150l169 -448l169 448h149v-717h-133v442l-137 -376h-97l-137 376v-442h-133v717z" />
<glyph unicode="N" horiz-adv-x="720" d="M629 717v-717h-141l-263 473v-473h-133v717h140l264 -473v473h133z" />
<glyph unicode="O" horiz-adv-x="774" d="M387 725q68 0 129.5 -22.5t108 -67.5t73.5 -114t27 -163q0 -93 -27 -162t-73.5 -114t-108 -67.5t-129.5 -22.5t-129 22.5t-108 67.5t-74 114t-27 162t27 162.5t74 114.5t108 67.5t129 22.5zM387 602q-40 0 -77 -14.5t-65 -44t-44.5 -75.5t-16.5 -110q0 -63 16.5 -109 t44.5 -76t65 -44t77 -14t77 14t65 44t44.5 76t16.5 109t-16.5 109.5t-44.5 76t-65 44t-77 14.5z" />
<glyph unicode="P" horiz-adv-x="606" d="M225 281v-281h-133v717h270q56 0 99 -16.5t70.5 -45.5t41.5 -69t14 -87t-14 -87t-41.5 -69.5t-70 -45.5t-99.5 -16h-137zM357 403q44 0 69.5 23.5t25.5 72.5t-25.5 72t-69.5 23h-132v-191h132z" />
<glyph unicode="Q" horiz-adv-x="774" d="M387 725q68 0 129.5 -22.5t108 -67.5t73.5 -114t27 -163q0 -63 -12.5 -114t-35.5 -92l68 -68l-93 -92l-62 61q-43 -32 -95 -46.5t-108 -14.5q-68 0 -129 22.5t-108 67.5t-74 114t-27 162t27 162.5t74 114.5t108 67.5t129 22.5zM497 332l77 -79q15 44 16 105 q0 63 -16.5 109.5t-44.5 76t-65 44t-77 14.5t-77 -14.5t-65 -44t-44.5 -75.5t-16.5 -110q0 -63 16.5 -109t44.5 -76t65 -44t77 -14q61 0 110 30l-94 95z" />
<glyph unicode="R" horiz-adv-x="668" d="M571 513q0 -71 -34 -121.5t-100 -70.5l199 -321h-149l-192 309h-70v-309h-133v717h261q53 0 94 -15.5t69 -42t41.5 -64.5t13.5 -82zM354 432q36 0 60 18.5t24 62.5t-24 62.5t-60 18.5h-129v-162h129z" />
<glyph unicode="S" horiz-adv-x="549" d="M374 526q-20 40 -44 58t-56 18q-30 0 -49 -18.5t-19 -46.5q0 -31 22.5 -52.5t56.5 -39.5t73.5 -36.5t74 -43.5t57 -61t22.5 -89q0 -52 -16.5 -93.5t-46.5 -70t-72.5 -44t-93.5 -15.5q-49 0 -90.5 16t-73.5 43.5t-53.5 64t-29.5 77.5l107 67q8 -29 20.5 -55.5t30 -46.5 t40 -31.5t52.5 -11.5q42 0 67.5 22t25.5 71q0 30 -22 49t-56 36t-72.5 35t-72 44t-55.5 63.5t-22 94.5q0 41 15 76.5t41 61.5t61.5 41.5t77.5 15.5q72 0 125 -34t82 -96z" />
<glyph unicode="T" horiz-adv-x="546" d="M8 717h531v-123h-199v-594h-133v594h-199v123z" />
<glyph unicode="U" horiz-adv-x="671" d="M603 272q0 -72 -20 -124.5t-55 -87t-84.5 -51.5t-107.5 -17t-107.5 17t-84.5 51.5t-55 87.5t-20 124v445h133v-447q0 -156 134 -155q134 0 134 155v447h133v-445z" />
<glyph unicode="V" horiz-adv-x="618" d="M242 0l-241 717h147l161 -531l161 531h147l-240 -717h-135z" />
<glyph unicode="W" horiz-adv-x="942" d="M924 717l-188 -717h-135l-130 422l-130 -422h-135l-188 717h142l120 -528l134 452h114l135 -452l119 528h142z" />
<glyph unicode="X" horiz-adv-x="606" d="M565 717l-189 -330l223 -387h-147l-149 259l-148 -259h-148l223 387l-189 330h145l117 -203l117 203h145z" />
<glyph unicode="Y" horiz-adv-x="546" d="M143 717l130 -279l130 279h144l-207 -412v-305h-133v305l-207 412h143z" />
<glyph unicode="Z" horiz-adv-x="571" d="M48 717h475v-62l-307 -532h322v-123h-507v61l310 533h-293v123z" />
<glyph unicode="[" horiz-adv-x="360" d="M92 768h236v-111h-113v-598h113v-110h-236v819z" />
<glyph unicode="\" horiz-adv-x="563" d="M109 768l446 -819h-123l-446 819h123z" />
<glyph unicode="]" horiz-adv-x="360" d="M268 -51h-235v110h112v598h-112v111h235v-819z" />
<glyph unicode="^" horiz-adv-x="613" d="M361 717l200 -304h-123l-131 193l-132 -193h-123l200 304h109z" />
<glyph unicode="_" horiz-adv-x="517" d="M26 0h466v-111h-466v111z" />
<glyph unicode="`" horiz-adv-x="266" d="M251 573h-97l-141 152h172z" />
<glyph unicode="a" horiz-adv-x="526" d="M58 381q12 65 64.5 104t132.5 39q46 0 85.5 -10.5t68.5 -35.5t46 -66.5t17 -103.5v-308h-104l-14 66q-27 -33 -65 -53.5t-93 -20.5q-33 0 -62 10t-50 29.5t-33 49t-12 67.5t16 69.5t45 54t69.5 34t89.5 11.5h86v23q0 22 -7.5 36t-20 23.5t-29 13t-33.5 3.5q-27 0 -52 -12 t-37 -48zM172 151q0 -18 13.5 -34.5t39.5 -16.5q22 0 43.5 7.5t38.5 21t27.5 33.5t10.5 45v10h-85q-41 0 -64.5 -15.5t-23.5 -50.5z" />
<glyph unicode="b" horiz-adv-x="613" d="M569 258q0 -59 -14.5 -108.5t-44.5 -84t-74 -54t-102 -19.5q-24 0 -44.5 5.5t-36.5 15t-27.5 20t-16.5 20.5v-53h-127v725h127v-256q17 22 51.5 38.5t73.5 16.5q58 0 102 -19.5t74 -54t44.5 -84t14.5 -108.5zM436 258q0 77 -34.5 117.5t-85.5 40.5q-50 0 -84 -40.5 t-34 -117.5t34 -117.5t84 -40.5t85 40.5t35 117.5z" />
<glyph unicode="c" horiz-adv-x="564" d="M530 139q-30 -74 -88.5 -110.5t-145.5 -36.5q-63 0 -110.5 21t-78.5 57t-47 85t-16 103t16 103t47 85t78 57t111 21q87 0 146 -36.5t88 -110.5l-113 -46q-20 41 -49 63t-72 22q-60 0 -89.5 -44.5t-29.5 -113.5t29.5 -113.5t89.5 -44.5q43 0 71.5 22t49.5 63z" />
<glyph unicode="d" horiz-adv-x="613" d="M44 258q0 59 15 108.5t44.5 84t73.5 54t103 19.5q39 0 73 -17t51 -38v256h127v-725h-127v53q-5 -10 -16 -20.5t-27.5 -20t-37 -15t-43.5 -5.5q-58 0 -102.5 19.5t-74 54t-44.5 84t-15 108.5zM177 258q0 -77 35 -117.5t85 -40.5t84.5 40.5t34.5 117.5t-34.5 117.5 t-84.5 40.5t-85 -40.5t-35 -117.5z" />
<glyph unicode="e" horiz-adv-x="569" d="M532 217h-355q1 -22 9.5 -42.5t23.5 -37t37 -27t52 -10.5q44 0 72.5 20t52.5 60l102 -38q-30 -69 -85.5 -109.5t-148.5 -40.5q-67 0 -114 24.5t-76.5 63t-43.5 85.5t-14 93t14 93t43.5 85.5t76.5 63t114 24.5q65 0 110 -24t74.5 -61.5t42.5 -82.5t13 -87v-52zM292 416 q-25 0 -44 -9t-32.5 -22.5t-23 -31t-12.5 -36.5h222q-4 19 -12 37t-21.5 31.5t-32 22t-44.5 8.5z" />
<glyph unicode="f" horiz-adv-x="376" d="M33 516h65v27q0 94 49.5 138t128.5 44q30 0 54.5 -5.5t42.5 -14.5l-28 -103q-16 7 -30.5 10.5t-30.5 3.5q-27 0 -43 -14.5t-16 -49.5v-36h109v-108h-109v-408h-127v408h-65v108z" />
<glyph unicode="g" horiz-adv-x="527" d="M83 350q0 40 15 72.5t40.5 55t60 34.5t73.5 12q50 0 96 -22l97 51l50 -84l-74 -37q20 -36 21 -82q0 -41 -15 -72.5t-40.5 -53.5t-60.5 -34t-74 -12t-74 11q-25 -14 -25 -38q0 -38 48 -38h106q82 0 131.5 -38.5t49.5 -113.5q0 -48 -20.5 -82t-54 -55.5t-75.5 -31t-85 -9.5 q-49 0 -92 10.5t-74 32t-49 53.5t-18 74q0 32 10.5 58t31.5 44q-12 14 -19.5 35t-7.5 45q0 37 17.5 64t46.5 45q-17 20 -26.5 46.5t-9.5 59.5zM228 6q-16 0 -30.5 1t-28.5 3q-11 -17 -11 -47q0 -37 32.5 -55.5t82.5 -18.5q46 0 77 14.5t31 49.5q0 33 -23.5 43t-59.5 10h-70z M202 350q0 -32 20 -50.5t50 -18.5q31 0 51 18.5t20 50.5q0 33 -20 52.5t-51 19.5t-50.5 -19.5t-19.5 -52.5z" />
<glyph unicode="h" horiz-adv-x="607" d="M209 725v-292q25 39 66 65t98 26q74 0 117.5 -37.5t43.5 -117.5v-369h-127v324q0 92 -77 92q-22 0 -44 -11.5t-39 -35.5t-27.5 -61.5t-10.5 -89.5v-218h-127v725h127z" />
<glyph unicode="i" horiz-adv-x="266" d="M51 665q0 35 23 58t59 23t59 -23.5t23 -57.5q0 -35 -23 -58.5t-59 -23.5t-59 23.5t-23 58.5zM197 516v-516h-127v516h127z" />
<glyph unicode="j" horiz-adv-x="266" d="M197 516v-457q0 -61 -13.5 -107.5t-40.5 -79.5t-67.5 -55t-94.5 -34l-31 112q28 7 50.5 17.5t37.5 27.5t23.5 42.5t8.5 61.5v472h127zM51 665q0 35 23 58t59 23t59 -23.5t23 -57.5q0 -35 -23 -58.5t-59 -23.5t-59 23.5t-23 58.5z" />
<glyph unicode="k" horiz-adv-x="549" d="M209 725v-412l168 203h157l-207 -237l220 -279h-156l-182 244v-244h-127v725h127z" />
<glyph unicode="l" horiz-adv-x="284" d="M207 725v-725h-127v725h127z" />
<glyph unicode="m" horiz-adv-x="886" d="M384 0v344q0 39 -17.5 55.5t-45.5 16.5q-47 0 -79.5 -55.5t-32.5 -171.5v-189h-127v516h127v-83q29 43 63.5 67t84.5 24q48 0 87.5 -25t57.5 -81q28 50 68.5 78t88.5 28q73 0 113.5 -42t40.5 -116v-366h-127v344q0 39 -17.5 55.5t-45.5 16.5q-46 0 -79 -53t-33 -162v-201 h-127z" />
<glyph unicode="n" d="M209 516v-83q29 41 69 66t91 25q70 0 114 -39t44 -116v-369h-127v331q0 46 -20.5 65.5t-52.5 19.5q-24 0 -45 -14t-37.5 -40.5t-26 -65.5t-9.5 -90v-206h-127v516h127z" />
<glyph unicode="o" horiz-adv-x="612" d="M44 258q0 56 17.5 105t51 84.5t82.5 56t111 20.5t111 -20.5t83 -56t51 -84.5t17 -105t-17 -105t-51 -84.5t-82.5 -56t-111.5 -20.5q-62 0 -111 20.5t-82.5 56t-51 84.5t-17.5 105zM177 258q0 -32 9 -60.5t25 -50t40 -34.5t55 -13t55 13t40.5 34.5t25 50t8.5 60.5 t-8.5 60.5t-25 50t-40.5 34.5t-55 13t-55 -13t-40 -34.5t-25 -50t-9 -60.5z" />
<glyph unicode="p" horiz-adv-x="613" d="M569 258q0 -59 -14.5 -108.5t-44.5 -84t-74 -54t-102 -19.5q-39 0 -73.5 17t-51.5 38v-256h-127v725h127v-53q5 10 16.5 21t27.5 20t36.5 14.5t44.5 5.5q58 0 102 -19.5t74 -54t44.5 -84t14.5 -108.5zM436 258q0 77 -34.5 117.5t-85.5 40.5q-50 0 -84 -40.5t-34 -117.5 t34 -117.5t84 -40.5t85 40.5t35 117.5z" />
<glyph unicode="q" horiz-adv-x="613" d="M44 258q0 59 15 108.5t44.5 84t73.5 54t103 19.5q24 0 44 -5.5t36.5 -14.5t27.5 -20t16 -21v53h127v-725h-127v256q-17 -22 -51.5 -38.5t-72.5 -16.5q-58 0 -102.5 19.5t-74 54t-44.5 84t-15 108.5zM177 258q0 -77 35 -117.5t85 -40.5t84.5 40.5t34.5 117.5t-34.5 117.5 t-84.5 40.5t-85 -40.5t-35 -117.5z" />
<glyph unicode="r" horiz-adv-x="432" d="M82 0v516h127v-84q28 46 68 69t84 23q17 0 32.5 -2.5t30.5 -7.5l-24 -118q-24 14 -53 15q-28 0 -53 -12.5t-44 -39t-30 -70t-11 -106.5v-183h-127z" />
<glyph unicode="s" horiz-adv-x="466" d="M237 524q52 0 95 -23t66 -61l-75 -69q-17 24 -41 34.5t-45 10.5q-18 0 -33 -11t-15 -32q0 -17 13 -29.5t37 -20.5q27 -9 59 -20t60.5 -28t47.5 -43.5t19 -67.5q0 -35 -13 -66t-37 -55t-57.5 -37.5t-75.5 -13.5q-40 0 -74 12.5t-59.5 32.5t-44 45.5t-27.5 48.5l101 54 q14 -38 40 -61.5t64 -23.5q30 0 46.5 13.5t16.5 42.5q0 16 -11 26.5t-29.5 19t-41.5 15.5t-47 17q-22 9 -40.5 20.5t-33 28t-22.5 39t-8 52.5t11.5 57t33 48t52 33t68.5 12z" />
<glyph unicode="t" horiz-adv-x="401" d="M372 10q-22 -10 -43 -14t-41 -4q-88 0 -139 47t-51 143v226h-80v108h80v129l127 80v-209h136v-108h-136v-224q0 -48 17.5 -66t50.5 -18q13 0 24.5 2.5t24.5 10.5z" />
<glyph unicode="u" d="M392 0v83q-29 -41 -69 -66t-91 -25q-70 0 -114 39t-44 116v369h127v-331q0 -46 20.5 -65.5t52.5 -19.5q23 0 44.5 14t38 40.5t26 65.5t9.5 90v206h127v-516h-127z" />
<glyph unicode="v" horiz-adv-x="475" d="M133 516l105 -359l104 359h128l-175 -516h-115l-175 516h128z" />
<glyph unicode="w" horiz-adv-x="784" d="M759 516l-165 -516h-113l-89 334l-89 -334h-113l-164 516h128l92 -354l87 354h119l87 -354l92 354h128z" />
<glyph unicode="x" horiz-adv-x="493" d="M464 516l-150 -241l171 -275h-133l-105 168l-106 -168h-133l171 275l-149 241h133l84 -134l84 134h133z" />
<glyph unicode="y" horiz-adv-x="492" d="M131 516l120 -323l113 323h126l-266 -725h-123l89 242l-187 483h128z" />
<glyph unicode="z" horiz-adv-x="476" d="M58 516h365v-49l-221 -358h235v-109h-395v49l223 359h-207v108z" />
<glyph unicode="{" horiz-adv-x="354" d="M139 221q0 48 -18 65t-64 17v111q46 0 64 16.5t18 65.5v170q0 46 28.5 74t74.5 28h90v-111h-28q-25 0 -33.5 -9.5t-8.5 -36.5v-152q0 -31 -6 -49.5t-16.5 -29t-24 -15.5t-29.5 -7q15 -2 29 -6.5t24.5 -15t16.5 -29t6 -49.5v-153q0 -27 9 -36.5t33 -9.5h28v-110h-90 q-46 0 -74.5 28t-28.5 74v170z" />
<glyph unicode="|" horiz-adv-x="309" d="M217 768v-819h-125v819h125z" />
<glyph unicode="}" horiz-adv-x="354" d="M215 51q0 -46 -28 -74t-74 -28h-90v110h27q25 0 33.5 10t8.5 36v153q0 31 6 49.5t16.5 29t24.5 15t29 6.5q-15 2 -29 7t-24.5 15.5t-16.5 29t-6 49.5v152q0 27 -8.5 36.5t-33.5 9.5h-27v111h90q46 0 74 -28t28 -74v-170q0 -48 18 -65t64 -17v-111q-46 0 -64 -17t-18 -65 v-170z" />
<glyph unicode="~" horiz-adv-x="669" d="M76 326q9 22 24.5 42t36 36t44 25.5t49.5 9.5q33 0 59 -9t49.5 -21t47 -21t49.5 -9q30 0 53 15.5t40 36.5l66 -71q-9 -22 -24.5 -42t-36 -36t-44.5 -25.5t-50 -9.5q-33 0 -59 9t-49.5 21t-46.5 21t-50 9q-30 0 -52.5 -15.5t-40.5 -36.5z" />
<glyph unicode="&#xa1;" horiz-adv-x="368" d="M266 -208.956l-28 468.972h-111l-29 -468.972h168zM97 430.005q0 -35.998 25 -60.9961q25 -24.999 60 -24.999q36 0 60.5 24.999q24.5 24.998 24.5 60.9961t-24.5 59.9961q-24.5 23.999 -60.5 23.999t-60.5 -23.999q-24.5 -23.998 -24.5 -59.9961z" />
<glyph unicode="&#xa2;" horiz-adv-x="596" d="M542 240q-48 -118 -172 -142v-149h-125v149q-48 10 -83.5 34.5t-59 58.5t-35.5 77t-12 90t12 90.5t35.5 77.5t59 58t83.5 34v150h125v-150q124 -24 172 -141l-114 -46q-20 41 -49 63t-72 22q-60 0 -89.5 -44.5t-29.5 -113.5t29.5 -113t89.5 -44q43 0 72 22t49 63z" />
<glyph unicode="&#xa3;" horiz-adv-x="570" d="M54 432h49q-6 17 -11 37t-5 43q0 45 15.5 84t43.5 67.5t68.5 45t90.5 16.5q82 0 135.5 -38.5t76.5 -102.5l-105 -50q-34 73 -107 72q-17 0 -33.5 -5.5t-29.5 -18t-20.5 -31.5t-7.5 -46q0 -24 2 -41.5t6 -31.5h177v-119h-141q3 -18 3 -39q0 -32 -6.5 -56t-18.5 -44 t-26.5 -36t-31.5 -30q22 13 48 22.5t54 9.5q18 0 31 -4.5t24.5 -10.5t24 -10.5t30.5 -4.5q19 0 36 10.5t38 46.5l88 -55q-35 -61 -75 -90.5t-94 -29.5q-28 0 -47 6t-35 12.5t-33 13t-41 6.5q-34 0 -61 -10.5t-57 -27.5l-71 78q22 19 41.5 39t35 42t24.5 46.5t9 53.5 q0 17 -2.5 32.5t-6.5 29.5h-85v119z" />
<glyph unicode="&#xa4;" horiz-adv-x="583" d="M112 213q-26 46 -26 101t26 102l-92 70l100 100l70 -91q45 27 102 26q56 0 101 -26l71 91l99 -100l-91 -70q26 -46 26 -102q0 -55 -26 -101l91 -71l-99 -99l-71 91q-45 -27 -101 -26q-56 0 -102 26l-70 -91l-100 99zM209 314q0 -41 22 -66t61 -25t61 25t22 66t-22 66.5 t-61 25.5t-61 -25.5t-22 -66.5z" />
<glyph unicode="&#xa5;" horiz-adv-x="550" d="M152 717l123 -279l124 279h144l-148 -301h93v-111h-146v-74h146v-110h-146v-121h-133v121h-147v110h147v74h-147v111h94l-148 301h144z" />
<glyph unicode="&#xa6;" horiz-adv-x="309" d="M217 306v-357h-125v357h125zM92 411v357h125v-357h-125z" />
<glyph unicode="&#xa7;" horiz-adv-x="562" d="M502 227q0 -49 -16 -83t-45 -59q15 -27 20.5 -53t5.5 -49q0 -46 -15 -83t-40.5 -63t-59.5 -40t-70 -14q-80 0 -132.5 38t-72.5 117l112 36q14 -41 38 -56.5t55 -15.5q28 0 45 18.5t17 54.5q0 26 -13 45t-36 35t-55 31t-71 36q-46 24 -77 61t-31 98q0 49 16 83t45 59 q-15 27 -20.5 53t-5.5 49q0 46 15 83t40.5 63t59.5 40t71 14q80 0 132 -38t72 -117l-112 -36q-14 41 -38 56.5t-54 15.5q-28 0 -45.5 -18.5t-17.5 -55.5q0 -27 13 -45t36 -34t55 -31.5t71 -35.5q46 -24 77 -61.5t31 -97.5zM391 218q0 23 -17.5 40.5t-44.5 32.5t-60 29.5 t-66 31.5q-14 -11 -22.5 -26.5t-8.5 -35.5q0 -24 17.5 -41.5t44.5 -32t60.5 -29.5t65.5 -31q14 11 22.5 26.5t8.5 35.5z" />
<glyph unicode="&#xa8;" horiz-adv-x="390" d="M16 667q0 32 20 52t53 20t53 -20.5t20 -51.5q0 -32 -20 -52.5t-53 -20.5t-53 20.5t-20 52.5zM228 667q0 32 20 52t53 20t53 -20.5t20 -51.5q0 -32 -20 -52.5t-53 -20.5t-53 20.5t-20 52.5z" />
<glyph unicode="&#xa9;" horiz-adv-x="911" d="M61 358q0 85 30.5 158.5t83 127t125 84t156.5 30.5t155.5 -30.5t125 -84t83.5 -127t30 -158.5t-30 -158t-83.5 -127t-125 -84t-155.5 -30t-156.5 30t-125 84t-83 127t-30.5 158zM174 358q0 -63 21 -116.5t58.5 -92t89 -60t113.5 -21.5q61 0 113 21.5t89 60t58 92 t21 116.5t-21 116.5t-58 92.5t-89 60.5t-113 21.5t-113 -21.5t-89.5 -60.5t-58.5 -92.5t-21 -116.5zM645 282q-5 -36 -22.5 -63.5t-42.5 -45t-57.5 -27t-66.5 -9.5q-40 0 -77.5 14t-66 41.5t-45.5 69t-17 96.5t17 97t45.5 69.5t66 41.5t77.5 14q35 0 67 -9.5t57 -27.5 t42.5 -45t22.5 -63l-99 -19q-13 40 -38 53t-52 13q-42 0 -68 -34t-26 -90q0 -55 26 -89.5t68 -34.5q28 0 52 13.5t38 53.5z" />
<glyph unicode="&#xaa;" horiz-adv-x="459" d="M75 608q9 50 50.5 81.5t103.5 31.5q36 0 67.5 -8t54.5 -28t35.5 -52.5t12.5 -81.5v-244h-83l-9 53q-22 -26 -51.5 -41.5t-73.5 -15.5q-25 0 -47 8t-39 23.5t-27 38.5t-10 53q0 31 13 55.5t35.5 42t54.5 26.5t70 9h68v18q0 34 -21.5 46.5t-49.5 12.5q-22 0 -41 -9.5 t-29 -37.5zM164 426q0 -14 9.5 -26t32.5 -12q17 0 34 5.5t30.5 16.5t21.5 27t8 35v11h-68q-32 0 -50 -15t-18 -42z" />
<glyph unicode="&#xab;" horiz-adv-x="719" d="M45 359l316 224v-131l-189 -135l189 -134v-131l-316 223v84zM352 359l317 224v-131l-190 -135l190 -134v-131l-317 223v84z" />
<glyph unicode="&#xac;" horiz-adv-x="610" d="M61 417h478v-272h-127v157h-351v115z" />
<glyph unicode="&#xad;" horiz-adv-x="515" d="M67 380h382v-111h-382v111z" />
<glyph unicode="&#xae;" horiz-adv-x="911" d="M61 358q0 85 30.5 158.5t83 127t125 84t156.5 30.5t155.5 -30.5t125 -84t83.5 -127t30 -158.5t-30 -158t-83.5 -127t-125 -84t-155.5 -30t-156.5 30t-125 84t-83 127t-30.5 158zM174 358q0 -63 21 -116.5t58.5 -92t89 -60t113.5 -21.5q61 0 113 21.5t89 60t58 92 t21 116.5t-21 116.5t-58 92.5t-89 60.5t-113 21.5t-113 -21.5t-89.5 -60.5t-58.5 -92.5t-21 -116.5zM416 327h-13v-187h-107v437h173q74 0 108.5 -33t34.5 -92q0 -52 -24.5 -82t-64.5 -38l120 -192h-116zM403 492v-80h56q29 0 39 11t10 29t-10.5 29t-38.5 11h-56z" />
<glyph unicode="&#xaf;" horiz-adv-x="293" d="M9 745h276v-112h-276v112z" />
<glyph unicode="&#xb0;" horiz-adv-x="372" d="M61 607q0 27 9.5 49.5t26.5 39.5t40 26t49 9q27 0 50 -9t40 -26t26 -39.5t9 -49.5t-9 -49t-26 -39t-40 -26.5t-50 -9.5t-49.5 9.5t-39.5 26.5t-26.5 39t-9.5 49zM146 607q0 -18 11 -29.5t29 -11.5t29 11.5t11 29.5t-10.5 29.5t-29.5 11.5q-18 0 -29 -11.5t-11 -29.5z" />
<glyph unicode="&#xb1;" horiz-adv-x="605" d="M358 652v-188h189v-111h-189v-188h-110v188h-189v111h189v188h110zM60 112h488v-111h-488v111z" />
<glyph unicode="&#xb2;" horiz-adv-x="388" d="M54 343l149 181q16 19 21.5 36.5t5.5 33.5q0 20 -10.5 31t-28.5 11q-17 0 -31.5 -11t-20.5 -43l-82 23q6 52 43.5 84t90.5 32q59 0 97 -33.5t38 -91.5q0 -32 -12 -56.5t-29 -44.5l-84 -103h131v-85h-278v36z" />
<glyph unicode="&#xb3;" horiz-adv-x="397" d="M136 442q5 -28 22 -41t38 -13q50 0 50 61q0 29 -14.5 41.5t-34.5 12.5q-12 0 -20 -2.5t-18 -7.5l-41 51l67 88h-112v85h242v-36l-91 -117q26 0 47.5 -9.5t37 -25.5t24 -37.5t8.5 -46.5q0 -63 -35 -102.5t-108 -39.5q-32 0 -57.5 10t-44 27t-30 40.5t-12.5 51.5z" />
<glyph unicode="&#xb4;" horiz-adv-x="266" d="M81 725h172l-140 -152h-98z" />
<glyph unicode="&#xb5;" d="M392 0v83q-29 -41 -69 -66t-91 -25q-16 0 -31 3v-204h-127v725h127v-331q0 -46 20.5 -65.5t52.5 -19.5q23 0 44.5 14t38 40.5t26 65.5t9.5 90v206h127v-516h-127z" />
<glyph unicode="&#xb6;" horiz-adv-x="761" d="M55 484q0 48 18.5 90.5t50 74t74 50t90.5 18.5h412v-111h-63v-815h-123v815h-103v-815h-123v461q-48 0 -90.5 18.5t-74 49.5t-50 73.5t-18.5 90.5z" />
<glyph unicode="&#xb7;" horiz-adv-x="335" d="M82 377q0 37 24.5 61.5t61.5 24.5t61.5 -24.5t24.5 -61.5t-24.5 -61.5t-61.5 -24.5t-61.5 24.5t-24.5 61.5z" />
<glyph unicode="&#xb8;" horiz-adv-x="246" d="M157 -272l-152 67l145 144h92z" />
<glyph unicode="&#xb9;" horiz-adv-x="313" d="M231 717v-410h-91v285l-87 -39v97l141 67h37z" />
<glyph unicode="&#xba;" horiz-adv-x="534" d="M61 512q0 44 14 82.5t40.5 66.5t64.5 44t87 16t87 -16t64.5 -44t40.5 -66.5t14 -82.5t-14 -82.5t-40.5 -66.5t-64.5 -44t-87 -16t-87 16t-64.5 44t-40.5 66.5t-14 82.5zM166 512q0 -25 6.5 -47.5t20 -39t32 -27t42.5 -10.5q25 0 43.5 10.5t31.5 27t20 39t7 47.5t-7 47.5 t-20 39t-31.5 27t-43.5 10.5t-43 -10.5t-31.5 -27t-20 -39t-6.5 -47.5z" />
<glyph unicode="&#xbb;" horiz-adv-x="719" d="M675 275l-317 -223v131l190 134l-190 135v131l317 -224v-84zM368 275l-317 -223v131l190 134l-190 135v131l317 -224v-84z" />
<glyph unicode="&#xbc;" horiz-adv-x="883" d="M759 697l-551 -736l-74 59l551 736zM249 717v-410h-91v285l-87 -39v97l141 67h37zM667 68h-171v46l165 297h97v-258h44v-85h-44v-67h-91v67zM667 153v125l-65 -125h65z" />
<glyph unicode="&#xbd;" horiz-adv-x="940" d="M759 697l-551 -736l-74 59l551 736zM249 717v-410h-91v285l-87 -39v97l141 67h37zM580 37l149 181q16 19 21.5 36.5t5.5 33.5q0 20 -10.5 31t-28.5 11q-17 0 -31.5 -11t-20.5 -43l-82 23q6 52 43.5 84t90.5 32q59 0 97 -33.5t38 -91.5q0 -32 -12 -56.5t-29 -44.5 l-84 -103h131v-85h-278v36z" />
<glyph unicode="&#xbe;" horiz-adv-x="861" d="M782 697l-551 -736l-74 59l551 736zM136 442q5 -28 22 -41t38 -13q50 0 50 61q0 29 -14.5 41.5t-34.5 12.5q-12 0 -20 -2.5t-18 -7.5l-41 51l67 88h-112v85h242v-36l-91 -117q26 0 47.5 -9.5t37 -25.5t24 -37.5t8.5 -46.5q0 -63 -35 -102.5t-108 -39.5q-32 0 -57.5 10 t-44 27t-30 40.5t-12.5 51.5zM670 68h-171v46l165 297h97v-258h44v-85h-44v-67h-91v67zM670 153v125l-65 -125h65z" />
<glyph unicode="&#xbf;" horiz-adv-x="483" d="M92.0234 184.02q16.999 48.9971 54.9971 77.4951q37.9971 28.499 92.9941 28.499q60.9961 0 101.493 -35.998q40.498 -35.998 40.498 -94.9941q0 -51.9971 -30.998 -83.4951t-79.9951 -49.4971q-29.998 -10.999 -49.4971 -21.499q-19.499 -10.499 -31.498 -20.498 q-11.999 -10 -16.499 -20.499t-4.5 -22.499q0 -26.998 19.499 -38.9971t46.4971 -11.999q66.9961 0 86.9951 67.9951l111.993 -17.998q-6 -31.998 -21.499 -60.4971q-15.499 -28.498 -39.9971 -49.9971q-24.499 -21.498 -58.4971 -33.9971q-33.998 -12.5 -75.9951 -12.5 q-85.9951 0 -137.491 43.998q-51.4971 43.9971 -51.4971 117.992q0 30.998 9.49902 53.4971q9.5 22.498 27.498 38.9971q17.999 16.499 43.998 29.999q25.998 13.499 59.9961 26.498q25.998 9.99902 42.9971 17.999q16.999 7.99902 26.499 15.499 q9.49902 7.49902 13.499 15.999q3.99902 8.49902 3.99902 18.499q0 16.999 -10.499 26.498t-26.498 9.49902q-21.999 0 -35.998 -12.999t-21.999 -33.998zM325.01 430.005q0 -35.998 -24.499 -60.9961q-24.498 -24.999 -60.4961 -24.999t-60.4961 24.999 q-24.499 24.998 -24.499 60.9961t24.999 59.9961q24.998 23.999 59.9961 23.999q35.998 0 60.4961 -23.999q24.499 -23.998 24.499 -59.9961z" />
<glyph unicode="&#xc0;" horiz-adv-x="628" d="M428 169h-227l-53 -169h-143l243 717h133l243 -717h-144zM239 292h151l-76 249zM391 774h-97l-141 152h172z" />
<glyph unicode="&#xc1;" horiz-adv-x="628" d="M428 169h-227l-53 -169h-143l243 717h133l243 -717h-144zM239 292h151l-76 249zM292 926h172l-140 -152h-98z" />
<glyph unicode="&#xc2;" horiz-adv-x="628" d="M428 169h-227l-53 -169h-143l243 717h133l243 -717h-144zM239 292h151l-76 249zM297 971h35l175 -190h-123l-70 75l-69 -75h-123z" />
<glyph unicode="&#xc3;" horiz-adv-x="628" d="M428 169h-227l-53 -169h-143l243 717h133l243 -717h-144zM239 292h151l-76 249zM117 840q17 39 52 64t74 25q26 0 43.5 -6.5t31.5 -14.5t28.5 -14.5t33.5 -6.5q17 0 34 12t31 32l67 -56q-17 -39 -52 -64t-74 -25q-26 0 -43.5 6.5t-32 14t-28.5 14.5t-33 7q-17 0 -34 -12 t-31 -32z" />
<glyph unicode="&#xc4;" horiz-adv-x="628" d="M428 169h-227l-53 -169h-143l243 717h133l243 -717h-144zM239 292h151l-76 249zM136 868q0 32 20 52t53 20t53 -20.5t20 -51.5q0 -32 -20 -52.5t-53 -20.5t-53 20.5t-20 52.5zM348 868q0 32 20 52t53 20t53 -20.5t20 -51.5q0 -32 -20 -52.5t-53 -20.5t-53 20.5t-20 52.5z " />
<glyph unicode="&#xc5;" horiz-adv-x="628" d="M428 169h-227l-53 -169h-143l243 717h133l243 -717h-144zM239 292h151l-76 249zM209 872q0 45 30 74.5t76 29.5t75.5 -29.5t29.5 -74.5t-29.5 -75t-75.5 -30t-76 30t-30 75zM284 872q0 -14 8 -23.5t23 -9.5q14 0 22.5 9t8.5 24q0 14 -8.5 23t-22.5 9t-22.5 -9t-8.5 -23z " />
<glyph unicode="&#xc6;" horiz-adv-x="879" d="M826 717v-123h-310v-151h249v-122h-249v-198h321v-123h-454v169h-164l-67 -169h-144l314 717h504zM269 292h114v249h-13z" />
<glyph unicode="&#xc7;" horiz-adv-x="716" d="M565 477q-20 54 -61 89.5t-116 35.5q-42 0 -79 -15t-64.5 -45t-44 -75.5t-16.5 -108.5q0 -62 16.5 -107.5t44 -76t64.5 -45t79 -14.5q75 0 116 35t61 90l120 -31q-26 -103 -102.5 -160t-194.5 -57q-68 0 -128.5 23.5t-108 69.5t-75 114.5t-27.5 158.5t27.5 159t75 115 t108.5 69.5t128 23.5q118 0 194.5 -57t102.5 -160zM390 -272l-152 67l145 144h92z" />
<glyph unicode="&#xc8;" horiz-adv-x="588" d="M536 717v-123h-311v-151h249v-122h-249v-198h321v-123h-454v717h444zM399 774h-97l-141 152h172z" />
<glyph unicode="&#xc9;" horiz-adv-x="588" d="M536 717v-123h-311v-151h249v-122h-249v-198h321v-123h-454v717h444zM289 926h172l-140 -152h-98z" />
<glyph unicode="&#xca;" horiz-adv-x="588" d="M536 717v-123h-311v-151h249v-122h-249v-198h321v-123h-454v717h444zM302 971h35l175 -190h-123l-70 75l-69 -75h-123z" />
<glyph unicode="&#xcb;" horiz-adv-x="588" d="M536 717v-123h-311v-151h249v-122h-249v-198h321v-123h-454v717h444zM142 868q0 32 20 52t53 20t53 -20.5t20 -51.5q0 -32 -20 -52.5t-53 -20.5t-53 20.5t-20 52.5zM354 868q0 32 20 52t53 20t53 -20.5t20 -51.5q0 -32 -20 -52.5t-53 -20.5t-53 20.5t-20 52.5z" />
<glyph unicode="&#xcc;" horiz-adv-x="317" d="M225 0h-133v717h133v-717zM238 774h-97l-141 152h172z" />
<glyph unicode="&#xcd;" horiz-adv-x="317" d="M225 0h-133v717h133v-717zM147 926h172l-140 -152h-98z" />
<glyph unicode="&#xce;" horiz-adv-x="317" d="M225 0h-133v717h133v-717zM143 971h35l175 -190h-123l-70 75l-69 -75h-123z" />
<glyph unicode="&#xcf;" horiz-adv-x="317" d="M225 0h-133v717h133v-717zM-19 868q0 32 20 52t53 20t53 -20.5t20 -51.5q0 -32 -20 -52.5t-53 -20.5t-53 20.5t-20 52.5zM193 868q0 32 20 52t53 20t53 -20.5t20 -51.5q0 -32 -20 -52.5t-53 -20.5t-53 20.5t-20 52.5z" />
<glyph unicode="&#xd0;" horiz-adv-x="724" d="M23 414h95v303h224q63 0 123 -20.5t107.5 -64.5t75.5 -111.5t28 -162.5q0 -94 -28 -161.5t-75.5 -111.5t-107 -64.5t-123.5 -20.5h-224v303h-95v111zM251 594v-180h95v-111h-95v-180h49q43 0 86 10t77.5 36.5t56 72t21.5 116.5q0 72 -21.5 117.5t-56 71.5t-77.5 36.5 t-86 10.5h-49z" />
<glyph unicode="&#xd1;" horiz-adv-x="720" d="M629 717v-717h-141l-263 473v-473h-133v717h140l264 -473v473h133zM157 840q17 39 52 64t74 25q26 0 43.5 -6.5t31.5 -14.5t28.5 -14.5t33.5 -6.5q17 0 34 12t31 32l67 -56q-17 -39 -52 -64t-74 -25q-26 0 -43.5 6.5t-32 14t-28.5 14.5t-33 7q-17 0 -34 -12t-31 -32z" />
<glyph unicode="&#xd2;" horiz-adv-x="774" d="M387 725q68 0 129.5 -22.5t108 -67.5t73.5 -114t27 -163q0 -93 -27 -162t-73.5 -114t-108 -67.5t-129.5 -22.5t-129 22.5t-108 67.5t-74 114t-27 162t27 162.5t74 114.5t108 67.5t129 22.5zM387 602q-40 0 -77 -14.5t-65 -44t-44.5 -75.5t-16.5 -110q0 -63 16.5 -109 t44.5 -76t65 -44t77 -14t77 14t65 44t44.5 76t16.5 109t-16.5 109.5t-44.5 76t-65 44t-77 14.5zM455 774h-97l-141 152h172z" />
<glyph unicode="&#xd3;" horiz-adv-x="774" d="M387 725q68 0 129.5 -22.5t108 -67.5t73.5 -114t27 -163q0 -93 -27 -162t-73.5 -114t-108 -67.5t-129.5 -22.5t-129 22.5t-108 67.5t-74 114t-27 162t27 162.5t74 114.5t108 67.5t129 22.5zM387 602q-40 0 -77 -14.5t-65 -44t-44.5 -75.5t-16.5 -110q0 -63 16.5 -109 t44.5 -76t65 -44t77 -14t77 14t65 44t44.5 76t16.5 109t-16.5 109.5t-44.5 76t-65 44t-77 14.5zM365 926h172l-140 -152h-98z" />
<glyph unicode="&#xd4;" horiz-adv-x="774" d="M387 725q68 0 129.5 -22.5t108 -67.5t73.5 -114t27 -163q0 -93 -27 -162t-73.5 -114t-108 -67.5t-129.5 -22.5t-129 22.5t-108 67.5t-74 114t-27 162t27 162.5t74 114.5t108 67.5t129 22.5zM387 602q-40 0 -77 -14.5t-65 -44t-44.5 -75.5t-16.5 -110q0 -63 16.5 -109 t44.5 -76t65 -44t77 -14t77 14t65 44t44.5 76t16.5 109t-16.5 109.5t-44.5 76t-65 44t-77 14.5zM370 971h35l175 -190h-123l-70 75l-69 -75h-123z" />
<glyph unicode="&#xd5;" horiz-adv-x="774" d="M387 725q68 0 129.5 -22.5t108 -67.5t73.5 -114t27 -163q0 -93 -27 -162t-73.5 -114t-108 -67.5t-129.5 -22.5t-129 22.5t-108 67.5t-74 114t-27 162t27 162.5t74 114.5t108 67.5t129 22.5zM387 602q-40 0 -77 -14.5t-65 -44t-44.5 -75.5t-16.5 -110q0 -63 16.5 -109 t44.5 -76t65 -44t77 -14t77 14t65 44t44.5 76t16.5 109t-16.5 109.5t-44.5 76t-65 44t-77 14.5zM190 840q17 39 52 64t74 25q26 0 43.5 -6.5t31.5 -14.5t28.5 -14.5t33.5 -6.5q17 0 34 12t31 32l67 -56q-17 -39 -52 -64t-74 -25q-26 0 -43.5 6.5t-32 14t-28.5 14.5t-33 7 q-17 0 -34 -12t-31 -32z" />
<glyph unicode="&#xd6;" horiz-adv-x="774" d="M387 725q68 0 129.5 -22.5t108 -67.5t73.5 -114t27 -163q0 -93 -27 -162t-73.5 -114t-108 -67.5t-129.5 -22.5t-129 22.5t-108 67.5t-74 114t-27 162t27 162.5t74 114.5t108 67.5t129 22.5zM387 602q-40 0 -77 -14.5t-65 -44t-44.5 -75.5t-16.5 -110q0 -63 16.5 -109 t44.5 -76t65 -44t77 -14t77 14t65 44t44.5 76t16.5 109t-16.5 109.5t-44.5 76t-65 44t-77 14.5zM209 868q0 32 20 52t53 20t53 -20.5t20 -51.5q0 -32 -20 -52.5t-53 -20.5t-53 20.5t-20 52.5zM421 868q0 32 20 52t53 20t53 -20.5t20 -51.5q0 -32 -20 -52.5t-53 -20.5 t-53 20.5t-20 52.5z" />
<glyph unicode="&#xd7;" horiz-adv-x="604" d="M464 84l-162 163l-162 -163l-79 79l163 162l-163 161l79 79l162 -163l162 163l79 -79l-163 -161l163 -162z" />
<glyph unicode="&#xd8;" horiz-adv-x="774" d="M717 694l-68 -87q36 -45 56 -107t20 -142q0 -93 -27 -162t-73.5 -114t-108 -67.5t-129.5 -22.5q-49 0 -94.5 11t-84.5 35l-63 -80l-88 65l68 87q-36 45 -56 107t-20 141q0 93 27 162.5t74 114.5t108 67.5t129 22.5q49 0 94.5 -11.5t84.5 -34.5l63 80zM590 358 q0 42 -7.5 76.5t-20.5 61.5l-275 -356q45 -26 100 -25q40 0 77 13.5t65 43.5t44.5 75.5t16.5 110.5zM387 602q-40 0 -77 -14t-65 -43.5t-44.5 -75.5t-16.5 -111q0 -42 7.5 -76t20.5 -61l275 356q-45 25 -100 25z" />
<glyph unicode="&#xd9;" horiz-adv-x="671" d="M603 272q0 -72 -20 -124.5t-55 -87t-84.5 -51.5t-107.5 -17t-107.5 17t-84.5 51.5t-55 87.5t-20 124v445h133v-447q0 -156 134 -155q134 0 134 155v447h133v-445zM410 774h-97l-141 152h172z" />
<glyph unicode="&#xda;" horiz-adv-x="671" d="M603 272q0 -72 -20 -124.5t-55 -87t-84.5 -51.5t-107.5 -17t-107.5 17t-84.5 51.5t-55 87.5t-20 124v445h133v-447q0 -156 134 -155q134 0 134 155v447h133v-445zM326 926h172l-140 -152h-98z" />
<glyph unicode="&#xdb;" horiz-adv-x="671" d="M603 272q0 -72 -20 -124.5t-55 -87t-84.5 -51.5t-107.5 -17t-107.5 17t-84.5 51.5t-55 87.5t-20 124v445h133v-447q0 -156 134 -155q134 0 134 155v447h133v-445zM319 971h35l175 -190h-123l-70 75l-69 -75h-123z" />
<glyph unicode="&#xdc;" horiz-adv-x="671" d="M603 272q0 -72 -20 -124.5t-55 -87t-84.5 -51.5t-107.5 -17t-107.5 17t-84.5 51.5t-55 87.5t-20 124v445h133v-447q0 -156 134 -155q134 0 134 155v447h133v-445zM157 868q0 32 20 52t53 20t53 -20.5t20 -51.5q0 -32 -20 -52.5t-53 -20.5t-53 20.5t-20 52.5zM369 868 q0 32 20 52t53 20t53 -20.5t20 -51.5q0 -32 -20 -52.5t-53 -20.5t-53 20.5t-20 52.5z" />
<glyph unicode="&#xdd;" horiz-adv-x="546" d="M143 717l130 -279l130 279h144l-207 -412v-305h-133v305l-207 412h143zM261 926h172l-140 -152h-98z" />
<glyph unicode="&#xde;" horiz-adv-x="606" d="M225 140v-140h-133v717h133v-140h137q56 0 99 -16.5t70.5 -46t41.5 -69t14 -87.5q0 -47 -14 -87t-41.5 -69t-70 -45.5t-99.5 -16.5h-137zM357 263q44 0 69.5 23t25.5 72t-25.5 72.5t-69.5 23.5h-132v-191h132z" />
<glyph unicode="&#xdf;" horiz-adv-x="583" d="M33 449h53v63q0 52 15.5 92t42.5 67t65 40.5t83 13.5q96 0 145 -49.5t49 -131.5q0 -52 -24.5 -87t-57.5 -46q28 -8 53 -23t44.5 -38t31 -54.5t11.5 -71.5q0 -122 -58.5 -177t-170.5 -55q-16 0 -35.5 2.5t-30.5 5.5v111q15 -3 31 -6t33 -3q60 0 84 31.5t24 83.5 q0 63 -32.5 90t-90.5 27h-34v115h21q39 0 62.5 19.5t23.5 63.5q0 41 -21.5 62.5t-57.5 21.5q-37 0 -60 -25t-23 -76v-515h-123v334h-53v115z" />
<glyph unicode="&#xe0;" horiz-adv-x="526" d="M58 381q12 65 64.5 104t132.5 39q46 0 85.5 -10.5t68.5 -35.5t46 -66.5t17 -103.5v-308h-104l-14 66q-27 -33 -65 -53.5t-93 -20.5q-33 0 -62 10t-50 29.5t-33 49t-12 67.5t16 69.5t45 54t69.5 34t89.5 11.5h86v23q0 22 -7.5 36t-20 23.5t-29 13t-33.5 3.5q-27 0 -52 -12 t-37 -48zM172 151q0 -18 13.5 -34.5t39.5 -16.5q22 0 43.5 7.5t38.5 21t27.5 33.5t10.5 45v10h-85q-41 0 -64.5 -15.5t-23.5 -50.5zM342 573h-97l-141 152h172z" />
<glyph unicode="&#xe1;" horiz-adv-x="526" d="M58 381q12 65 64.5 104t132.5 39q46 0 85.5 -10.5t68.5 -35.5t46 -66.5t17 -103.5v-308h-104l-14 66q-27 -33 -65 -53.5t-93 -20.5q-33 0 -62 10t-50 29.5t-33 49t-12 67.5t16 69.5t45 54t69.5 34t89.5 11.5h86v23q0 22 -7.5 36t-20 23.5t-29 13t-33.5 3.5q-27 0 -52 -12 t-37 -48zM172 151q0 -18 13.5 -34.5t39.5 -16.5q22 0 43.5 7.5t38.5 21t27.5 33.5t10.5 45v10h-85q-41 0 -64.5 -15.5t-23.5 -50.5zM243 725h172l-140 -152h-98z" />
<glyph unicode="&#xe2;" horiz-adv-x="526" d="M58 381q12 65 64.5 104t132.5 39q46 0 85.5 -10.5t68.5 -35.5t46 -66.5t17 -103.5v-308h-104l-14 66q-27 -33 -65 -53.5t-93 -20.5q-33 0 -62 10t-50 29.5t-33 49t-12 67.5t16 69.5t45 54t69.5 34t89.5 11.5h86v23q0 22 -7.5 36t-20 23.5t-29 13t-33.5 3.5q-27 0 -52 -12 t-37 -48zM172 151q0 -18 13.5 -34.5t39.5 -16.5q22 0 43.5 7.5t38.5 21t27.5 33.5t10.5 45v10h-85q-41 0 -64.5 -15.5t-23.5 -50.5zM245 770h35l175 -190h-123l-70 75l-69 -75h-123z" />
<glyph unicode="&#xe3;" horiz-adv-x="526" d="M58 381q12 65 64.5 104t132.5 39q46 0 85.5 -10.5t68.5 -35.5t46 -66.5t17 -103.5v-308h-104l-14 66q-27 -33 -65 -53.5t-93 -20.5q-33 0 -62 10t-50 29.5t-33 49t-12 67.5t16 69.5t45 54t69.5 34t89.5 11.5h86v23q0 22 -7.5 36t-20 23.5t-29 13t-33.5 3.5q-27 0 -52 -12 t-37 -48zM172 151q0 -18 13.5 -34.5t39.5 -16.5q22 0 43.5 7.5t38.5 21t27.5 33.5t10.5 45v10h-85q-41 0 -64.5 -15.5t-23.5 -50.5zM67 639q17 39 52 64t74 25q26 0 43.5 -6.5t31.5 -14.5t28.5 -14.5t33.5 -6.5q17 0 34 12t31 32l67 -56q-17 -39 -52 -64t-74 -25 q-26 0 -43.5 6.5t-32 14t-28.5 14.5t-33 7q-17 0 -34 -12t-31 -32z" />
<glyph unicode="&#xe4;" horiz-adv-x="526" d="M58 381q12 65 64.5 104t132.5 39q46 0 85.5 -10.5t68.5 -35.5t46 -66.5t17 -103.5v-308h-104l-14 66q-27 -33 -65 -53.5t-93 -20.5q-33 0 -62 10t-50 29.5t-33 49t-12 67.5t16 69.5t45 54t69.5 34t89.5 11.5h86v23q0 22 -7.5 36t-20 23.5t-29 13t-33.5 3.5q-27 0 -52 -12 t-37 -48zM172 151q0 -18 13.5 -34.5t39.5 -16.5q22 0 43.5 7.5t38.5 21t27.5 33.5t10.5 45v10h-85q-41 0 -64.5 -15.5t-23.5 -50.5zM81 667q0 32 20 52t53 20t53 -20.5t20 -51.5q0 -32 -20 -52.5t-53 -20.5t-53 20.5t-20 52.5zM293 667q0 32 20 52t53 20t53 -20.5t20 -51.5 q0 -32 -20 -52.5t-53 -20.5t-53 20.5t-20 52.5z" />
<glyph unicode="&#xe5;" horiz-adv-x="526" d="M58 381q12 65 64.5 104t132.5 39q46 0 85.5 -10.5t68.5 -35.5t46 -66.5t17 -103.5v-308h-104l-14 66q-27 -33 -65 -53.5t-93 -20.5q-33 0 -62 10t-50 29.5t-33 49t-12 67.5t16 69.5t45 54t69.5 34t89.5 11.5h86v23q0 22 -7.5 36t-20 23.5t-29 13t-33.5 3.5q-27 0 -52 -12 t-37 -48zM172 151q0 -18 13.5 -34.5t39.5 -16.5q22 0 43.5 7.5t38.5 21t27.5 33.5t10.5 45v10h-85q-41 0 -64.5 -15.5t-23.5 -50.5zM151 671q0 45 30 74.5t76 29.5t75.5 -29.5t29.5 -74.5t-29.5 -75t-75.5 -30t-76 30t-30 75zM226 671q0 -14 8 -23.5t23 -9.5q14 0 22.5 9 t8.5 24q0 14 -8.5 23t-22.5 9t-22.5 -9t-8.5 -23z" />
<glyph unicode="&#xe6;" horiz-adv-x="870" d="M834 217h-356q1 -22 9.5 -42.5t23.5 -37t37 -27t52 -10.5q44 0 72.5 20t52.5 60l102 -38q-30 -69 -85.5 -109.5t-148.5 -40.5q-76 0 -125.5 30.5t-79.5 76.5q-41 -61 -89 -84t-103 -23q-33 0 -62 10t-50 29.5t-33 49t-12 67.5t16 69.5t45 54t69.5 34t89.5 11.5h86v23 q0 22 -7.5 36t-20 23.5t-29 13t-33.5 3.5q-27 0 -52 -12t-37 -48l-108 25q12 65 64.5 104t132.5 39q52 0 96 -14t74 -48q30 29 71.5 45.5t96.5 16.5q65 0 110.5 -24t74.5 -61.5t42.5 -82.5t13.5 -87v-52zM172 151q0 -18 13.5 -34.5t39.5 -16.5q22 0 43.5 7.5t38.5 21 t27.5 33.5t10.5 45v10h-85q-41 0 -64.5 -16t-23.5 -50zM593 416q-25 0 -44 -9t-33 -22.5t-23.5 -31t-12.5 -36.5h223q-4 19 -12 37t-21.5 31.5t-32 22t-44.5 8.5z" />
<glyph unicode="&#xe7;" horiz-adv-x="564" d="M530 139q-30 -74 -88.5 -110.5t-145.5 -36.5q-63 0 -110.5 21t-78.5 57t-47 85t-16 103t16 103t47 85t78 57t111 21q87 0 146 -36.5t88 -110.5l-113 -46q-20 41 -49 63t-72 22q-60 0 -89.5 -44.5t-29.5 -113.5t29.5 -113.5t89.5 -44.5q43 0 71.5 22t49.5 63zM297 -272 l-152 67l145 144h92z" />
<glyph unicode="&#xe8;" horiz-adv-x="569" d="M532 217h-355q1 -22 9.5 -42.5t23.5 -37t37 -27t52 -10.5q44 0 72.5 20t52.5 60l102 -38q-30 -69 -85.5 -109.5t-148.5 -40.5q-67 0 -114 24.5t-76.5 63t-43.5 85.5t-14 93t14 93t43.5 85.5t76.5 63t114 24.5q65 0 110 -24t74.5 -61.5t42.5 -82.5t13 -87v-52zM292 416 q-25 0 -44 -9t-32.5 -22.5t-23 -31t-12.5 -36.5h222q-4 19 -12 37t-21.5 31.5t-32 22t-44.5 8.5zM361 573h-97l-141 152h172z" />
<glyph unicode="&#xe9;" horiz-adv-x="569" d="M532 217h-355q1 -22 9.5 -42.5t23.5 -37t37 -27t52 -10.5q44 0 72.5 20t52.5 60l102 -38q-30 -69 -85.5 -109.5t-148.5 -40.5q-67 0 -114 24.5t-76.5 63t-43.5 85.5t-14 93t14 93t43.5 85.5t76.5 63t114 24.5q65 0 110 -24t74.5 -61.5t42.5 -82.5t13 -87v-52zM292 416 q-25 0 -44 -9t-32.5 -22.5t-23 -31t-12.5 -36.5h222q-4 19 -12 37t-21.5 31.5t-32 22t-44.5 8.5zM268 725h172l-140 -152h-98z" />
<glyph unicode="&#xea;" horiz-adv-x="569" d="M532 217h-355q1 -22 9.5 -42.5t23.5 -37t37 -27t52 -10.5q44 0 72.5 20t52.5 60l102 -38q-30 -69 -85.5 -109.5t-148.5 -40.5q-67 0 -114 24.5t-76.5 63t-43.5 85.5t-14 93t14 93t43.5 85.5t76.5 63t114 24.5q65 0 110 -24t74.5 -61.5t42.5 -82.5t13 -87v-52zM292 416 q-25 0 -44 -9t-32.5 -22.5t-23 -31t-12.5 -36.5h222q-4 19 -12 37t-21.5 31.5t-32 22t-44.5 8.5zM275 770h35l175 -190h-123l-70 75l-69 -75h-123z" />
<glyph unicode="&#xeb;" horiz-adv-x="569" d="M532 217h-355q1 -22 9.5 -42.5t23.5 -37t37 -27t52 -10.5q44 0 72.5 20t52.5 60l102 -38q-30 -69 -85.5 -109.5t-148.5 -40.5q-67 0 -114 24.5t-76.5 63t-43.5 85.5t-14 93t14 93t43.5 85.5t76.5 63t114 24.5q65 0 110 -24t74.5 -61.5t42.5 -82.5t13 -87v-52zM292 416 q-25 0 -44 -9t-32.5 -22.5t-23 -31t-12.5 -36.5h222q-4 19 -12 37t-21.5 31.5t-32 22t-44.5 8.5zM113 667q0 32 20 52t53 20t53 -20.5t20 -51.5q0 -32 -20 -52.5t-53 -20.5t-53 20.5t-20 52.5zM325 667q0 32 20 52t53 20t53 -20.5t20 -51.5q0 -32 -20 -52.5t-53 -20.5 t-53 20.5t-20 52.5z" />
<glyph unicode="&#xec;" horiz-adv-x="266" d="M197 516v-516h-127v516h127zM222 573h-97l-141 152h172z" />
<glyph unicode="&#xed;" horiz-adv-x="266" d="M197 516v-516h-127v516h127zM111 725h172l-140 -152h-98z" />
<glyph unicode="&#xee;" horiz-adv-x="266" d="M197 516v-516h-127v516h127zM118 770h35l175 -190h-123l-70 75l-69 -75h-123z" />
<glyph unicode="&#xef;" horiz-adv-x="266" d="M197 516v-516h-127v516h127zM-44 667q0 32 20 52t53 20t53 -20.5t20 -51.5q0 -32 -20 -52.5t-53 -20.5t-53 20.5t-20 52.5zM168 667q0 32 20 52t53 20t53 -20.5t20 -51.5q0 -32 -20 -52.5t-53 -20.5t-53 20.5t-20 52.5z" />
<glyph unicode="&#xf0;" horiz-adv-x="598" d="M188 601l30 43q-23 11 -42.5 21t-45.5 19l64 93q46 -20 86 -43l33 49l78 -53l-33 -48q98 -70 147 -166t49 -233q0 -65 -17 -118t-49 -91.5t-80 -60t-109 -21.5q-62 0 -110 20.5t-80 56t-48.5 84.5t-16.5 105t16.5 105t48.5 84.5t80 56t110 20.5q23 0 44.5 -5.5 t38.5 -14.5q-30 52 -84 91l-33 -48zM177 258q0 -32 8 -60.5t22.5 -50t37.5 -34.5t54 -13t54 13t38 34.5t22.5 50t7.5 60.5t-7.5 60.5t-23 50t-38 34.5t-53.5 13t-54 -13t-37.5 -34.5t-22.5 -50t-8 -60.5z" />
<glyph unicode="&#xf1;" d="M209 516v-83q29 41 69 66t91 25q70 0 114 -39t44 -116v-369h-127v331q0 46 -20.5 65.5t-52.5 19.5q-24 0 -45 -14t-37.5 -40.5t-26 -65.5t-9.5 -90v-206h-127v516h127zM115 639q17 39 52 64t74 25q26 0 43.5 -6.5t31.5 -14.5t28.5 -14.5t33.5 -6.5q17 0 34 12t31 32 l67 -56q-17 -39 -52 -64t-74 -25q-26 0 -43.5 6.5t-32 14t-28.5 14.5t-33 7q-17 0 -34 -12t-31 -32z" />
<glyph unicode="&#xf2;" horiz-adv-x="612" d="M44 258q0 56 17.5 105t51 84.5t82.5 56t111 20.5t111 -20.5t83 -56t51 -84.5t17 -105t-17 -105t-51 -84.5t-82.5 -56t-111.5 -20.5q-62 0 -111 20.5t-82.5 56t-51 84.5t-17.5 105zM177 258q0 -32 9 -60.5t25 -50t40 -34.5t55 -13t55 13t40.5 34.5t25 50t8.5 60.5 t-8.5 60.5t-25 50t-40.5 34.5t-55 13t-55 -13t-40 -34.5t-25 -50t-9 -60.5zM384 573h-97l-141 152h172z" />
<glyph unicode="&#xf3;" horiz-adv-x="612" d="M44 258q0 56 17.5 105t51 84.5t82.5 56t111 20.5t111 -20.5t83 -56t51 -84.5t17 -105t-17 -105t-51 -84.5t-82.5 -56t-111.5 -20.5q-62 0 -111 20.5t-82.5 56t-51 84.5t-17.5 105zM177 258q0 -32 9 -60.5t25 -50t40 -34.5t55 -13t55 13t40.5 34.5t25 50t8.5 60.5 t-8.5 60.5t-25 50t-40.5 34.5t-55 13t-55 -13t-40 -34.5t-25 -50t-9 -60.5zM284 725h172l-140 -152h-98z" />
<glyph unicode="&#xf4;" horiz-adv-x="612" d="M44 258q0 56 17.5 105t51 84.5t82.5 56t111 20.5t111 -20.5t83 -56t51 -84.5t17 -105t-17 -105t-51 -84.5t-82.5 -56t-111.5 -20.5q-62 0 -111 20.5t-82.5 56t-51 84.5t-17.5 105zM177 258q0 -32 9 -60.5t25 -50t40 -34.5t55 -13t55 13t40.5 34.5t25 50t8.5 60.5 t-8.5 60.5t-25 50t-40.5 34.5t-55 13t-55 -13t-40 -34.5t-25 -50t-9 -60.5zM289 770h35l175 -190h-123l-70 75l-69 -75h-123z" />
<glyph unicode="&#xf5;" horiz-adv-x="612" d="M44 258q0 56 17.5 105t51 84.5t82.5 56t111 20.5t111 -20.5t83 -56t51 -84.5t17 -105t-17 -105t-51 -84.5t-82.5 -56t-111.5 -20.5q-62 0 -111 20.5t-82.5 56t-51 84.5t-17.5 105zM177 258q0 -32 9 -60.5t25 -50t40 -34.5t55 -13t55 13t40.5 34.5t25 50t8.5 60.5 t-8.5 60.5t-25 50t-40.5 34.5t-55 13t-55 -13t-40 -34.5t-25 -50t-9 -60.5zM109 639q17 39 52 64t74 25q26 0 43.5 -6.5t31.5 -14.5t28.5 -14.5t33.5 -6.5q17 0 34 12t31 32l67 -56q-17 -39 -52 -64t-74 -25q-26 0 -43.5 6.5t-32 14t-28.5 14.5t-33 7q-17 0 -34 -12t-31 -32 z" />
<glyph unicode="&#xf6;" horiz-adv-x="612" d="M44 258q0 56 17.5 105t51 84.5t82.5 56t111 20.5t111 -20.5t83 -56t51 -84.5t17 -105t-17 -105t-51 -84.5t-82.5 -56t-111.5 -20.5q-62 0 -111 20.5t-82.5 56t-51 84.5t-17.5 105zM177 258q0 -32 9 -60.5t25 -50t40 -34.5t55 -13t55 13t40.5 34.5t25 50t8.5 60.5 t-8.5 60.5t-25 50t-40.5 34.5t-55 13t-55 -13t-40 -34.5t-25 -50t-9 -60.5zM128 667q0 32 20 52t53 20t53 -20.5t20 -51.5q0 -32 -20 -52.5t-53 -20.5t-53 20.5t-20 52.5zM340 667q0 32 20 52t53 20t53 -20.5t20 -51.5q0 -32 -20 -52.5t-53 -20.5t-53 20.5t-20 52.5z" />
<glyph unicode="&#xf7;" horiz-adv-x="573" d="M201 127q0 37 24.5 61.5t61.5 24.5t61.5 -24.5t24.5 -61.5t-24.5 -61.5t-61.5 -24.5t-61.5 24.5t-24.5 61.5zM201 518q0 37 24.5 61.5t61.5 24.5t61.5 -24.5t24.5 -61.5t-24.5 -61.5t-61.5 -24.5t-61.5 24.5t-24.5 61.5zM43 378h487v-111h-487v111z" />
<glyph unicode="&#xf8;" horiz-adv-x="612" d="M44 258q0 56 17.5 105t51 84.5t82.5 56t111 20.5q34 0 64 -6.5t56 -17.5l61 78l88 -65l-63 -81q56 -71 56 -174q0 -56 -17 -105t-51 -84.5t-82.5 -56t-111.5 -20.5q-34 0 -64 6.5t-56 17.5l-61 -77l-88 64l63 81q-56 71 -56 174zM435 258q0 36 -10 64l-166 -212 q22 -9 47 -10q31 0 55 13t40.5 34.5t25 50t8.5 60.5zM177 258q0 -36 10 -63l166 212q-22 9 -47 9q-31 0 -55 -13t-40 -34.5t-25 -50t-9 -60.5z" />
<glyph unicode="&#xf9;" d="M392 0v83q-29 -41 -69 -66t-91 -25q-70 0 -114 39t-44 116v369h127v-331q0 -46 20.5 -65.5t52.5 -19.5q23 0 44.5 14t38 40.5t26 65.5t9.5 90v206h127v-516h-127zM362 573h-97l-141 152h172z" />
<glyph unicode="&#xfa;" d="M392 0v83q-29 -41 -69 -66t-91 -25q-70 0 -114 39t-44 116v369h127v-331q0 -46 20.5 -65.5t52.5 -19.5q23 0 44.5 14t38 40.5t26 65.5t9.5 90v206h127v-516h-127zM293 725h172l-140 -152h-98z" />
<glyph unicode="&#xfb;" d="M392 0v83q-29 -41 -69 -66t-91 -25q-70 0 -114 39t-44 116v369h127v-331q0 -46 20.5 -65.5t52.5 -19.5q23 0 44.5 14t38 40.5t26 65.5t9.5 90v206h127v-516h-127zM281 770h35l175 -190h-123l-70 75l-69 -75h-123z" />
<glyph unicode="&#xfc;" d="M392 0v83q-29 -41 -69 -66t-91 -25q-70 0 -114 39t-44 116v369h127v-331q0 -46 20.5 -65.5t52.5 -19.5q23 0 44.5 14t38 40.5t26 65.5t9.5 90v206h127v-516h-127zM127 667q0 32 20 52t53 20t53 -20.5t20 -51.5q0 -32 -20 -52.5t-53 -20.5t-53 20.5t-20 52.5zM339 667 q0 32 20 52t53 20t53 -20.5t20 -51.5q0 -32 -20 -52.5t-53 -20.5t-53 20.5t-20 52.5z" />
<glyph unicode="&#xfd;" horiz-adv-x="492" d="M131 516l120 -323l113 323h126l-266 -725h-123l89 242l-187 483h128zM237 725h172l-140 -152h-98z" />
<glyph unicode="&#xfe;" horiz-adv-x="613" d="M569 258q0 -59 -14.5 -108.5t-44.5 -84t-74 -54t-102 -19.5q-24 0 -44.5 5.5t-36.5 15t-27.5 20t-16.5 20.5v-262h-127v934h127v-256q17 22 51.5 38.5t73.5 16.5q58 0 102 -19.5t74 -54t44.5 -84t14.5 -108.5zM436 258q0 77 -34.5 117.5t-85.5 40.5q-50 0 -84 -40.5 t-34 -117.5t34 -117.5t84 -40.5t85 40.5t35 117.5z" />
<glyph unicode="&#xff;" horiz-adv-x="492" d="M131 516l120 -323l113 323h126l-266 -725h-123l89 242l-187 483h128zM70 667q0 32 20 52t53 20t53 -20.5t20 -51.5q0 -32 -20 -52.5t-53 -20.5t-53 20.5t-20 52.5zM282 667q0 32 20 52t53 20t53 -20.5t20 -51.5q0 -32 -20 -52.5t-53 -20.5t-53 20.5t-20 52.5z" />
<glyph unicode="&#x100;" horiz-adv-x="628" d="M428 169h-227l-53 -169h-143l243 717h133l243 -717h-144zM239 292h151l-76 249zM177 925h276v-112h-276v112z" />
<glyph unicode="&#x101;" horiz-adv-x="526" d="M58 381q12 65 64.5 104t132.5 39q46 0 85.5 -10.5t68.5 -35.5t46 -66.5t17 -103.5v-308h-104l-14 66q-27 -33 -65 -53.5t-93 -20.5q-33 0 -62 10t-50 29.5t-33 49t-12 67.5t16 69.5t45 54t69.5 34t89.5 11.5h86v23q0 22 -7.5 36t-20 23.5t-29 13t-33.5 3.5q-27 0 -52 -12 t-37 -48zM172 151q0 -18 13.5 -34.5t39.5 -16.5q22 0 43.5 7.5t38.5 21t27.5 33.5t10.5 45v10h-85q-41 0 -64.5 -15.5t-23.5 -50.5zM123 726h276v-112h-276v112z" />
<glyph unicode="&#x102;" horiz-adv-x="628" d="M428 169h-227l-53 -169h-143l243 717h133l243 -717h-144zM239 292h151l-76 249zM286 918q0 -12 8 -20.5t20 -8.5t20 8.5t8 20.5h93q0 -23 -8.5 -43t-24 -35t-38 -24.5t-50.5 -9.5t-50.5 9.5t-38 24.5t-24 35t-8.5 43h93z" />
<glyph unicode="&#x103;" horiz-adv-x="526" d="M58 381q12 65 64.5 104t132.5 39q46 0 85.5 -10.5t68.5 -35.5t46 -66.5t17 -103.5v-308h-104l-14 66q-27 -33 -65 -53.5t-93 -20.5q-33 0 -62 10t-50 29.5t-33 49t-12 67.5t16 69.5t45 54t69.5 34t89.5 11.5h86v23q0 22 -7.5 36t-20 23.5t-29 13t-33.5 3.5q-27 0 -52 -12 t-37 -48zM172 151q0 -18 13.5 -34.5t39.5 -16.5q22 0 43.5 7.5t38.5 21t27.5 33.5t10.5 45v10h-85q-41 0 -64.5 -15.5t-23.5 -50.5zM235 717q0 -12 8 -20.5t20 -8.5t20 8.5t8 20.5h93q0 -23 -8.5 -43t-24 -35t-38 -24.5t-50.5 -9.5t-50.5 9.5t-38 24.5t-24 35t-8.5 43h93z " />
<glyph unicode="&#x104;" horiz-adv-x="628" d="M428 169h-227l-53 -169h-143l243 717h133l243 -717q-27 -23 -43.5 -43t-16.5 -37q0 -27 27 -26q14 0 24.5 9.5t25.5 29.5l54 -44q-24 -38 -50.5 -58t-67.5 -20q-44 0 -72 24t-28 68q0 30 19 56t46 41h-62zM239 292h151l-76 249z" />
<glyph unicode="&#x105;" horiz-adv-x="526" d="M368 0l-14 66q-27 -33 -65 -53.5t-93 -20.5q-33 0 -62 10t-50 29.5t-33 49t-12 67.5t16 69.5t45 54t69.5 34t89.5 11.5h86v23q0 22 -7.5 36t-20 23.5t-29 13t-33.5 3.5q-27 0 -52 -12t-37 -48l-108 25q12 65 64.5 104t132.5 39q46 0 85.5 -10.5t68.5 -35.5t46 -66.5 t17 -103.5v-308q-27 -23 -43 -43t-16 -37q0 -27 26 -26q14 0 24.5 9.5t25.5 29.5l55 -44q-24 -38 -50.5 -58t-68.5 -20q-44 0 -71.5 24t-27.5 68q0 30 19 56t45 41h-22zM172 151q0 -18 13.5 -34.5t39.5 -16.5q22 0 43.5 7.5t38.5 21t27.5 33.5t10.5 45v10h-85 q-41 0 -64.5 -15.5t-23.5 -50.5z" />
<glyph unicode="&#x106;" horiz-adv-x="716" d="M565 477q-20 54 -61 89.5t-116 35.5q-42 0 -79 -15t-64.5 -45t-44 -75.5t-16.5 -108.5q0 -62 16.5 -107.5t44 -76t64.5 -45t79 -14.5q75 0 116 35t61 90l120 -31q-26 -103 -102.5 -160t-194.5 -57q-68 0 -128.5 23.5t-108 69.5t-75 114.5t-27.5 158.5t27.5 159t75 115 t108.5 69.5t128 23.5q118 0 194.5 -57t102.5 -160zM356 926h172l-140 -152h-98z" />
<glyph unicode="&#x107;" horiz-adv-x="564" d="M530 139q-30 -74 -88.5 -110.5t-145.5 -36.5q-63 0 -110.5 21t-78.5 57t-47 85t-16 103t16 103t47 85t78 57t111 21q87 0 146 -36.5t88 -110.5l-113 -46q-20 41 -49 63t-72 22q-60 0 -89.5 -44.5t-29.5 -113.5t29.5 -113.5t89.5 -44.5q43 0 71.5 22t49.5 63zM271 725h172 l-140 -152h-98z" />
<glyph unicode="&#x108;" horiz-adv-x="716" d="M565 477q-20 54 -61 89.5t-116 35.5q-42 0 -79 -15t-64.5 -45t-44 -75.5t-16.5 -108.5q0 -62 16.5 -107.5t44 -76t64.5 -45t79 -14.5q75 0 116 35t61 90l120 -31q-26 -103 -102.5 -160t-194.5 -57q-68 0 -128.5 23.5t-108 69.5t-75 114.5t-27.5 158.5t27.5 159t75 115 t108.5 69.5t128 23.5q118 0 194.5 -57t102.5 -160zM372 971h35l175 -190h-123l-70 75l-69 -75h-123z" />
<glyph unicode="&#x109;" horiz-adv-x="564" d="M530 139q-30 -74 -88.5 -110.5t-145.5 -36.5q-63 0 -110.5 21t-78.5 57t-47 85t-16 103t16 103t47 85t78 57t111 21q87 0 146 -36.5t88 -110.5l-113 -46q-20 41 -49 63t-72 22q-60 0 -89.5 -44.5t-29.5 -113.5t29.5 -113.5t89.5 -44.5q43 0 71.5 22t49.5 63zM282 770h35 l175 -190h-123l-70 75l-69 -75h-123z" />
<glyph unicode="&#x10a;" horiz-adv-x="716" d="M565 477q-20 54 -61 89.5t-116 35.5q-42 0 -79 -15t-64.5 -45t-44 -75.5t-16.5 -108.5q0 -62 16.5 -107.5t44 -76t64.5 -45t79 -14.5q75 0 116 35t61 90l120 -31q-26 -103 -102.5 -160t-194.5 -57q-68 0 -128.5 23.5t-108 69.5t-75 114.5t-27.5 158.5t27.5 159t75 115 t108.5 69.5t128 23.5q118 0 194.5 -57t102.5 -160zM309 866q0 35 23 58t58 23q36 0 59 -23.5t23 -57.5q0 -35 -23 -58.5t-59 -23.5t-58.5 23.5t-22.5 58.5z" />
<glyph unicode="&#x10b;" horiz-adv-x="564" d="M530 139q-30 -74 -88.5 -110.5t-145.5 -36.5q-63 0 -110.5 21t-78.5 57t-47 85t-16 103t16 103t47 85t78 57t111 21q87 0 146 -36.5t88 -110.5l-113 -46q-20 41 -49 63t-72 22q-60 0 -89.5 -44.5t-29.5 -113.5t29.5 -113.5t89.5 -44.5q43 0 71.5 22t49.5 63zM216 665 q0 35 23 58t58 23q36 0 59 -23.5t23 -57.5q0 -35 -23 -58.5t-59 -23.5t-58.5 23.5t-22.5 58.5z" />
<glyph unicode="&#x10c;" horiz-adv-x="716" d="M565 477q-20 54 -61 89.5t-116 35.5q-42 0 -79 -15t-64.5 -45t-44 -75.5t-16.5 -108.5q0 -62 16.5 -107.5t44 -76t64.5 -45t79 -14.5q75 0 116 35t61 90l120 -31q-26 -103 -102.5 -160t-194.5 -57q-68 0 -128.5 23.5t-108 69.5t-75 114.5t-27.5 158.5t27.5 159t75 115 t108.5 69.5t128 23.5q118 0 194.5 -57t102.5 -160zM198 971h123l69 -76l70 76h123l-175 -190h-35z" />
<glyph unicode="&#x10d;" horiz-adv-x="564" d="M530 139q-30 -74 -88.5 -110.5t-145.5 -36.5q-63 0 -110.5 21t-78.5 57t-47 85t-16 103t16 103t47 85t78 57t111 21q87 0 146 -36.5t88 -110.5l-113 -46q-20 41 -49 63t-72 22q-60 0 -89.5 -44.5t-29.5 -113.5t29.5 -113.5t89.5 -44.5q43 0 71.5 22t49.5 63zM105 770h123 l69 -76l70 76h123l-175 -190h-35z" />
<glyph unicode="&#x10e;" horiz-adv-x="699" d="M92 0v717h224q63 0 123.5 -20.5t107.5 -64.5t75 -111.5t28 -162.5q0 -94 -28 -161.5t-75 -111.5t-107 -64.5t-124 -20.5h-224zM274 123q43 0 86 10t77.5 36.5t56 72t21.5 116.5q0 72 -21.5 117.5t-56 71.5t-77.5 36.5t-86 10.5h-49v-471h49zM77 971h123l69 -76l70 76h123 l-175 -190h-35z" />
<glyph unicode="&#x10f;" horiz-adv-x="840" d="M44 258q0 59 15 108.5t44.5 84t73.5 54t103 19.5q39 0 73 -17t51 -38v256h127v-725h-127v53q-5 -10 -16 -20.5t-27.5 -20t-37 -15t-43.5 -5.5q-58 0 -102.5 19.5t-74 54t-44.5 84t-15 108.5zM177 258q0 -77 35 -117.5t85 -40.5t84.5 40.5t34.5 117.5t-34.5 117.5 t-84.5 40.5t-85 -40.5t-35 -117.5zM673 725h167l-153 -250h-94z" />
<glyph unicode="&#x110;" horiz-adv-x="724" d="M23 414h95v303h224q63 0 123 -20.5t107.5 -64.5t75.5 -111.5t28 -162.5q0 -94 -28 -161.5t-75.5 -111.5t-107 -64.5t-123.5 -20.5h-224v303h-95v111zM251 594v-180h95v-111h-95v-180h49q43 0 86 10t77.5 36.5t56 72t21.5 116.5q0 72 -21.5 117.5t-56 71.5t-77.5 36.5 t-86 10.5h-49z" />
<glyph unicode="&#x111;" horiz-adv-x="613" d="M291 667h113v58h127v-58h74v-95h-74v-572h-127v53q-5 -10 -16 -20.5t-27.5 -20t-37 -15t-43.5 -5.5q-58 0 -102.5 19.5t-74 54t-44.5 84t-15 108.5t15 108.5t44.5 84t73.5 54t103 19.5q39 0 73 -17t51 -38v103h-113v95zM177 258q0 -77 35 -117.5t85 -40.5t84.5 40.5 t34.5 117.5t-34.5 117.5t-84.5 40.5t-85 -40.5t-35 -117.5z" />
<glyph unicode="&#x112;" horiz-adv-x="588" d="M536 717v-123h-311v-151h249v-122h-249v-198h321v-123h-454v717h444zM185 925h276v-112h-276v112z" />
<glyph unicode="&#x113;" horiz-adv-x="569" d="M532 217h-355q1 -22 9.5 -42.5t23.5 -37t37 -27t52 -10.5q44 0 72.5 20t52.5 60l102 -38q-30 -69 -85.5 -109.5t-148.5 -40.5q-67 0 -114 24.5t-76.5 63t-43.5 85.5t-14 93t14 93t43.5 85.5t76.5 63t114 24.5q65 0 110 -24t74.5 -61.5t42.5 -82.5t13 -87v-52zM292 416 q-25 0 -44 -9t-32.5 -22.5t-23 -31t-12.5 -36.5h222q-4 19 -12 37t-21.5 31.5t-32 22t-44.5 8.5zM154 726h276v-112h-276v112z" />
<glyph unicode="&#x114;" horiz-adv-x="588" d="M536 717v-123h-311v-151h249v-122h-249v-198h321v-123h-454v717h444zM283 918q0 -12 8 -20.5t20 -8.5t20 8.5t8 20.5h93q0 -23 -8.5 -43t-24 -35t-38 -24.5t-50.5 -9.5t-50.5 9.5t-38 24.5t-24 35t-8.5 43h93z" />
<glyph unicode="&#x115;" horiz-adv-x="569" d="M532 217h-355q1 -22 9.5 -42.5t23.5 -37t37 -27t52 -10.5q44 0 72.5 20t52.5 60l102 -38q-30 -69 -85.5 -109.5t-148.5 -40.5q-67 0 -114 24.5t-76.5 63t-43.5 85.5t-14 93t14 93t43.5 85.5t76.5 63t114 24.5q65 0 110 -24t74.5 -61.5t42.5 -82.5t13 -87v-52zM292 416 q-25 0 -44 -9t-32.5 -22.5t-23 -31t-12.5 -36.5h222q-4 19 -12 37t-21.5 31.5t-32 22t-44.5 8.5zM261 717q0 -12 8 -20.5t20 -8.5t20 8.5t8 20.5h93q0 -23 -8.5 -43t-24 -35t-38 -24.5t-50.5 -9.5t-50.5 9.5t-38 24.5t-24 35t-8.5 43h93z" />
<glyph unicode="&#x116;" horiz-adv-x="588" d="M536 717v-123h-311v-151h249v-122h-249v-198h321v-123h-454v717h444zM229 866q0 35 23 58t58 23q36 0 59 -23.5t23 -57.5q0 -35 -23 -58.5t-59 -23.5t-58.5 23.5t-22.5 58.5z" />
<glyph unicode="&#x117;" horiz-adv-x="569" d="M532 217h-355q1 -22 9.5 -42.5t23.5 -37t37 -27t52 -10.5q44 0 72.5 20t52.5 60l102 -38q-30 -69 -85.5 -109.5t-148.5 -40.5q-67 0 -114 24.5t-76.5 63t-43.5 85.5t-14 93t14 93t43.5 85.5t76.5 63t114 24.5q65 0 110 -24t74.5 -61.5t42.5 -82.5t13 -87v-52zM292 416 q-25 0 -44 -9t-32.5 -22.5t-23 -31t-12.5 -36.5h222q-4 19 -12 37t-21.5 31.5t-32 22t-44.5 8.5zM211 665q0 35 23 58t58 23q36 0 59 -23.5t23 -57.5q0 -35 -23 -58.5t-59 -23.5t-58.5 23.5t-22.5 58.5z" />
<glyph unicode="&#x118;" horiz-adv-x="588" d="M92 0v717h444v-123h-311v-151h249v-122h-249v-198h321v-123q-27 -23 -43.5 -43t-16.5 -37q0 -27 27 -26q14 0 24.5 9.5t25.5 29.5l54 -44q-24 -38 -50 -58t-68 -20q-44 0 -72 24t-28 68q0 30 19 56t46 41h-372z" />
<glyph unicode="&#x119;" horiz-adv-x="569" d="M532 217h-355q1 -22 9.5 -42.5t23.5 -37t37 -27t52 -10.5q44 0 72.5 20t52.5 60l102 -38q-24 -54 -62 -91t-97 -51q-27 -23 -43.5 -43t-16.5 -37q0 -27 27 -26q14 0 24.5 9.5t25.5 29.5l54 -44q-24 -38 -50.5 -58t-68.5 -20q-44 0 -71.5 24t-27.5 68q0 27 15 50t37 40 q-61 3 -104 28.5t-70.5 63.5t-40.5 83.5t-13 89.5q0 46 14 93t43.5 85.5t76.5 63t114 24.5q65 0 110 -24t74.5 -61.5t42.5 -82.5t13 -87v-52zM292 416q-25 0 -44 -9t-32.5 -22.5t-23 -31t-12.5 -36.5h222q-4 19 -12 37t-21.5 31.5t-32 22t-44.5 8.5z" />
<glyph unicode="&#x11a;" horiz-adv-x="588" d="M536 717v-123h-311v-151h249v-122h-249v-198h321v-123h-454v717h444zM121 971h123l69 -76l70 76h123l-175 -190h-35z" />
<glyph unicode="&#x11b;" horiz-adv-x="569" d="M532 217h-355q1 -22 9.5 -42.5t23.5 -37t37 -27t52 -10.5q44 0 72.5 20t52.5 60l102 -38q-30 -69 -85.5 -109.5t-148.5 -40.5q-67 0 -114 24.5t-76.5 63t-43.5 85.5t-14 93t14 93t43.5 85.5t76.5 63t114 24.5q65 0 110 -24t74.5 -61.5t42.5 -82.5t13 -87v-52zM292 416 q-25 0 -44 -9t-32.5 -22.5t-23 -31t-12.5 -36.5h222q-4 19 -12 37t-21.5 31.5t-32 22t-44.5 8.5zM100 770h123l69 -76l70 76h123l-175 -190h-35z" />
<glyph unicode="&#x11c;" horiz-adv-x="749" d="M554 77q-20 -32 -62.5 -58.5t-111.5 -26.5q-65 0 -124.5 23t-106 68.5t-73.5 114t-27 160.5t28 161t76 114.5t109.5 68.5t127.5 23q59 0 108.5 -17t87 -47t63 -71.5t39.5 -90.5l-122 -32q-26 61 -68 98t-108 37q-43 0 -80.5 -15t-65.5 -44.5t-44 -75.5t-16 -109 q0 -65 16 -110.5t43.5 -75.5t64.5 -43.5t79 -13.5q40 0 68.5 12t48 31.5t30.5 43.5t14 49h-133v110h262v-361h-112zM373 971h35l175 -190h-123l-70 75l-69 -75h-123z" />
<glyph unicode="&#x11d;" horiz-adv-x="527" d="M83 350q0 40 15 72.5t40.5 55t60 34.5t73.5 12q50 0 96 -22l97 51l50 -84l-74 -37q20 -36 21 -82q0 -41 -15 -72.5t-40.5 -53.5t-60.5 -34t-74 -12t-74 11q-25 -14 -25 -38q0 -38 48 -38h106q82 0 131.5 -38.5t49.5 -113.5q0 -48 -20.5 -82t-54 -55.5t-75.5 -31t-85 -9.5 q-49 0 -92 10.5t-74 32t-49 53.5t-18 74q0 32 10.5 58t31.5 44q-12 14 -19.5 35t-7.5 45q0 37 17.5 64t46.5 45q-17 20 -26.5 46.5t-9.5 59.5zM228 6q-16 0 -30.5 1t-28.5 3q-11 -17 -11 -47q0 -37 32.5 -55.5t82.5 -18.5q46 0 77 14.5t31 49.5q0 33 -23.5 43t-59.5 10h-70z M202 350q0 -32 20 -50.5t50 -18.5q31 0 51 18.5t20 50.5q0 33 -20 52.5t-51 19.5t-50.5 -19.5t-19.5 -52.5zM248 770h35l175 -190h-123l-70 75l-69 -75h-123z" />
<glyph unicode="&#x11e;" horiz-adv-x="749" d="M554 77q-20 -32 -62.5 -58.5t-111.5 -26.5q-65 0 -124.5 23t-106 68.5t-73.5 114t-27 160.5t28 161t76 114.5t109.5 68.5t127.5 23q59 0 108.5 -17t87 -47t63 -71.5t39.5 -90.5l-122 -32q-26 61 -68 98t-108 37q-43 0 -80.5 -15t-65.5 -44.5t-44 -75.5t-16 -109 q0 -65 16 -110.5t43.5 -75.5t64.5 -43.5t79 -13.5q40 0 68.5 12t48 31.5t30.5 43.5t14 49h-133v110h262v-361h-112zM361 918q0 -12 8 -20.5t20 -8.5t20 8.5t8 20.5h93q0 -23 -8.5 -43t-24 -35t-38 -24.5t-50.5 -9.5t-50.5 9.5t-38 24.5t-24 35t-8.5 43h93z" />
<glyph unicode="&#x11f;" horiz-adv-x="527" d="M83 350q0 40 15 72.5t40.5 55t60 34.5t73.5 12q50 0 96 -22l97 51l50 -84l-74 -37q20 -36 21 -82q0 -41 -15 -72.5t-40.5 -53.5t-60.5 -34t-74 -12t-74 11q-25 -14 -25 -38q0 -38 48 -38h106q82 0 131.5 -38.5t49.5 -113.5q0 -48 -20.5 -82t-54 -55.5t-75.5 -31t-85 -9.5 q-49 0 -92 10.5t-74 32t-49 53.5t-18 74q0 32 10.5 58t31.5 44q-12 14 -19.5 35t-7.5 45q0 37 17.5 64t46.5 45q-17 20 -26.5 46.5t-9.5 59.5zM228 6q-16 0 -30.5 1t-28.5 3q-11 -17 -11 -47q0 -37 32.5 -55.5t82.5 -18.5q46 0 77 14.5t31 49.5q0 33 -23.5 43t-59.5 10h-70z M202 350q0 -32 20 -50.5t50 -18.5q31 0 51 18.5t20 50.5q0 33 -20 52.5t-51 19.5t-50.5 -19.5t-19.5 -52.5zM245 717q0 -12 8 -20.5t20 -8.5t20 8.5t8 20.5h93q0 -23 -8.5 -43t-24 -35t-38 -24.5t-50.5 -9.5t-50.5 9.5t-38 24.5t-24 35t-8.5 43h93z" />
<glyph unicode="&#x120;" horiz-adv-x="749" d="M554 77q-20 -32 -62.5 -58.5t-111.5 -26.5q-65 0 -124.5 23t-106 68.5t-73.5 114t-27 160.5t28 161t76 114.5t109.5 68.5t127.5 23q59 0 108.5 -17t87 -47t63 -71.5t39.5 -90.5l-122 -32q-26 61 -68 98t-108 37q-43 0 -80.5 -15t-65.5 -44.5t-44 -75.5t-16 -109 q0 -65 16 -110.5t43.5 -75.5t64.5 -43.5t79 -13.5q40 0 68.5 12t48 31.5t30.5 43.5t14 49h-133v110h262v-361h-112zM310 866q0 35 23 58t58 23q36 0 59 -23.5t23 -57.5q0 -35 -23 -58.5t-59 -23.5t-58.5 23.5t-22.5 58.5z" />
<glyph unicode="&#x121;" horiz-adv-x="527" d="M83 350q0 40 15 72.5t40.5 55t60 34.5t73.5 12q50 0 96 -22l97 51l50 -84l-74 -37q20 -36 21 -82q0 -41 -15 -72.5t-40.5 -53.5t-60.5 -34t-74 -12t-74 11q-25 -14 -25 -38q0 -38 48 -38h106q82 0 131.5 -38.5t49.5 -113.5q0 -48 -20.5 -82t-54 -55.5t-75.5 -31t-85 -9.5 q-49 0 -92 10.5t-74 32t-49 53.5t-18 74q0 32 10.5 58t31.5 44q-12 14 -19.5 35t-7.5 45q0 37 17.5 64t46.5 45q-17 20 -26.5 46.5t-9.5 59.5zM228 6q-16 0 -30.5 1t-28.5 3q-11 -17 -11 -47q0 -37 32.5 -55.5t82.5 -18.5q46 0 77 14.5t31 49.5q0 33 -23.5 43t-59.5 10h-70z M202 350q0 -32 20 -50.5t50 -18.5q31 0 51 18.5t20 50.5q0 33 -20 52.5t-51 19.5t-50.5 -19.5t-19.5 -52.5zM191 665q0 35 23 58t58 23q36 0 59 -23.5t23 -57.5q0 -35 -23 -58.5t-59 -23.5t-58.5 23.5t-22.5 58.5z" />
<glyph unicode="&#x122;" horiz-adv-x="749" d="M554 77q-20 -32 -62.5 -58.5t-111.5 -26.5q-65 0 -124.5 23t-106 68.5t-73.5 114t-27 160.5t28 161t76 114.5t109.5 68.5t127.5 23q59 0 108.5 -17t87 -47t63 -71.5t39.5 -90.5l-122 -32q-26 61 -68 98t-108 37q-43 0 -80.5 -15t-65.5 -44.5t-44 -75.5t-16 -109 q0 -65 16 -110.5t43.5 -75.5t64.5 -43.5t79 -13.5q40 0 68.5 12t48 31.5t30.5 43.5t14 49h-133v110h262v-361h-112zM323 -52h171l-159 -310h-89z" />
<glyph unicode="&#x123;" horiz-adv-x="527" d="M83 350q0 40 15 72.5t40.5 55t60 34.5t73.5 12q50 0 96 -22l97 51l50 -84l-74 -37q20 -36 21 -82q0 -41 -15 -72.5t-40.5 -53.5t-60.5 -34t-74 -12t-74 11q-25 -14 -25 -38q0 -38 48 -38h106q82 0 131.5 -38.5t49.5 -113.5q0 -48 -20.5 -82t-54 -55.5t-75.5 -31t-85 -9.5 q-49 0 -92 10.5t-74 32t-49 53.5t-18 74q0 32 10.5 58t31.5 44q-12 14 -19.5 35t-7.5 45q0 37 17.5 64t46.5 45q-17 20 -26.5 46.5t-9.5 59.5zM228 6q-16 0 -30.5 1t-28.5 3q-11 -17 -11 -47q0 -37 32.5 -55.5t82.5 -18.5q46 0 77 14.5t31 49.5q0 33 -23.5 43t-59.5 10h-70z M202 350q0 -32 20 -50.5t50 -18.5q31 0 51 18.5t20 50.5q0 33 -20 52.5t-51 19.5t-50.5 -19.5t-19.5 -52.5zM330 590h-94l-153 250h167z" />
<glyph unicode="&#x124;" horiz-adv-x="737" d="M92 717h133v-273h287v273h133v-717h-133v322h-287v-322h-133v717zM352 971h35l175 -190h-123l-70 75l-69 -75h-123z" />
<glyph unicode="&#x125;" horiz-adv-x="607" d="M209 725v-292q25 39 66 65t98 26q74 0 117.5 -37.5t43.5 -117.5v-369h-127v324q0 92 -77 92q-22 0 -44 -11.5t-39 -35.5t-27.5 -61.5t-10.5 -89.5v-218h-127v725h127zM267 971h35l175 -190h-123l-70 75l-69 -75h-123z" />
<glyph unicode="&#x126;" horiz-adv-x="737" d="M26 618h66v99h133v-99h287v99h133v-99h66v-110h-66v-508h-133v322h-287v-322h-133v508h-66v110zM512 444v64h-287v-64h287z" />
<glyph unicode="&#x127;" horiz-adv-x="607" d="M8 667h74v58h127v-58h114v-95h-114v-139q25 39 66 65t98 26q74 0 117.5 -37.5t43.5 -117.5v-369h-127v324q0 92 -77 92q-22 0 -44 -11.5t-39 -35.5t-27.5 -61.5t-10.5 -89.5v-218h-127v572h-74v95z" />
<glyph unicode="&#x128;" horiz-adv-x="317" d="M225 0h-133v717h133v-717zM-37 840q17 39 52 64t74 25q26 0 43.5 -6.5t31.5 -14.5t28.5 -14.5t33.5 -6.5q17 0 34 12t31 32l67 -56q-17 -39 -52 -64t-74 -25q-26 0 -43.5 6.5t-32 14t-28.5 14.5t-33 7q-17 0 -34 -12t-31 -32z" />
<glyph unicode="&#x129;" horiz-adv-x="266" d="M197 516v-516h-127v516h127zM-63 639q17 39 52 64t74 25q26 0 43.5 -6.5t31.5 -14.5t28.5 -14.5t33.5 -6.5q17 0 34 12t31 32l67 -56q-17 -39 -52 -64t-74 -25q-26 0 -43.5 6.5t-32 14t-28.5 14.5t-33 7q-17 0 -34 -12t-31 -32z" />
<glyph unicode="&#x12a;" horiz-adv-x="317" d="M225 0h-133v717h133v-717zM20 925h276v-112h-276v112z" />
<glyph unicode="&#x12b;" horiz-adv-x="266" d="M197 516v-516h-127v516h127zM-3 726h276v-112h-276v112z" />
<glyph unicode="&#x12c;" horiz-adv-x="317" d="M225 0h-133v717h133v-717zM131 918q0 -12 8 -20.5t20 -8.5t20 8.5t8 20.5h93q0 -23 -8.5 -43t-24 -35t-38 -24.5t-50.5 -9.5t-50.5 9.5t-38 24.5t-24 35t-8.5 43h93z" />
<glyph unicode="&#x12d;" horiz-adv-x="266" d="M197 516v-516h-127v516h127zM105 717q0 -12 8 -20.5t20 -8.5t20 8.5t8 20.5h93q0 -23 -8.5 -43t-24 -35t-38 -24.5t-50.5 -9.5t-50.5 9.5t-38 24.5t-24 35t-8.5 43h93z" />
<glyph unicode="&#x12e;" horiz-adv-x="317" d="M92 0v717h133v-717q-27 -23 -43 -43t-16 -37q0 -27 27 -26q14 0 24 9.5t26 29.5l54 -44q-24 -38 -50.5 -58t-68.5 -20q-44 0 -71.5 24t-27.5 68q0 30 19 56t45 41h-51z" />
<glyph unicode="&#x12f;" horiz-adv-x="266" d="M70 0v516h127v-516q-27 -23 -43.5 -43t-16.5 -37q0 -27 27 -26q14 0 24.5 9.5t25.5 29.5l54 -44q-24 -38 -50.5 -58t-67.5 -20q-44 0 -72 24t-28 68q0 30 19 56t46 41h-45zM51 665q0 35 23 58t59 23t59 -23.5t23 -57.5q0 -35 -23 -58.5t-59 -23.5t-59 23.5t-23 58.5z" />
<glyph unicode="&#x130;" horiz-adv-x="317" d="M225 0h-133v717h133v-717zM77 866q0 35 23 58t58 23q36 0 59 -23.5t23 -57.5q0 -35 -23 -58.5t-59 -23.5t-58.5 23.5t-22.5 58.5z" />
<glyph unicode="&#x131;" horiz-adv-x="266" d="M197 516v-516h-127v516h127z" />
<glyph unicode="&#x132;" horiz-adv-x="844" d="M225 0h-133v717h133v-717zM450 205q9 -48 31.5 -69t58.5 -21q22 0 39.5 5.5t29.5 20t19 38t7 59.5v479h134v-465q0 -73 -16 -122.5t-46 -80.5t-72 -44t-95 -13q-94 0 -152 49t-69 136z" />
<glyph unicode="&#x133;" horiz-adv-x="532" d="M51 665q0 35 23 58t59 23t59 -23.5t23 -57.5q0 -35 -23 -58.5t-59 -23.5t-59 23.5t-23 58.5zM197 516v-516h-127v516h127zM463 516v-457q0 -61 -13.5 -107.5t-40.5 -79.5t-67.5 -55t-94.5 -34l-31 112q28 7 50.5 17.5t37.5 27.5t23.5 42.5t8.5 61.5v472h127zM317 665 q0 35 23 58t59 23t59 -23.5t23 -57.5q0 -35 -23 -58.5t-59 -23.5t-59 23.5t-23 58.5z" />
<glyph unicode="&#x134;" horiz-adv-x="527" d="M133 205q9 -48 31.5 -69t58.5 -21q22 0 39.5 5.5t29.5 20t19 38t7 59.5v479h134v-465q0 -73 -16 -122.5t-46 -80.5t-72 -44t-95 -13q-94 0 -152 49t-69 136zM370 971h35l175 -190h-123l-70 75l-69 -75h-123z" />
<glyph unicode="&#x135;" horiz-adv-x="266" d="M197 516v-457q0 -61 -13.5 -107.5t-40.5 -79.5t-67.5 -55t-94.5 -34l-31 112q28 7 50.5 17.5t37.5 27.5t23.5 42.5t8.5 61.5v472h127zM116 770h35l175 -190h-123l-70 75l-70 -75h-122z" />
<glyph unicode="&#x136;" horiz-adv-x="658" d="M225 717v-266l245 266h164l-291 -321l311 -396h-169l-260 342v-342h-133v717h133zM293 -52h171l-159 -310h-89z" />
<glyph unicode="&#x137;" horiz-adv-x="549" d="M209 725v-412l168 203h157l-207 -237l220 -279h-156l-182 244v-244h-127v725h127zM241 -52h171l-159 -310h-89z" />
<glyph unicode="&#x138;" horiz-adv-x="549" d="M209 516v-203l168 203h157l-207 -237l220 -279h-156l-182 244v-244h-127v516h127z" />
<glyph unicode="&#x139;" horiz-adv-x="543" d="M225 717v-594h304v-123h-437v717h133zM160 926h172l-140 -152h-98z" />
<glyph unicode="&#x13a;" horiz-adv-x="284" d="M207 725v-725h-127v725h127zM148 926h172l-140 -152h-98z" />
<glyph unicode="&#x13b;" horiz-adv-x="543" d="M225 717v-594h304v-123h-437v717h133zM246 -52h171l-159 -310h-89z" />
<glyph unicode="&#x13c;" horiz-adv-x="284" d="M207 725v-725h-127v725h127zM82 -52h171l-159 -310h-89z" />
<glyph unicode="&#x13d;" horiz-adv-x="564" d="M225 717v-594h304v-123h-437v717h133zM406 725h167l-153 -250h-94z" />
<glyph unicode="&#x13e;" horiz-adv-x="545" d="M207 725v-725h-127v725h127zM332 725h167l-153 -250h-94z" />
<glyph unicode="&#x13f;" horiz-adv-x="543" d="M225 717v-594h304v-123h-437v717h133zM323 378q0 37 24.5 61.5t61.5 24.5t61.5 -24.5t24.5 -61.5t-24.5 -61.5t-61.5 -24.5t-61.5 24.5t-24.5 61.5z" />
<glyph unicode="&#x140;" horiz-adv-x="518" d="M207 725v-725h-127v725h127zM278 378q0 37 24.5 61.5t61.5 24.5t61.5 -24.5t24.5 -61.5t-24.5 -61.5t-61.5 -24.5t-61.5 24.5t-24.5 61.5z" />
<glyph unicode="&#x141;" horiz-adv-x="564" d="M246 717v-275l103 58l54 -98l-157 -87v-192h304v-123h-437v242l-56 -31l-54 97l110 61v348h133z" />
<glyph unicode="&#x142;" horiz-adv-x="376" d="M250 725v-255l50 28l54 -98l-104 -57v-343h-127v273l-50 -26l-55 97l105 56v325h127z" />
<glyph unicode="&#x143;" horiz-adv-x="720" d="M629 717v-717h-141l-263 473v-473h-133v717h140l264 -473v473h133zM338 926h172l-140 -152h-98z" />
<glyph unicode="&#x144;" d="M209 516v-83q29 41 69 66t91 25q70 0 114 -39t44 -116v-369h-127v331q0 46 -20.5 65.5t-52.5 19.5q-24 0 -45 -14t-37.5 -40.5t-26 -65.5t-9.5 -90v-206h-127v516h127zM277 725h172l-140 -152h-98z" />
<glyph unicode="&#x145;" horiz-adv-x="720" d="M629 717v-717h-141l-263 473v-473h-133v717h140l264 -473v473h133zM293 -52h171l-159 -310h-89z" />
<glyph unicode="&#x146;" d="M209 516v-83q29 41 69 66t91 25q70 0 114 -39t44 -116v-369h-127v331q0 46 -20.5 65.5t-52.5 19.5q-24 0 -45 -14t-37.5 -40.5t-26 -65.5t-9.5 -90v-206h-127v516h127zM231 -52h171l-159 -310h-89z" />
<glyph unicode="&#x147;" horiz-adv-x="720" d="M629 717v-717h-141l-263 473v-473h-133v717h140l264 -473v473h133zM168 971h123l69 -76l70 76h123l-175 -190h-35z" />
<glyph unicode="&#x148;" d="M209 516v-83q29 41 69 66t91 25q70 0 114 -39t44 -116v-369h-127v331q0 46 -20.5 65.5t-52.5 19.5q-24 0 -45 -14t-37.5 -40.5t-26 -65.5t-9.5 -90v-206h-127v516h127zM108 770h123l69 -76l70 76h123l-175 -190h-35z" />
<glyph unicode="&#x149;" horiz-adv-x="766" d="M375 516v-83q29 41 69 66t91 25q70 0 114 -39t44 -116v-369h-127v331q0 46 -20.5 65.5t-52.5 19.5q-24 0 -45 -14t-37.5 -40.5t-26 -65.5t-9.5 -90v-206h-127v516h127zM97 725h167l-153 -250h-94z" />
<glyph unicode="&#x14a;" horiz-adv-x="720" d="M400 -94q19 0 36.5 4t30 14.5t20 28.5t9.5 47l-271 473v-473h-133v717h140l264 -473v473h133v-717q0 -57 -16 -98.5t-46 -68t-72 -38.5t-95 -12v123z" />
<glyph unicode="&#x14b;" d="M400 331q0 46 -20.5 65.5t-52.5 19.5q-24 0 -45 -14t-37.5 -40.5t-26 -65.5t-9.5 -90v-206h-127v516h127v-83q29 41 69 66t91 25q70 0 114 -39t44 -116v-310q0 -61 -13 -107.5t-40.5 -79.5t-67.5 -55t-95 -34l-30 112q28 7 50 17.5t37.5 27.5t23.5 42.5t8 61.5v287v0z " />
<glyph unicode="&#x14c;" horiz-adv-x="774" d="M387 725q68 0 129.5 -22.5t108 -67.5t73.5 -114t27 -163q0 -93 -27 -162t-73.5 -114t-108 -67.5t-129.5 -22.5t-129 22.5t-108 67.5t-74 114t-27 162t27 162.5t74 114.5t108 67.5t129 22.5zM387 602q-40 0 -77 -14.5t-65 -44t-44.5 -75.5t-16.5 -110q0 -63 16.5 -109 t44.5 -76t65 -44t77 -14t77 14t65 44t44.5 76t16.5 109t-16.5 109.5t-44.5 76t-65 44t-77 14.5zM249 925h276v-112h-276v112z" />
<glyph unicode="&#x14d;" horiz-adv-x="612" d="M44 258q0 56 17.5 105t51 84.5t82.5 56t111 20.5t111 -20.5t83 -56t51 -84.5t17 -105t-17 -105t-51 -84.5t-82.5 -56t-111.5 -20.5q-62 0 -111 20.5t-82.5 56t-51 84.5t-17.5 105zM177 258q0 -32 9 -60.5t25 -50t40 -34.5t55 -13t55 13t40.5 34.5t25 50t8.5 60.5 t-8.5 60.5t-25 50t-40.5 34.5t-55 13t-55 -13t-40 -34.5t-25 -50t-9 -60.5zM168 726h276v-112h-276v112z" />
<glyph unicode="&#x14e;" horiz-adv-x="774" d="M387 725q68 0 129.5 -22.5t108 -67.5t73.5 -114t27 -163q0 -93 -27 -162t-73.5 -114t-108 -67.5t-129.5 -22.5t-129 22.5t-108 67.5t-74 114t-27 162t27 162.5t74 114.5t108 67.5t129 22.5zM387 602q-40 0 -77 -14.5t-65 -44t-44.5 -75.5t-16.5 -110q0 -63 16.5 -109 t44.5 -76t65 -44t77 -14t77 14t65 44t44.5 76t16.5 109t-16.5 109.5t-44.5 76t-65 44t-77 14.5zM359 918q0 -12 8 -20.5t20 -8.5t20 8.5t8 20.5h93q0 -23 -8.5 -43t-24 -35t-38 -24.5t-50.5 -9.5t-50.5 9.5t-38 24.5t-24 35t-8.5 43h93z" />
<glyph unicode="&#x14f;" horiz-adv-x="612" d="M44 258q0 56 17.5 105t51 84.5t82.5 56t111 20.5t111 -20.5t83 -56t51 -84.5t17 -105t-17 -105t-51 -84.5t-82.5 -56t-111.5 -20.5q-62 0 -111 20.5t-82.5 56t-51 84.5t-17.5 105zM177 258q0 -32 9 -60.5t25 -50t40 -34.5t55 -13t55 13t40.5 34.5t25 50t8.5 60.5 t-8.5 60.5t-25 50t-40.5 34.5t-55 13t-55 -13t-40 -34.5t-25 -50t-9 -60.5zM278 717q0 -12 8 -20.5t20 -8.5t20 8.5t8 20.5h93q0 -23 -8.5 -43t-24 -35t-38 -24.5t-50.5 -9.5t-50.5 9.5t-38 24.5t-24 35t-8.5 43h93z" />
<glyph unicode="&#x150;" horiz-adv-x="774" d="M387 725q68 0 129.5 -22.5t108 -67.5t73.5 -114t27 -163q0 -93 -27 -162t-73.5 -114t-108 -67.5t-129.5 -22.5t-129 22.5t-108 67.5t-74 114t-27 162t27 162.5t74 114.5t108 67.5t129 22.5zM387 602q-40 0 -77 -14.5t-65 -44t-44.5 -75.5t-16.5 -110q0 -63 16.5 -109 t44.5 -76t65 -44t77 -14t77 14t65 44t44.5 76t16.5 109t-16.5 109.5t-44.5 76t-65 44t-77 14.5zM270 926h172l-140 -152h-98zM478 926h172l-140 -152h-98z" />
<glyph unicode="&#x151;" horiz-adv-x="612" d="M44 258q0 56 17.5 105t51 84.5t82.5 56t111 20.5t111 -20.5t83 -56t51 -84.5t17 -105t-17 -105t-51 -84.5t-82.5 -56t-111.5 -20.5q-62 0 -111 20.5t-82.5 56t-51 84.5t-17.5 105zM177 258q0 -32 9 -60.5t25 -50t40 -34.5t55 -13t55 13t40.5 34.5t25 50t8.5 60.5 t-8.5 60.5t-25 50t-40.5 34.5t-55 13t-55 -13t-40 -34.5t-25 -50t-9 -60.5zM179 725h172l-140 -152h-98zM387 725h172l-140 -152h-98z" />
<glyph unicode="&#x152;" horiz-adv-x="1087" d="M1034 717v-123h-310v-151h249v-122h-249v-198h320v-123h-453v53q-43 -31 -95.5 -46t-108.5 -15q-68 0 -129 22.5t-108 67.5t-74 114t-27 162t27 162.5t74 114.5t108 67.5t129 22.5q56 0 108.5 -15.5t95.5 -46.5v54h443zM387 602q-40 0 -77 -14.5t-65 -44t-44.5 -75.5 t-16.5 -110q0 -63 16.5 -109t44.5 -76t65 -44t77 -14t77 14t65 44t45 76t17 109t-17 109.5t-45 76t-65 44t-77 14.5z" />
<glyph unicode="&#x153;" horiz-adv-x="960" d="M924 217h-356q1 -22 9.5 -42.5t23.5 -37t37 -27t52 -10.5q44 0 73 20t52 60l103 -38q-30 -69 -86 -109.5t-149 -40.5q-62 0 -108 21.5t-75 56.5q-34 -36 -82.5 -57t-111.5 -21q-62 0 -111 20.5t-82.5 56t-51 84.5t-17.5 105t17.5 105t51 84.5t82.5 56t111 20.5t111.5 -21 t83.5 -57q30 35 75 56.5t107 21.5q65 0 110.5 -24t74.5 -61.5t42.5 -82.5t13.5 -87v-52zM177 258q0 -32 9 -60.5t25 -50t40 -34.5t55 -13t55 13t40.5 34.5t25 50t8.5 60.5t-8.5 60.5t-25.5 50t-41 34.5t-54 13q-31 0 -55 -13t-40 -34.5t-25 -50t-9 -60.5zM683 416 q-25 0 -43.5 -9t-32.5 -22.5t-23.5 -31t-12.5 -36.5h223q-4 19 -12.5 37t-22 31.5t-32 22t-44.5 8.5z" />
<glyph unicode="&#x154;" horiz-adv-x="668" d="M571 513q0 -71 -34 -121.5t-100 -70.5l199 -321h-149l-192 309h-70v-309h-133v717h261q53 0 94 -15.5t69 -42t41.5 -64.5t13.5 -82zM354 432q36 0 60 18.5t24 62.5t-24 62.5t-60 18.5h-129v-162h129zM286 926h172l-140 -152h-98z" />
<glyph unicode="&#x155;" horiz-adv-x="432" d="M82 0v516h127v-84q28 46 68 69t84 23q17 0 32.5 -2.5t30.5 -7.5l-24 -118q-24 14 -53 15q-28 0 -53 -12.5t-44 -39t-30 -70t-11 -106.5v-183h-127zM224 725h172l-140 -152h-98z" />
<glyph unicode="&#x156;" horiz-adv-x="668" d="M571 513q0 -71 -34 -121.5t-100 -70.5l199 -321h-149l-192 309h-70v-309h-133v717h261q53 0 94 -15.5t69 -42t41.5 -64.5t13.5 -82zM354 432q36 0 60 18.5t24 62.5t-24 62.5t-60 18.5h-129v-162h129zM282 -52h171l-159 -310h-89z" />
<glyph unicode="&#x157;" horiz-adv-x="432" d="M82 0v516h127v-84q28 46 68 69t84 23q17 0 32.5 -2.5t30.5 -7.5l-24 -118q-24 14 -53 15q-28 0 -53 -12.5t-44 -39t-30 -70t-11 -106.5v-183h-127zM120 -52h171l-159 -310h-89z" />
<glyph unicode="&#x158;" horiz-adv-x="668" d="M571 513q0 -71 -34 -121.5t-100 -70.5l199 -321h-149l-192 309h-70v-309h-133v717h261q53 0 94 -15.5t69 -42t41.5 -64.5t13.5 -82zM354 432q36 0 60 18.5t24 62.5t-24 62.5t-60 18.5h-129v-162h129zM104 971h123l69 -76l70 76h123l-175 -190h-35z" />
<glyph unicode="&#x159;" horiz-adv-x="432" d="M82 0v516h127v-84q28 46 68 69t84 23q17 0 32.5 -2.5t30.5 -7.5l-24 -118q-24 14 -53 15q-28 0 -53 -12.5t-44 -39t-30 -70t-11 -106.5v-183h-127zM61 770h123l69 -76l70 76h123l-175 -190h-35z" />
<glyph unicode="&#x15a;" horiz-adv-x="549" d="M374 526q-20 40 -44 58t-56 18q-30 0 -49 -18.5t-19 -46.5q0 -31 22.5 -52.5t56.5 -39.5t73.5 -36.5t74 -43.5t57 -61t22.5 -89q0 -52 -16.5 -93.5t-46.5 -70t-72.5 -44t-93.5 -15.5q-49 0 -90.5 16t-73.5 43.5t-53.5 64t-29.5 77.5l107 67q8 -29 20.5 -55.5t30 -46.5 t40 -31.5t52.5 -11.5q42 0 67.5 22t25.5 71q0 30 -22 49t-56 36t-72.5 35t-72 44t-55.5 63.5t-22 94.5q0 41 15 76.5t41 61.5t61.5 41.5t77.5 15.5q72 0 125 -34t82 -96zM269 926h172l-140 -152h-98z" />
<glyph unicode="&#x15b;" horiz-adv-x="466" d="M237 524q52 0 95 -23t66 -61l-75 -69q-17 24 -41 34.5t-45 10.5q-18 0 -33 -11t-15 -32q0 -17 13 -29.5t37 -20.5q27 -9 59 -20t60.5 -28t47.5 -43.5t19 -67.5q0 -35 -13 -66t-37 -55t-57.5 -37.5t-75.5 -13.5q-40 0 -74 12.5t-59.5 32.5t-44 45.5t-27.5 48.5l101 54 q14 -38 40 -61.5t64 -23.5q30 0 46.5 13.5t16.5 42.5q0 16 -11 26.5t-29.5 19t-41.5 15.5t-47 17q-22 9 -40.5 20.5t-33 28t-22.5 39t-8 52.5t11.5 57t33 48t52 33t68.5 12zM211 725h172l-140 -152h-98z" />
<glyph unicode="&#x15c;" horiz-adv-x="549" d="M374 526q-20 40 -44 58t-56 18q-30 0 -49 -18.5t-19 -46.5q0 -31 22.5 -52.5t56.5 -39.5t73.5 -36.5t74 -43.5t57 -61t22.5 -89q0 -52 -16.5 -93.5t-46.5 -70t-72.5 -44t-93.5 -15.5q-49 0 -90.5 16t-73.5 43.5t-53.5 64t-29.5 77.5l107 67q8 -29 20.5 -55.5t30 -46.5 t40 -31.5t52.5 -11.5q42 0 67.5 22t25.5 71q0 30 -22 49t-56 36t-72.5 35t-72 44t-55.5 63.5t-22 94.5q0 41 15 76.5t41 61.5t61.5 41.5t77.5 15.5q72 0 125 -34t82 -96zM262 971h35l175 -190h-123l-70 75l-69 -75h-123z" />
<glyph unicode="&#x15d;" horiz-adv-x="466" d="M237 524q52 0 95 -23t66 -61l-75 -69q-17 24 -41 34.5t-45 10.5q-18 0 -33 -11t-15 -32q0 -17 13 -29.5t37 -20.5q27 -9 59 -20t60.5 -28t47.5 -43.5t19 -67.5q0 -35 -13 -66t-37 -55t-57.5 -37.5t-75.5 -13.5q-40 0 -74 12.5t-59.5 32.5t-44 45.5t-27.5 48.5l101 54 q14 -38 40 -61.5t64 -23.5q30 0 46.5 13.5t16.5 42.5q0 16 -11 26.5t-29.5 19t-41.5 15.5t-47 17q-22 9 -40.5 20.5t-33 28t-22.5 39t-8 52.5t11.5 57t33 48t52 33t68.5 12zM222 770h35l175 -190h-123l-70 75l-69 -75h-123z" />
<glyph unicode="&#x15e;" horiz-adv-x="549" d="M374 526q-20 40 -44 58t-56 18q-30 0 -49 -18.5t-19 -46.5q0 -31 22.5 -52.5t56.5 -39.5t73.5 -36.5t74 -43.5t57 -61t22.5 -89q0 -52 -16.5 -93.5t-46.5 -70t-72.5 -44t-93.5 -15.5q-49 0 -90.5 16t-73.5 43.5t-53.5 64t-29.5 77.5l107 67q8 -29 20.5 -55.5t30 -46.5 t40 -31.5t52.5 -11.5q42 0 67.5 22t25.5 71q0 30 -22 49t-56 36t-72.5 35t-72 44t-55.5 63.5t-22 94.5q0 41 15 76.5t41 61.5t61.5 41.5t77.5 15.5q72 0 125 -34t82 -96zM276 -272l-152 67l145 144h92z" />
<glyph unicode="&#x15f;" horiz-adv-x="466" d="M237 524q52 0 95 -23t66 -61l-75 -69q-17 24 -41 34.5t-45 10.5q-18 0 -33 -11t-15 -32q0 -17 13 -29.5t37 -20.5q27 -9 59 -20t60.5 -28t47.5 -43.5t19 -67.5q0 -35 -13 -66t-37 -55t-57.5 -37.5t-75.5 -13.5q-40 0 -74 12.5t-59.5 32.5t-44 45.5t-27.5 48.5l101 54 q14 -38 40 -61.5t64 -23.5q30 0 46.5 13.5t16.5 42.5q0 16 -11 26.5t-29.5 19t-41.5 15.5t-47 17q-22 9 -40.5 20.5t-33 28t-22.5 39t-8 52.5t11.5 57t33 48t52 33t68.5 12zM238 -272l-152 67l145 144h92z" />
<glyph unicode="&#x160;" horiz-adv-x="549" d="M374 526q-20 40 -44 58t-56 18q-30 0 -49 -18.5t-19 -46.5q0 -31 22.5 -52.5t56.5 -39.5t73.5 -36.5t74 -43.5t57 -61t22.5 -89q0 -52 -16.5 -93.5t-46.5 -70t-72.5 -44t-93.5 -15.5q-49 0 -90.5 16t-73.5 43.5t-53.5 64t-29.5 77.5l107 67q8 -29 20.5 -55.5t30 -46.5 t40 -31.5t52.5 -11.5q42 0 67.5 22t25.5 71q0 30 -22 49t-56 36t-72.5 35t-72 44t-55.5 63.5t-22 94.5q0 41 15 76.5t41 61.5t61.5 41.5t77.5 15.5q72 0 125 -34t82 -96zM82 971h123l69 -76l70 76h123l-175 -190h-35z" />
<glyph unicode="&#x161;" horiz-adv-x="473" d="M237 524q52 0 95 -23t66 -61l-75 -69q-17 24 -41 34.5t-45 10.5q-18 0 -33 -11t-15 -32q0 -17 13 -29.5t37 -20.5q27 -9 59 -20t60.5 -28t47.5 -43.5t19 -67.5q0 -35 -13 -66t-37 -55t-57.5 -37.5t-75.5 -13.5q-40 0 -74 12.5t-59.5 32.5t-44 45.5t-27.5 48.5l101 54 q14 -38 40 -61.5t64 -23.5q30 0 46.5 13.5t16.5 42.5q0 16 -11 26.5t-29.5 19t-41.5 15.5t-47 17q-22 9 -40.5 20.5t-33 28t-22.5 39t-8 52.5t11.5 57t33 48t52 33t68.5 12zM46 770h123l69 -76l70 76h123l-175 -190h-35z" />
<glyph unicode="&#x162;" horiz-adv-x="546" d="M8 717h531v-123h-199v-594h-133v594h-199v123zM193 -52h171l-159 -310h-89z" />
<glyph unicode="&#x163;" horiz-adv-x="401" d="M372 10q-22 -10 -43 -14t-41 -4q-88 0 -139 47t-51 143v226h-80v108h80v129l127 80v-209h136v-108h-136v-224q0 -48 17.5 -66t50.5 -18q13 0 24.5 2.5t24.5 10.5zM160 -52h171l-159 -310h-89z" />
<glyph unicode="&#x164;" horiz-adv-x="546" d="M8 717h531v-123h-199v-594h-133v594h-199v123zM81 971h123l69 -76l70 76h123l-175 -190h-35z" />
<glyph unicode="&#x165;" horiz-adv-x="632" d="M372 10q-22 -10 -43 -14t-41 -4q-88 0 -139 47t-51 143v226h-80v108h80v129l127 80v-209h136v-108h-136v-224q0 -48 17.5 -66t50.5 -18q13 0 24.5 2.5t24.5 10.5zM476 725h167l-153 -250h-94z" />
<glyph unicode="&#x166;" horiz-adv-x="546" d="M8 717h531v-123h-199v-98h173v-111h-173v-385h-133v385h-174v111h174v98h-199v123z" />
<glyph unicode="&#x167;" horiz-adv-x="401" d="M35 342h63v66h-80v108h80v129l127 80v-209h136v-108h-136v-66h114v-94h-114v-64q0 -48 17.5 -66t50.5 -18q13 0 24.5 2.5t24.5 10.5l30 -103q-22 -10 -43 -14t-41 -4q-88 0 -139 47t-51 143v66h-63v94z" />
<glyph unicode="&#x168;" horiz-adv-x="671" d="M603 272q0 -72 -20 -124.5t-55 -87t-84.5 -51.5t-107.5 -17t-107.5 17t-84.5 51.5t-55 87.5t-20 124v445h133v-447q0 -156 134 -155q134 0 134 155v447h133v-445zM139 840q17 39 52 64t74 25q26 0 43.5 -6.5t31.5 -14.5t28.5 -14.5t33.5 -6.5q17 0 34 12t31 32l67 -56 q-17 -39 -52 -64t-74 -25q-26 0 -43.5 6.5t-32 14t-28.5 14.5t-33 7q-17 0 -34 -12t-31 -32z" />
<glyph unicode="&#x169;" d="M392 0v83q-29 -41 -69 -66t-91 -25q-70 0 -114 39t-44 116v369h127v-331q0 -46 20.5 -65.5t52.5 -19.5q23 0 44.5 14t38 40.5t26 65.5t9.5 90v206h127v-516h-127zM103 639q17 39 52 64t74 25q26 0 43.5 -6.5t31.5 -14.5t28.5 -14.5t33.5 -6.5q17 0 34 12t31 32l67 -56 q-17 -39 -52 -64t-74 -25q-26 0 -43.5 6.5t-32 14t-28.5 14.5t-33 7q-17 0 -34 -12t-31 -32z" />
<glyph unicode="&#x16a;" horiz-adv-x="671" d="M603 272q0 -72 -20 -124.5t-55 -87t-84.5 -51.5t-107.5 -17t-107.5 17t-84.5 51.5t-55 87.5t-20 124v445h133v-447q0 -156 134 -155q134 0 134 155v447h133v-445zM198 925h276v-112h-276v112z" />
<glyph unicode="&#x16b;" d="M392 0v83q-29 -41 -69 -66t-91 -25q-70 0 -114 39t-44 116v369h127v-331q0 -46 20.5 -65.5t52.5 -19.5q23 0 44.5 14t38 40.5t26 65.5t9.5 90v206h127v-516h-127zM163 726h276v-112h-276v112z" />
<glyph unicode="&#x16c;" horiz-adv-x="671" d="M603 272q0 -72 -20 -124.5t-55 -87t-84.5 -51.5t-107.5 -17t-107.5 17t-84.5 51.5t-55 87.5t-20 124v445h133v-447q0 -156 134 -155q134 0 134 155v447h133v-445zM308 918q0 -12 8 -20.5t20 -8.5t20 8.5t8 20.5h93q0 -23 -8.5 -43t-24 -35t-38 -24.5t-50.5 -9.5 t-50.5 9.5t-38 24.5t-24 35t-8.5 43h93z" />
<glyph unicode="&#x16d;" d="M392 0v83q-29 -41 -69 -66t-91 -25q-70 0 -114 39t-44 116v369h127v-331q0 -46 20.5 -65.5t52.5 -19.5q23 0 44.5 14t38 40.5t26 65.5t9.5 90v206h127v-516h-127zM272 717q0 -12 8 -20.5t20 -8.5t20 8.5t8 20.5h93q0 -23 -8.5 -43t-24 -35t-38 -24.5t-50.5 -9.5 t-50.5 9.5t-38 24.5t-24 35t-8.5 43h93z" />
<glyph unicode="&#x16e;" horiz-adv-x="671" d="M603 272q0 -72 -20 -124.5t-55 -87t-84.5 -51.5t-107.5 -17t-107.5 17t-84.5 51.5t-55 87.5t-20 124v445h133v-447q0 -156 134 -155q134 0 134 155v447h133v-445zM230 872q0 45 30 74.5t76 29.5t75.5 -29.5t29.5 -74.5t-29.5 -75t-75.5 -30t-76 30t-30 75zM305 872 q0 -14 8 -23.5t23 -9.5q14 0 22.5 9t8.5 24q0 14 -8.5 23t-22.5 9t-22.5 -9t-8.5 -23z" />
<glyph unicode="&#x16f;" d="M392 0v83q-29 -41 -69 -66t-91 -25q-70 0 -114 39t-44 116v369h127v-331q0 -46 20.5 -65.5t52.5 -19.5q23 0 44.5 14t38 40.5t26 65.5t9.5 90v206h127v-516h-127zM194 671q0 45 30 74.5t76 29.5t75.5 -29.5t29.5 -74.5t-29.5 -75t-75.5 -30t-76 30t-30 75zM269 671 q0 -14 8 -23.5t23 -9.5q14 0 22.5 9t8.5 24q0 14 -8.5 23t-22.5 9t-22.5 -9t-8.5 -23z" />
<glyph unicode="&#x170;" horiz-adv-x="671" d="M603 272q0 -72 -20 -124.5t-55 -87t-84.5 -51.5t-107.5 -17t-107.5 17t-84.5 51.5t-55 87.5t-20 124v445h133v-447q0 -156 134 -155q134 0 134 155v447h133v-445zM209 926h172l-140 -152h-98zM417 926h172l-140 -152h-98z" />
<glyph unicode="&#x171;" d="M392 0v83q-29 -41 -69 -66t-91 -25q-70 0 -114 39t-44 116v369h127v-331q0 -46 20.5 -65.5t52.5 -19.5q23 0 44.5 14t38 40.5t26 65.5t9.5 90v206h127v-516h-127zM173 725h172l-140 -152h-98zM381 725h172l-140 -152h-98z" />
<glyph unicode="&#x172;" horiz-adv-x="671" d="M603 272q0 -120 -52 -187t-139 -85q-26 -23 -42.5 -43t-16.5 -37q0 -27 27 -26q14 0 24.5 9.5t25.5 29.5l54 -44q-24 -38 -50 -58t-68 -20q-44 0 -72 24t-28 68q0 27 15 50t36 39q-55 2 -100.5 20.5t-78.5 53t-51 86t-18 120.5v445h133v-447q0 -156 134 -155 q134 0 134 155v447h133v-445z" />
<glyph unicode="&#x173;" d="M392 0v83q-29 -41 -69 -66t-91 -25q-70 0 -114 39t-44 116v369h127v-331q0 -46 20.5 -65.5t52.5 -19.5q23 0 44.5 14t38 40.5t26 65.5t9.5 90v206h127v-516q-27 -23 -43 -43t-16 -37q0 -27 26 -26q14 0 24.5 9.5t26.5 29.5l54 -44q-24 -38 -50.5 -58t-68.5 -20 q-44 0 -71.5 24t-27.5 68q0 30 19 56t45 41h-45z" />
<glyph unicode="&#x174;" horiz-adv-x="942" d="M924 717l-188 -717h-135l-130 422l-130 -422h-135l-188 717h142l120 -528l134 452h114l135 -452l119 528h142zM454 971h35l175 -190h-123l-70 75l-69 -75h-123z" />
<glyph unicode="&#x175;" horiz-adv-x="784" d="M759 516l-165 -516h-113l-89 334l-89 -334h-113l-164 516h128l92 -354l87 354h119l87 -354l92 354h128zM375 770h35l175 -190h-123l-70 75l-69 -75h-123z" />
<glyph unicode="&#x176;" horiz-adv-x="546" d="M143 717l130 -279l130 279h144l-207 -412v-305h-133v305l-207 412h143zM256 971h35l175 -190h-123l-70 75l-69 -75h-123z" />
<glyph unicode="&#x177;" horiz-adv-x="492" d="M131 516l120 -323l113 323h126l-266 -725h-123l89 242l-187 483h128zM234 770h35l175 -190h-123l-70 75l-69 -75h-123z" />
<glyph unicode="&#x178;" horiz-adv-x="546" d="M143 717l130 -279l130 279h144l-207 -412v-305h-133v305l-207 412h143zM95 868q0 32 20 52t53 20t53 -20.5t20 -51.5q0 -32 -20 -52.5t-53 -20.5t-53 20.5t-20 52.5zM307 868q0 32 20 52t53 20t53 -20.5t20 -51.5q0 -32 -20 -52.5t-53 -20.5t-53 20.5t-20 52.5z" />
<glyph unicode="&#x179;" horiz-adv-x="571" d="M48 717h475v-62l-307 -532h322v-123h-507v61l310 533h-293v123zM261 926h172l-140 -152h-98z" />
<glyph unicode="&#x17a;" horiz-adv-x="476" d="M58 516h365v-49l-221 -358h235v-109h-395v49l223 359h-207v108zM215 725h172l-140 -152h-98z" />
<glyph unicode="&#x17b;" horiz-adv-x="571" d="M48 717h475v-62l-307 -532h322v-123h-507v61l310 533h-293v123zM195 866q0 35 23 58t58 23q36 0 59 -23.5t23 -57.5q0 -35 -23 -58.5t-59 -23.5t-58.5 23.5t-22.5 58.5z" />
<glyph unicode="&#x17c;" horiz-adv-x="476" d="M58 516h365v-49l-221 -358h235v-109h-395v49l223 359h-207v108zM158 665q0 35 23 58t58 23q36 0 59 -23.5t23 -57.5q0 -35 -23 -58.5t-59 -23.5t-58.5 23.5t-22.5 58.5z" />
<glyph unicode="&#x17d;" horiz-adv-x="571" d="M48 717h475v-62l-307 -532h322v-123h-507v61l310 533h-293v123zM90 971h123l69 -76l70 76h123l-175 -190h-35z" />
<glyph unicode="&#x17e;" horiz-adv-x="476" d="M58 516h365v-49l-221 -358h235v-109h-395v49l223 359h-207v108zM51 770h123l69 -76l70 76h123l-175 -190h-35z" />
<glyph unicode="&#x17f;" horiz-adv-x="376" d="M33 516h65v27q0 94 49.5 138t128.5 44q30 0 54.5 -5.5t42.5 -14.5l-28 -103q-16 7 -30.5 10.5t-30.5 3.5q-27 0 -43 -14.5t-16 -49.5v-552h-127v408h-65v108z" />
<glyph unicode="&#x18e;" horiz-adv-x="588" d="M53.0332 0.0439453v122.992h310.98v150.991h-248.984v121.992h248.984v197.988h-320.98v122.992h453.973v-716.956h-443.973z" />
<glyph unicode="&#x18f;" horiz-adv-x="569" d="M37.0322 299.014h354.979q-1 21.998 -9.49902 42.4971q-8.5 20.499 -23.499 36.998t-36.998 26.998q-21.998 10.499 -51.9961 10.499q-43.998 0 -72.4961 -19.998q-28.498 -19.999 -52.4971 -59.9971l-101.993 37.998q29.998 68.9961 85.4951 109.493 q55.4961 40.498 148.49 40.498q66.9961 0 113.993 -24.499q46.9971 -24.498 76.4951 -62.9961t43.498 -85.4951q13.999 -46.9971 13.999 -92.9941t-13.999 -92.9941q-14 -46.9971 -43.498 -85.4951q-29.498 -38.4971 -76.4951 -62.9961q-46.9971 -24.498 -113.993 -24.498 q-64.9961 0 -109.993 23.998q-44.9971 23.999 -74.4951 61.4961q-29.498 37.498 -42.498 82.4951q-12.999 44.9971 -12.999 86.9951v51.9971zM277.018 100.025q24.999 0 43.998 8.99902q18.998 9 32.4971 22.499q13.5 13.499 22.999 30.998t12.499 36.498h-221.986 q4 -18.999 11.999 -36.998q8 -17.999 21.499 -31.498t31.998 -21.999q18.499 -8.49902 44.4971 -8.49902z" />
<glyph unicode="&#x192;" horiz-adv-x="494" d="M128 516h82l5 27q18 95 75.5 138.5t137.5 43.5q30 0 54 -5.5t38 -14.5l-47 -103q-14 7 -28 10.5t-30 3.5q-27 0 -46 -14.5t-26 -49.5l-6 -36h110l-21 -108h-111l-87 -443q-18 -95 -75.5 -138.5t-137.5 -43.5q-30 0 -53.5 5.5t-38.5 14.5l47 103q14 -7 28 -11t31 -4 q27 0 45.5 15t25.5 50l87 452h-81z" />
<glyph unicode="&#x1b5;" horiz-adv-x="571" d="M48 717h475v-62l-139 -241h117v-111h-182l-103 -180h322v-123h-507v61l140 242h-96v111h161l105 180h-293v123z" />
<glyph unicode="&#x1b6;" horiz-adv-x="476" d="M58 516h365v-49l-92 -150h69v-94h-127l-71 -114h235v-109h-395v49l109 174h-81v94h138l57 91h-207v108z" />
<glyph unicode="&#x1fa;" horiz-adv-x="628" d="M428 169h-227l-53 -169h-143l243 717h133l243 -717h-144zM239 292h151l-76 249zM209 845q0 45 30 74.5t76 29.5t75.5 -29.5t29.5 -74.5t-29.5 -75t-75.5 -30t-76 30t-30 75zM284 845q0 -14 8 -23.5t23 -9.5q14 0 22.5 9t8.5 24q0 14 -8.5 23t-22.5 9t-22.5 -9t-8.5 -23z M298 1131h172l-140 -152h-98z" />
<glyph unicode="&#x1fb;" horiz-adv-x="526" d="M58 381q12 65 64.5 104t132.5 39q46 0 85.5 -10.5t68.5 -35.5t46 -66.5t17 -103.5v-308h-104l-14 66q-27 -33 -65 -53.5t-93 -20.5q-33 0 -62 10t-50 29.5t-33 49t-12 67.5t16 69.5t45 54t69.5 34t89.5 11.5h86v23q0 22 -7.5 36t-20 23.5t-29 13t-33.5 3.5q-27 0 -52 -12 t-37 -48zM172 151q0 -18 13.5 -34.5t39.5 -16.5q22 0 43.5 7.5t38.5 21t27.5 33.5t10.5 45v10h-85q-41 0 -64.5 -15.5t-23.5 -50.5zM154 671q0 45 30 74.5t76 29.5t75.5 -29.5t29.5 -74.5t-29.5 -75t-75.5 -30t-76 30t-30 75zM229 671q0 -14 8 -23.5t23 -9.5q14 0 22.5 9 t8.5 24q0 14 -8.5 23t-22.5 9t-22.5 -9t-8.5 -23zM245 956h172l-140 -152h-98z" />
<glyph unicode="&#x1fc;" horiz-adv-x="879" d="M826 717v-123h-310v-151h249v-122h-249v-198h321v-123h-454v169h-164l-67 -169h-144l314 717h504zM269 292h114v249h-13zM538 926h172l-140 -152h-98z" />
<glyph unicode="&#x1fd;" horiz-adv-x="870" d="M834 217h-356q1 -22 9.5 -42.5t23.5 -37t37 -27t52 -10.5q44 0 72.5 20t52.5 60l102 -38q-30 -69 -85.5 -109.5t-148.5 -40.5q-76 0 -125.5 30.5t-79.5 76.5q-41 -61 -89 -84t-103 -23q-33 0 -62 10t-50 29.5t-33 49t-12 67.5t16 69.5t45 54t69.5 34t89.5 11.5h86v23 q0 22 -7.5 36t-20 23.5t-29 13t-33.5 3.5q-27 0 -52 -12t-37 -48l-108 25q12 65 64.5 104t132.5 39q52 0 96 -14t74 -48q30 29 71.5 45.5t96.5 16.5q65 0 110.5 -24t74.5 -61.5t42.5 -82.5t13.5 -87v-52zM172 151q0 -18 13.5 -34.5t39.5 -16.5q22 0 43.5 7.5t38.5 21 t27.5 33.5t10.5 45v10h-85q-41 0 -64.5 -16t-23.5 -50zM593 416q-25 0 -44 -9t-33 -22.5t-23.5 -31t-12.5 -36.5h223q-4 19 -12 37t-21.5 31.5t-32 22t-44.5 8.5zM426 725h172l-140 -152h-98z" />
<glyph unicode="&#x2c6;" horiz-adv-x="438" d="M202 770h35l175 -190h-123l-70 75l-69 -75h-123z" />
<glyph unicode="&#x2c7;" horiz-adv-x="438" d="M27 770h123l69 -76l70 76h123l-175 -190h-35z" />
<glyph unicode="&#x2d8;" horiz-adv-x="265" d="M101 717q0 -12 8 -20.5t20 -8.5t20 8.5t8 20.5h93q0 -23 -8.5 -43t-24 -35t-38 -24.5t-50.5 -9.5t-50.5 9.5t-38 24.5t-24 35t-8.5 43h93z" />
<glyph unicode="&#x2d9;" horiz-adv-x="294" d="M66 665q0 35 23 58t58 23q36 0 59 -23.5t23 -57.5q0 -35 -23 -58.5t-59 -23.5t-58.5 23.5t-22.5 58.5z" />
<glyph unicode="&#x2da;" horiz-adv-x="239" d="M14 671q0 45 30 74.5t76 29.5t75.5 -29.5t29.5 -74.5t-29.5 -75t-75.5 -30t-76 30t-30 75zM89 671q0 -14 8 -23.5t23 -9.5q14 0 22.5 9t8.5 24q0 14 -8.5 23t-22.5 9t-22.5 -9t-8.5 -23z" />
<glyph unicode="&#x2db;" horiz-adv-x="234" d="M155 0q-27 -23 -43.5 -43t-16.5 -37q0 -27 27 -26q14 0 24.5 9.5t25.5 29.5l54 -44q-24 -38 -50 -58t-68 -20q-44 0 -72 24t-28 68q0 30 19 56t46 41h82z" />
<glyph unicode="&#x2dc;" horiz-adv-x="424" d="M15 639q17 39 52 64t74 25q26 0 43.5 -6.5t31.5 -14.5t28.5 -14.5t33.5 -6.5q17 0 34 12t31 32l67 -56q-17 -39 -52 -64t-74 -25q-26 0 -43.5 6.5t-32 14t-28.5 14.5t-33 7q-17 0 -34 -12t-31 -32z" />
<glyph unicode="&#x2dd;" horiz-adv-x="474" d="M84 725h172l-140 -152h-98zM292 725h172l-140 -152h-98z" />
<glyph unicode="&#x3c0;" horiz-adv-x="634" d="M51 516h532v-110h-85v-406h-127v406h-108v-406h-127v406h-85v110z" />
<glyph unicode="&#x400;" horiz-adv-x="588" d="M536 717v-123h-311v-151h249v-122h-249v-198h321v-123h-454v717h444zM399 774h-97l-141 152h172z" />
<glyph unicode="&#x401;" horiz-adv-x="588" d="M536 717v-123h-311v-151h249v-122h-249v-198h321v-123h-454v717h444zM142 868q0 32 20 52t53 20t53 -20.5t20 -51.5q0 -32 -20 -52.5t-53 -20.5t-53 20.5t-20 52.5zM354 868q0 32 20 52t53 20t53 -20.5t20 -51.5q0 -32 -20 -52.5t-53 -20.5t-53 20.5t-20 52.5z" />
<glyph unicode="&#x402;" horiz-adv-x="737" d="M8 717h531v-123h-199v-161q25 39 66 65t98 26q74 0 117.5 -37.5t43.5 -117.5v-101q0 -61 -13.5 -107.5t-40.5 -79.5t-67.5 -55t-94.5 -34l-31 111q28 7 50 18t37.5 28t24 42.5t8.5 61.5v71q0 92 -77 92q-22 0 -43.5 -11.5t-39 -35.5t-28 -61.5t-10.5 -89.5v-218h-133v594 h-199v123z" />
<glyph unicode="&#x403;" horiz-adv-x="542" d="M225 0h-133v717h445v-123h-312v-594zM289 926h172l-140 -152h-98z" />
<glyph unicode="&#x404;" horiz-adv-x="701" d="M512 297h-324q14 -93 63 -137.5t121 -44.5q35 0 63 10t50 27t38 40t27 50l120 -33q-16 -48 -44.5 -88t-67 -68.5t-86 -44.5t-100.5 -16q-70 0 -129 23.5t-102 69.5t-67.5 114.5t-24.5 158.5t24.5 159t67.5 115t102 69.5t129 23.5q53 0 100.5 -16t86 -44.5t66.5 -68.5 t45 -88l-120 -33q-11 26 -27 49.5t-38 40.5t-50 27t-63 10q-72 0 -120.5 -44.5t-63.5 -137.5h324v-123z" />
<glyph unicode="&#x405;" horiz-adv-x="549" d="M374 526q-20 40 -44 58t-56 18q-30 0 -49 -18.5t-19 -46.5q0 -31 22.5 -52.5t56.5 -39.5t73.5 -36.5t74 -43.5t57 -61t22.5 -89q0 -52 -16.5 -93.5t-46.5 -70t-72.5 -44t-93.5 -15.5q-49 0 -90.5 16t-73.5 43.5t-53.5 64t-29.5 77.5l107 67q8 -29 20.5 -55.5t30 -46.5 t40 -31.5t52.5 -11.5q42 0 67.5 22t25.5 71q0 30 -22 49t-56 36t-72.5 35t-72 44t-55.5 63.5t-22 94.5q0 41 15 76.5t41 61.5t61.5 41.5t77.5 15.5q72 0 125 -34t82 -96z" />
<glyph unicode="&#x406;" horiz-adv-x="317" d="M225 0h-133v717h133v-717z" />
<glyph unicode="&#x407;" horiz-adv-x="317" d="M225 0h-133v717h133v-717zM-19 868q0 32 20 52t53 20t53 -20.5t20 -51.5q0 -32 -20 -52.5t-53 -20.5t-53 20.5t-20 52.5zM193 868q0 32 20 52t53 20t53 -20.5t20 -51.5q0 -32 -20 -52.5t-53 -20.5t-53 20.5t-20 52.5z" />
<glyph unicode="&#x408;" horiz-adv-x="527" d="M133 205q9 -48 31.5 -69t58.5 -21q22 0 39.5 5.5t29.5 20t19 38t7 59.5v479h134v-465q0 -73 -16 -122.5t-46 -80.5t-72 -44t-95 -13q-94 0 -152 49t-69 136z" />
<glyph unicode="&#x409;" horiz-adv-x="939" d="M141 717h384v-279h134q111 0 174 -55.5t63 -163.5t-63 -163.5t-174 -55.5h-267v590h-131l-29 -395q-7 -98 -64 -146.5t-161 -48.5v127q22 0 38.5 1.5t29 9t19.5 23.5t9 44zM525 315v-192h122q62 0 89 25t27 71t-26.5 71t-89.5 25h-122z" />
<glyph unicode="&#x40a;" horiz-adv-x="974" d="M428 717h133v-279h134q111 0 174 -55.5t63 -163.5t-63 -163.5t-174 -55.5h-267v315h-203v-315h-133v717h133v-279h203v279zM561 315v-192h122q62 0 89 25t27 71t-27 71t-89 25h-122z" />
<glyph unicode="&#x40b;" horiz-adv-x="738" d="M8 717h531v-123h-199v-161q25 39 66 65t98 26q74 0 117.5 -37.5t43.5 -117.5v-369h-127v324q0 92 -77 92q-22 0 -44 -11.5t-39 -35.5t-27.5 -61.5t-10.5 -89.5v-218h-133v594h-199v123z" />
<glyph unicode="&#x40c;" horiz-adv-x="658" d="M225 717v-266l245 266h164l-291 -321l311 -396h-169l-260 342v-342h-133v717h133zM326 926h172l-140 -152h-98z" />
<glyph unicode="&#x40d;" horiz-adv-x="720" d="M92.0381 717v-717h140.991l262.984 473v-473h132.992v717h-139.992l-263.983 -473v473h-132.992zM430 774h-97l-141 152h172z" />
<glyph unicode="&#x40e;" horiz-adv-x="532" d="M126 717l142 -345l140 345h127l-297 -725h-123l91 225l-208 500h128zM232 918q0 -12 8 -20.5t20 -8.5t20 8.5t8 20.5h93q0 -23 -8.5 -43t-24 -35t-38 -24.5t-50.5 -9.5t-50.5 9.5t-38 24.5t-24 35t-8.5 43h93z" />
<glyph unicode="&#x40f;" horiz-adv-x="708" d="M92 717h133v-590h258v590h133v-717h-195v-127h-133v127h-196v717z" />
<glyph unicode="&#x410;" horiz-adv-x="628" d="M428 169h-227l-53 -169h-143l243 717h133l243 -717h-144zM239 292h151l-76 249z" />
<glyph unicode="&#x411;" horiz-adv-x="638" d="M359 438q111 0 174 -55.5t63 -163.5t-63 -163.5t-174 -55.5h-267v717h436v-123h-303v-156h134zM225 315v-192h122q62 0 89 25t27 71t-26.5 71t-89.5 25h-122z" />
<glyph unicode="&#x412;" horiz-adv-x="638" d="M354 717q46 0 83.5 -12t64.5 -36t42 -60.5t15 -85.5q0 -44 -18.5 -79t-52.5 -53q51 -20 79.5 -63t28.5 -112q0 -105 -63 -160.5t-174 -55.5h-267v717h262zM225 594v-156h122q40 0 62 17t22 61t-22 61t-65 17h-119zM225 315v-192h122q62 0 89 25t27 71t-26.5 71t-89.5 25 h-122z" />
<glyph unicode="&#x413;" horiz-adv-x="542" d="M225 0h-133v717h445v-123h-312v-594z" />
<glyph unicode="&#x414;" horiz-adv-x="720" d="M51 127h66l100 590h413v-590h62l-14 -254h-115v127h-383v-127h-114zM334 594l-86 -467h249v467h-163z" />
<glyph unicode="&#x415;" horiz-adv-x="588" d="M536 717v-123h-311v-151h249v-122h-249v-198h321v-123h-454v717h444z" />
<glyph unicode="&#x416;" horiz-adv-x="999" d="M566 717v-266l245 266h164l-291 -321l311 -396h-169l-260 342v-342h-133v342l-260 -342h-169l311 396l-290 321h163l245 -266v266h133z" />
<glyph unicode="&#x417;" horiz-adv-x="603" d="M181 215q11 -48 39 -76t77 -28q50 0 82 32t32 87q0 62 -32 94t-81 32q-17 0 -31.5 -3.5t-30.5 -11.5l-52 72l135 185h-228v119h411v-45l-169 -229q7 1 13 1.5t15 0.5q41 0 74.5 -15t56.5 -43.5t35.5 -67.5t12.5 -87q0 -55 -18.5 -99.5t-51.5 -75.5t-77 -48t-96 -17 q-50 0 -92 15.5t-73.5 43t-51 65.5t-23.5 83z" />
<glyph unicode="&#x418;" horiz-adv-x="720" d="M92.0381 717v-717h140.991l262.984 473v-473h132.992v717h-139.992l-263.983 -473v473h-132.992z" />
<glyph unicode="&#x419;" horiz-adv-x="720" d="M92.0381 717v-717h140.991l262.984 473v-473h132.992v717h-139.992l-263.983 -473v473h-132.992zM332 918q0 -12 8 -20.5t20 -8.5t20 8.5t8 20.5h93q0 -23 -8.5 -43t-24 -35t-38 -24.5t-50.5 -9.5t-50.5 9.5t-38 24.5t-24 35t-8.5 43h93z" />
<glyph unicode="&#x41a;" horiz-adv-x="658" d="M225 717v-266l245 266h164l-291 -321l311 -396h-169l-260 342v-342h-133v717h133z" />
<glyph unicode="&#x41b;" horiz-adv-x="666" d="M142 717h432v-717h-133v590h-179l-29 -395q-8 -103 -65 -149t-161 -46v127q22 0 39 1.5t29.5 9t19.5 23.5t9 44z" />
<glyph unicode="&#x41c;" horiz-adv-x="821" d="M92 717h150l169 -448l169 448h149v-717h-133v442l-137 -376h-97l-137 376v-442h-133v717z" />
<glyph unicode="&#x41d;" horiz-adv-x="737" d="M92 717h133v-273h287v273h133v-717h-133v322h-287v-322h-133v717z" />
<glyph unicode="&#x41e;" horiz-adv-x="774" d="M387 725q68 0 129.5 -22.5t108 -67.5t73.5 -114t27 -163q0 -93 -27 -162t-73.5 -114t-108 -67.5t-129.5 -22.5t-129 22.5t-108 67.5t-74 114t-27 162t27 162.5t74 114.5t108 67.5t129 22.5zM387 602q-40 0 -77 -14.5t-65 -44t-44.5 -75.5t-16.5 -110q0 -63 16.5 -109 t44.5 -76t65 -44t77 -14t77 14t65 44t44.5 76t16.5 109t-16.5 109.5t-44.5 76t-65 44t-77 14.5z" />
<glyph unicode="&#x41f;" horiz-adv-x="708" d="M92 717h524v-717h-133v590h-258v-590h-133v717z" />
<glyph unicode="&#x420;" horiz-adv-x="606" d="M225 281v-281h-133v717h270q56 0 99 -16.5t70.5 -45.5t41.5 -69t14 -87t-14 -87t-41.5 -69.5t-70 -45.5t-99.5 -16h-137zM357 403q44 0 69.5 23.5t25.5 72.5t-25.5 72t-69.5 23h-132v-191h132z" />
<glyph unicode="&#x421;" horiz-adv-x="716" d="M565 477q-20 54 -61 89.5t-116 35.5q-42 0 -79 -15t-64.5 -45t-44 -75.5t-16.5 -108.5q0 -62 16.5 -107.5t44 -76t64.5 -45t79 -14.5q75 0 116 35t61 90l120 -31q-26 -103 -102.5 -160t-194.5 -57q-68 0 -128.5 23.5t-108 69.5t-75 114.5t-27.5 158.5t27.5 159t75 115 t108.5 69.5t128 23.5q118 0 194.5 -57t102.5 -160z" />
<glyph unicode="&#x422;" horiz-adv-x="546" d="M8 717h531v-123h-199v-594h-133v594h-199v123z" />
<glyph unicode="&#x423;" horiz-adv-x="532" d="M126 717l142 -345l140 345h127l-297 -725h-123l91 225l-208 500h128z" />
<glyph unicode="&#x424;" horiz-adv-x="798" d="M463 0h-127v74h-9q-63 0 -115 23t-89.5 62t-58 90.5t-20.5 108.5t20.5 109t58 91t89 62t115.5 23h9v74h127v-74h9q62 0 114.5 -23t90 -62t58 -90.5t20.5 -109.5q0 -57 -20.5 -108.5t-58 -90.5t-89.5 -62t-115 -23h-9v-74zM463 535v-353h9q35 0 63 14.5t47 38.5t29.5 56 t10.5 67t-10.5 67.5t-29.5 56.5t-47 38.5t-63 14.5h-9zM336 535h-9q-36 0 -63.5 -14.5t-46.5 -38.5t-29.5 -56.5t-10.5 -67.5q0 -36 10.5 -67.5t29.5 -55.5t46.5 -38.5t63.5 -14.5h9v353z" />
<glyph unicode="&#x425;" horiz-adv-x="606" d="M565 717l-189 -330l223 -387h-147l-149 259l-148 -259h-148l223 387l-189 330h145l117 -203l117 203h145z" />
<glyph unicode="&#x426;" horiz-adv-x="719" d="M92 717h133v-590h258v590h133v-590h75l-18 -254h-115v127h-466v717z" />
<glyph unicode="&#x427;" horiz-adv-x="688" d="M463 245q-34 -24 -79.5 -34t-88.5 -10q-48 0 -88.5 15t-69.5 48.5t-45 84.5t-16 122v246h133v-246q0 -72 29 -107.5t80 -35.5q29 0 50 4.5t37.5 12.5t30 19.5t27.5 25.5v327h133v-717h-133v245z" />
<glyph unicode="&#x428;" horiz-adv-x="1015" d="M441 717h133v-590h217v590h133v-717h-832v717h133v-590h216v590z" />
<glyph unicode="&#x429;" horiz-adv-x="1027" d="M441 717h133v-590h217v590h133v-590h74l-18 -254h-115v127h-773v717h133v-590h216v590z" />
<glyph unicode="&#x42a;" horiz-adv-x="694" d="M10 717h263v-279h135q111 0 173.5 -55.5t62.5 -163.5t-63 -163.5t-173 -55.5h-268v594h-130v123zM273 315v-192h122q62 0 89 25t27 71t-26.5 71t-89.5 25h-122z" />
<glyph unicode="&#x42b;" horiz-adv-x="911" d="M92 717h133v-279h134q111 0 174 -55.5t63 -163.5t-63 -163.5t-174 -55.5h-267v717zM225 315v-192h122q62 0 89 25t27 71t-26.5 71t-89.5 25h-122zM819 725v-725h-127v725h127z" />
<glyph unicode="&#x42c;" horiz-adv-x="646" d="M92 717h133v-279h134q111 0 174 -55.5t63 -163.5t-63 -163.5t-174 -55.5h-267v717zM225 315v-192h122q62 0 89 25t27 71t-26.5 71t-89.5 25h-122z" />
<glyph unicode="&#x42d;" horiz-adv-x="701" d="M189 420h324q-14 93 -63 137.5t-120 44.5q-36 0 -63.5 -10t-49.5 -27t-38 -40.5t-27 -49.5l-120 33q16 48 44 88t66.5 68.5t85.5 44.5t102 16q70 0 128.5 -23.5t101.5 -69.5t67.5 -114.5t24.5 -159.5q0 -90 -24.5 -158.5t-67.5 -114.5t-102 -69.5t-128 -23.5 q-54 0 -101.5 16t-86 44.5t-66.5 68.5t-44 88l120 33q11 -27 27 -50t38 -40t50 -27t63 -10q72 0 120.5 44.5t62.5 137.5h-324v123z" />
<glyph unicode="&#x42e;" horiz-adv-x="1056" d="M670 725q68 0 129 -22.5t107.5 -67.5t74 -114t27.5 -163q0 -93 -27.5 -162t-74 -114t-108 -67.5t-128.5 -22.5q-62 0 -119 18.5t-102.5 56t-75.5 95t-39 135.5h-109v-297h-133v717h133v-297h109q9 78 39 135t75.5 95t102.5 56.5t119 18.5zM670 602q-40 0 -77 -14.5 t-65 -44t-44.5 -75.5t-16.5 -110q0 -63 16.5 -109t44.5 -76t65 -44t77 -14t76.5 14t65 44t44.5 76t16 109t-16 109.5t-44.5 76t-65 44t-76.5 14.5z" />
<glyph unicode="&#x42f;" horiz-adv-x="668" d="M98.0352 513q0 -71 33.998 -121.5q33.9971 -50.5 99.9932 -70.5l-198.987 -321h148.99l191.988 309h69.9961v-309h132.992v717h-260.984q-52.9971 0 -93.9941 -15.5q-40.998 -15.5 -68.9961 -42t-41.4971 -64.5t-13.499 -82zM315.021 432q-35.998 0 -59.9961 18.5 q-23.999 18.5 -23.999 62.5t23.999 62.5q23.998 18.5 59.9961 18.5h128.992v-162h-128.992z" />
<glyph unicode="&#x430;" horiz-adv-x="526" d="M58 381q12 65 64.5 104t132.5 39q46 0 85.5 -10.5t68.5 -35.5t46 -66.5t17 -103.5v-308h-104l-14 66q-27 -33 -65 -53.5t-93 -20.5q-33 0 -62 10t-50 29.5t-33 49t-12 67.5t16 69.5t45 54t69.5 34t89.5 11.5h86v23q0 22 -7.5 36t-20 23.5t-29 13t-33.5 3.5q-27 0 -52 -12 t-37 -48zM172 151q0 -18 13.5 -34.5t39.5 -16.5q22 0 43.5 7.5t38.5 21t27.5 33.5t10.5 45v10h-85q-41 0 -64.5 -15.5t-23.5 -50.5z" />
<glyph unicode="&#x431;" horiz-adv-x="612" d="M44 317q0 114 20 191t55.5 123t84.5 66t108 20h37q27 0 46.5 10.5t30.5 37.5h79q0 -43 -11 -73t-30.5 -49t-47 -28t-60.5 -9h-40q-27 0 -50.5 -6.5t-42.5 -22.5t-31.5 -42t-14.5 -65q20 19 58.5 36.5t88.5 17.5q58 0 103 -20t77 -55.5t48 -84.5t16 -106t-19 -106.5 t-53 -84.5t-83 -55t-109 -20q-59 0 -107.5 23t-82 65t-52 102t-18.5 135zM177 258q0 -32 9 -60.5t25 -50t40 -34.5t55 -13t55 13t40.5 34.5t25 50t8.5 60.5t-8.5 60.5t-25 50t-40.5 34.5t-55 13t-55 -13t-40 -34.5t-25 -50t-9 -60.5z" />
<glyph unicode="&#x432;" horiz-adv-x="533" d="M281 516q77 0 125.5 -33t48.5 -108q0 -28 -14.5 -53.5t-34.5 -39.5q34 -16 57.5 -50t23.5 -80q0 -78 -47.5 -115t-127.5 -37h-230v516h199zM209 414v-86h64q30 0 44.5 9.5t14.5 33.5t-14.5 33.5t-44.5 9.5h-64zM209 217v-108h70q39 0 59 11.5t20 41.5t-20.5 42.5 t-58.5 12.5h-70z" />
<glyph unicode="&#x433;" horiz-adv-x="441" d="M82 0v516h349v-108h-222v-408h-127z" />
<glyph unicode="&#x434;" horiz-adv-x="593" d="M426 0h-264v-117h-110l-16 226h43l65 407h370v-407h38l-15 -226h-111v117zM203 109h184v299h-138z" />
<glyph unicode="&#x435;" horiz-adv-x="569" d="M532 217h-355q1 -22 9.5 -42.5t23.5 -37t37 -27t52 -10.5q44 0 72.5 20t52.5 60l102 -38q-30 -69 -85.5 -109.5t-148.5 -40.5q-67 0 -114 24.5t-76.5 63t-43.5 85.5t-14 93t14 93t43.5 85.5t76.5 63t114 24.5q65 0 110 -24t74.5 -61.5t42.5 -82.5t13 -87v-52zM292 416 q-25 0 -44 -9t-32.5 -22.5t-23 -31t-12.5 -36.5h222q-4 19 -12 37t-21.5 31.5t-32 22t-44.5 8.5z" />
<glyph unicode="&#x436;" horiz-adv-x="808" d="M468 516v-203l168 203h157l-207 -237l220 -279h-156l-182 244v-244h-127v244l-182 -244h-156l220 279l-207 237h157l168 -203v203h127z" />
<glyph unicode="&#x437;" horiz-adv-x="454" d="M158 165q5 -31 22.5 -53.5t51.5 -22.5q33 0 51 21t18 54t-18.5 55t-48.5 22q-26 0 -50 -14l-57 70l91 117h-148v102h316v-39l-125 -159q5 1 8 1h11q61 0 97.5 -40.5t36.5 -112.5q0 -41 -14.5 -73.5t-39 -55t-58 -34t-70.5 -11.5q-36 0 -68.5 10.5t-57.5 31t-42 50 t-21 66.5z" />
<glyph unicode="&#x438;" horiz-adv-x="606" d="M209 516v-318l177 318h138v-516h-127v318l-177 -318h-138v516h127z" />
<glyph unicode="&#x439;" horiz-adv-x="606" d="M209 516v-318l177 318h138v-516h-127v318l-177 -318h-138v516h127zM275 717q0 -12 8 -20.5t20 -8.5t20 8.5t8 20.5h93q0 -23 -8.5 -43t-24 -35t-38 -24.5t-50.5 -9.5t-50.5 9.5t-38 24.5t-24 35t-8.5 43h93z" />
<glyph unicode="&#x43a;" horiz-adv-x="549" d="M209 516v-203l168 203h157l-207 -237l220 -279h-156l-182 244v-244h-127v516h127z" />
<glyph unicode="&#x43b;" horiz-adv-x="614" d="M157 516h375v-516h-126v408h-132l-30 -273q-5 -47 -23 -73.5t-46 -40.5t-64.5 -17.5t-79.5 -3.5v109q45 0 66.5 15.5t25.5 56.5z" />
<glyph unicode="&#x43c;" horiz-adv-x="663" d="M82 516h133l117 -297l117 297h133v-516h-127v258l-79 -211h-88l-79 211v-258h-127v516z" />
<glyph unicode="&#x43d;" horiz-adv-x="589" d="M82 516h127v-187h172v187h127v-516h-127v220h-172v-220h-127v516z" />
<glyph unicode="&#x43e;" horiz-adv-x="612" d="M44 258q0 56 17.5 105t51 84.5t82.5 56t111 20.5t111 -20.5t83 -56t51 -84.5t17 -105t-17 -105t-51 -84.5t-82.5 -56t-111.5 -20.5q-62 0 -111 20.5t-82.5 56t-51 84.5t-17.5 105zM177 258q0 -32 9 -60.5t25 -50t40 -34.5t55 -13t55 13t40.5 34.5t25 50t8.5 60.5 t-8.5 60.5t-25 50t-40.5 34.5t-55 13t-55 -13t-40 -34.5t-25 -50t-9 -60.5z" />
<glyph unicode="&#x43f;" horiz-adv-x="586" d="M82 516h423v-516h-127v408h-169v-408h-127v516z" />
<glyph unicode="&#x440;" horiz-adv-x="613" d="M569 258q0 -59 -14.5 -108.5t-44.5 -84t-74 -54t-102 -19.5q-39 0 -73.5 17t-51.5 38v-256h-127v725h127v-53q5 10 16.5 21t27.5 20t36.5 14.5t44.5 5.5q58 0 102 -19.5t74 -54t44.5 -84t14.5 -108.5zM436 258q0 77 -34.5 117.5t-85.5 40.5q-50 0 -84 -40.5t-34 -117.5 t34 -117.5t84 -40.5t85 40.5t35 117.5z" />
<glyph unicode="&#x441;" horiz-adv-x="564" d="M530 139q-30 -74 -88.5 -110.5t-145.5 -36.5q-63 0 -110.5 21t-78.5 57t-47 85t-16 103t16 103t47 85t78 57t111 21q87 0 146 -36.5t88 -110.5l-113 -46q-20 41 -49 63t-72 22q-60 0 -89.5 -44.5t-29.5 -113.5t29.5 -113.5t89.5 -44.5q43 0 71.5 22t49.5 63z" />
<glyph unicode="&#x442;" horiz-adv-x="466" d="M32 516h403v-108h-138v-408h-127v408h-138v108z" />
<glyph unicode="&#x443;" horiz-adv-x="492" d="M131 516l120 -323l113 323h126l-266 -725h-123l89 242l-187 483h128z" />
<glyph unicode="&#x444;" horiz-adv-x="739" d="M433 -209h-127v201q-59 0 -107.5 21t-83 56.5t-53 84.5t-18.5 104t18.5 104t53 84.5t83 56.5t107.5 21v201h127v-201q59 0 108 -21t83 -56.5t52.5 -84.5t18.5 -104t-18.5 -104t-52.5 -84.5t-82.5 -56.5t-108.5 -21v-201zM433 416v-316h5q29 0 51.5 12.5t39 34t25 50 t8.5 61.5q0 32 -8.5 60.5t-25 50t-39 34.5t-51.5 13h-5zM306 416h-5q-29 0 -52 -13t-38.5 -34.5t-24.5 -50t-9 -60.5q0 -33 9 -61.5t24.5 -50t38.5 -34t52 -12.5h5v316z" />
<glyph unicode="&#x445;" horiz-adv-x="493" d="M464 516l-150 -241l171 -275h-133l-105 168l-106 -168h-133l171 275l-149 241h133l84 -134l84 134h133z" />
<glyph unicode="&#x446;" horiz-adv-x="584" d="M82 516h127v-407h169v407h127v-407h38l-16 -226h-110v117h-335v516z" />
<glyph unicode="&#x447;" horiz-adv-x="589" d="M381 0v151q-36 -32 -70.5 -44.5t-81.5 -12.5q-71 0 -114 39.5t-43 115.5v267h127v-221q0 -46 19.5 -66t53.5 -20q31 0 58.5 23.5t50.5 69.5v214h127v-516h-127z" />
<glyph unicode="&#x448;" horiz-adv-x="849" d="M82 516h127v-407h152v407h127v-407h153v407h127v-516h-686v516z" />
<glyph unicode="&#x449;" horiz-adv-x="847" d="M82 516h127v-407h152v407h127v-407h153v407h127v-407h38l-15 -226h-111v117h-598v516z" />
<glyph unicode="&#x44a;" horiz-adv-x="563" d="M29 516h216v-197h94q83 0 130.5 -43.5t47.5 -115.5q0 -73 -47.5 -116.5t-130.5 -43.5h-221v408h-89v108zM245 211v-102h71q36 0 54 11.5t18 39.5t-18 39.5t-54 11.5h-71z" />
<glyph unicode="&#x44b;" horiz-adv-x="797" d="M82 516h127v-197h94q83 0 130.5 -43.5t47.5 -115.5q0 -73 -47.5 -116.5t-130.5 -43.5h-221v516zM209 211v-102h72q36 0 53.5 11.5t17.5 39.5t-18 39.5t-53 11.5h-72zM716 516v-516h-127v516h127z" />
<glyph unicode="&#x44c;" horiz-adv-x="527" d="M82 516h127v-197h94q83 0 130.5 -43.5t47.5 -115.5q0 -73 -47.5 -116.5t-130.5 -43.5h-221v516zM209 211v-102h72q36 0 53.5 11.5t17.5 39.5t-18 39.5t-53 11.5h-72z" />
<glyph unicode="&#x44d;" horiz-adv-x="566" d="M162 308h221q-8 47 -40 77.5t-79 30.5q-43 0 -74 -21t-52 -58l-104 53q37 65 91.5 99.5t134.5 34.5q65 0 114 -21t81.5 -57t49.5 -85t17 -103t-17 -103t-49.5 -85t-81.5 -57t-114 -21q-80 0 -134.5 34.5t-91.5 99.5l104 53q20 -37 51.5 -58t74.5 -21q47 0 79 30.5 t40 77.5h-221v100z" />
<glyph unicode="&#x44e;" horiz-adv-x="842" d="M82 516h127v-204h70q7 46 28 84.5t53.5 67.5t77 44.5t99.5 15.5q62 0 110.5 -20.5t82.5 -56t51.5 -84.5t17.5 -105t-17.5 -105t-51.5 -84.5t-82.5 -56t-110.5 -20.5q-54 0 -99 16t-77.5 44t-53.5 67t-28 85h-70v-204h-127v516zM408 258q0 -32 8.5 -60.5t25 -50 t40.5 -34.5t55 -13t54.5 13t40 34.5t25.5 50t9 60.5t-9 60.5t-25.5 50t-40.5 34.5t-54 13q-31 0 -55 -13t-40.5 -34.5t-25 -50t-8.5 -60.5z" />
<glyph unicode="&#x44f;" horiz-adv-x="501" d="M52 370q0 33 13 60t36 46t54 29.5t68 10.5h197v-516h-127v223h-14l-125 -223h-136l136 229q-46 14 -74 51t-28 90zM293 332v76h-77q-41 0 -41 -38t41 -38h77z" />
<glyph unicode="&#x450;" horiz-adv-x="569" d="M532 217h-355q1 -22 9.5 -42.5t23.5 -37t37 -27t52 -10.5q44 0 72.5 20t52.5 60l102 -38q-30 -69 -85.5 -109.5t-148.5 -40.5q-67 0 -114 24.5t-76.5 63t-43.5 85.5t-14 93t14 93t43.5 85.5t76.5 63t114 24.5q65 0 110 -24t74.5 -61.5t42.5 -82.5t13 -87v-52zM292 416 q-25 0 -44 -9t-32.5 -22.5t-23 -31t-12.5 -36.5h222q-4 19 -12 37t-21.5 31.5t-32 22t-44.5 8.5zM361 573h-97l-141 152h172z" />
<glyph unicode="&#x451;" horiz-adv-x="569" d="M532 217h-355q1 -22 9.5 -42.5t23.5 -37t37 -27t52 -10.5q44 0 72.5 20t52.5 60l102 -38q-30 -69 -85.5 -109.5t-148.5 -40.5q-67 0 -114 24.5t-76.5 63t-43.5 85.5t-14 93t14 93t43.5 85.5t76.5 63t114 24.5q65 0 110 -24t74.5 -61.5t42.5 -82.5t13 -87v-52zM292 416 q-25 0 -44 -9t-32.5 -22.5t-23 -31t-12.5 -36.5h222q-4 19 -12 37t-21.5 31.5t-32 22t-44.5 8.5zM113 667q0 32 20 52t53 20t53 -20.5t20 -51.5q0 -32 -20 -52.5t-53 -20.5t-53 20.5t-20 52.5zM325 667q0 32 20 52t53 20t53 -20.5t20 -51.5q0 -32 -20 -52.5t-53 -20.5 t-53 20.5t-20 52.5z" />
<glyph unicode="&#x452;" horiz-adv-x="607" d="M209 572v-139q25 39 66 65t98 26q74 0 117.5 -37.5t43.5 -117.5v-310q0 -61 -13.5 -107.5t-40.5 -79.5t-67.5 -55t-95.5 -34l-30 112q28 7 50 17.5t37.5 27.5t24 42.5t8.5 61.5v280q0 92 -77 92q-22 0 -44 -11.5t-39 -35.5t-27.5 -61.5t-10.5 -89.5v-218h-127v572h-74v95 h74v58h127v-58h114v-95h-114z" />
<glyph unicode="&#x453;" horiz-adv-x="441" d="M82 0v516h349v-108h-222v-408h-127zM235 725h172l-140 -152h-98z" />
<glyph unicode="&#x454;" horiz-adv-x="566" d="M404 208h-221q8 -47 40 -77.5t79 -30.5q43 0 74.5 21t51.5 58l104 -53q-37 -65 -91.5 -99.5t-134.5 -34.5q-65 0 -114 21t-81.5 57t-49.5 85t-17 103t17 103t49.5 85t82 57t113.5 21q80 0 135 -34.5t91 -99.5l-104 -53q-20 37 -51.5 58t-74.5 21q-47 0 -79 -30.5 t-40 -77.5h221v-100z" />
<glyph unicode="&#x455;" horiz-adv-x="466" d="M237 524q52 0 95 -23t66 -61l-75 -69q-17 24 -41 34.5t-45 10.5q-18 0 -33 -11t-15 -32q0 -17 13 -29.5t37 -20.5q27 -9 59 -20t60.5 -28t47.5 -43.5t19 -67.5q0 -35 -13 -66t-37 -55t-57.5 -37.5t-75.5 -13.5q-40 0 -74 12.5t-59.5 32.5t-44 45.5t-27.5 48.5l101 54 q14 -38 40 -61.5t64 -23.5q30 0 46.5 13.5t16.5 42.5q0 16 -11 26.5t-29.5 19t-41.5 15.5t-47 17q-22 9 -40.5 20.5t-33 28t-22.5 39t-8 52.5t11.5 57t33 48t52 33t68.5 12z" />
<glyph unicode="&#x456;" horiz-adv-x="266" d="M51 665q0 35 23 58t59 23t59 -23.5t23 -57.5q0 -35 -23 -58.5t-59 -23.5t-59 23.5t-23 58.5zM197 516v-516h-127v516h127z" />
<glyph unicode="&#x457;" horiz-adv-x="266" d="M197 516v-516h-127v516h127zM-44 667q0 32 20 52t53 20t53 -20.5t20 -51.5q0 -32 -20 -52.5t-53 -20.5t-53 20.5t-20 52.5zM168 667q0 32 20 52t53 20t53 -20.5t20 -51.5q0 -32 -20 -52.5t-53 -20.5t-53 20.5t-20 52.5z" />
<glyph unicode="&#x458;" horiz-adv-x="266" d="M197 516v-457q0 -61 -13.5 -107.5t-40.5 -79.5t-67.5 -55t-94.5 -34l-31 112q28 7 50.5 17.5t37.5 27.5t23.5 42.5t8.5 61.5v472h127zM51 665q0 35 23 58t59 23t59 -23.5t23 -57.5q0 -35 -23 -58.5t-59 -23.5t-59 23.5t-23 58.5z" />
<glyph unicode="&#x459;" horiz-adv-x="814" d="M157 516h339v-197h94q83 0 130.5 -43.5t47.5 -115.5q0 -73 -47.5 -116.5t-130.5 -43.5h-221v408h-95l-30 -273q-5 -47 -23 -73.5t-46 -40.5t-64.5 -17.5t-79.5 -3.5v109q45 0 66.5 15.5t25.5 56.5zM496 211v-102h71q36 0 54 11.5t18 39.5t-18 39.5t-54 11.5h-71z" />
<glyph unicode="&#x45a;" horiz-adv-x="836" d="M82 516h127v-197h182v197h127v-197h94q83 0 131 -43.5t48 -115.5q0 -73 -48 -116.5t-131 -43.5h-221v211h-182v-211h-127v516zM518 211v-102h72q36 0 54 11.5t18 39.5t-18 39.5t-54 11.5h-72z" />
<glyph unicode="&#x45b;" horiz-adv-x="607" d="M8 667h74v58h127v-58h114v-95h-114v-139q25 39 66 65t98 26q74 0 117.5 -37.5t43.5 -117.5v-369h-127v324q0 92 -77 92q-22 0 -44 -11.5t-39 -35.5t-27.5 -61.5t-10.5 -89.5v-218h-127v572h-74v95z" />
<glyph unicode="&#x45c;" horiz-adv-x="549" d="M209 516v-203l168 203h157l-207 -237l220 -279h-156l-182 244v-244h-127v516h127zM280 725h172l-140 -152h-98z" />
<glyph unicode="&#x45d;" horiz-adv-x="606" d="M209 516v-318l177 318h138v-516h-127v318l-177 -318h-138v516h127zM376 573h-97l-141 152h172z" />
<glyph unicode="&#x45e;" horiz-adv-x="492" d="M131 516l120 -323l113 323h126l-266 -725h-123l89 242l-187 483h128zM223 717q0 -12 8 -20.5t20 -8.5t20 8.5t8 20.5h93q0 -23 -8.5 -43t-24 -35t-38 -24.5t-50.5 -9.5t-50.5 9.5t-38 24.5t-24 35t-8.5 43h93z" />
<glyph unicode="&#x45f;" horiz-adv-x="587" d="M82 516h127v-407h170v407h127v-516h-149v-117h-127v117h-148v516z" />
<glyph unicode="&#x2000;" horiz-adv-x="565" />
<glyph unicode="&#x2001;" horiz-adv-x="1131" />
<glyph unicode="&#x2002;" horiz-adv-x="565" />
<glyph unicode="&#x2003;" horiz-adv-x="1131" />
<glyph unicode="&#x2004;" horiz-adv-x="377" />
<glyph unicode="&#x2005;" horiz-adv-x="282" />
<glyph unicode="&#x2006;" horiz-adv-x="188" />
<glyph unicode="&#x2007;" horiz-adv-x="188" />
<glyph unicode="&#x2008;" horiz-adv-x="141" />
<glyph unicode="&#x2009;" horiz-adv-x="226" />
<glyph unicode="&#x200a;" horiz-adv-x="62" />
<glyph unicode="&#x2010;" horiz-adv-x="515" d="M67 380h382v-111h-382v111z" />
<glyph unicode="&#x2011;" horiz-adv-x="515" d="M67 380h382v-111h-382v111z" />
<glyph unicode="&#x2012;" horiz-adv-x="515" d="M67 380h382v-111h-382v111z" />
<glyph unicode="&#x2013;" horiz-adv-x="599" d="M67 380h465v-111h-465v111z" />
<glyph unicode="&#x2014;" horiz-adv-x="789" d="M67 380h656v-111h-656v111z" />
<glyph unicode="&#x2018;" horiz-adv-x="342" d="M298 475h-94l-153 250h167z" />
<glyph unicode="&#x2019;" horiz-adv-x="342" d="M131 725h167l-153 -250h-94z" />
<glyph unicode="&#x201a;" horiz-adv-x="342" d="M124 236h167l-153 -250h-94z" />
<glyph unicode="&#x201c;" horiz-adv-x="567" d="M523 475h-94l-153 250h167zM298 475h-94l-153 250h167z" />
<glyph unicode="&#x201d;" horiz-adv-x="567" d="M124 725h167l-153 -250h-94zM349 725h167l-152 -250h-95z" />
<glyph unicode="&#x201e;" horiz-adv-x="567" d="M124 236h167l-153 -250h-94zM349 236h167l-152 -250h-95z" />
<glyph unicode="&#x2020;" horiz-adv-x="536" d="M53 516h153v252h125v-252h152v-110h-152v-457h-125v457h-153v110z" />
<glyph unicode="&#x2021;" horiz-adv-x="536" d="M53 516h153v252h125v-252h152v-110h-152v-95h152v-110h-152v-252h-125v252h-153v110h153v95h-153v110z" />
<glyph unicode="&#x2022;" horiz-adv-x="401" d="M80 338q0 25 9.5 47t26 38t38.5 26t47 10t46.5 -10t38 -26t26.5 -38.5t10 -46.5q0 -25 -10 -47t-26.5 -38t-38.5 -26t-46 -10q-25 0 -47 10t-38.5 26t-26 38t-9.5 47z" />
<glyph unicode="&#x2026;" horiz-adv-x="995" d="M82 80q0 37 24.5 61.5t61.5 24.5t61.5 -24.5t24.5 -61.5t-24.5 -61.5t-61.5 -24.5t-61.5 24.5t-24.5 61.5zM412 80q0 37 24.5 61.5t61.5 24.5t61.5 -24.5t24.5 -61.5t-24.5 -61.5t-61.5 -24.5t-61.5 24.5t-24.5 61.5zM741 80q0 37 25 61.5t61 24.5q37 0 61.5 -24.5 t24.5 -61.5t-24.5 -61.5t-61.5 -24.5t-61.5 24.5t-24.5 61.5z" />
<glyph unicode="&#x202f;" horiz-adv-x="226" />
<glyph unicode="&#x2030;" horiz-adv-x="1266" d="M53 561q0 35 13 64.5t35 51.5t52.5 35t67.5 13t67.5 -13t53 -35t35 -51.5t12.5 -64.5t-12.5 -64.5t-35 -51.5t-53 -35t-67.5 -13t-67.5 13t-52.5 35t-35 51.5t-13 64.5zM158 561q0 -29 16.5 -47.5t46.5 -18.5t47 18.5t17 47.5t-17 48t-47 19t-46.5 -19t-16.5 -48z M469 156q0 35 13 64.5t35 51.5t52.5 34.5t67.5 12.5t67.5 -12.5t52.5 -34.5t35 -52t13 -64q0 -35 -13 -65t-35 -52t-52.5 -34.5t-67.5 -12.5t-67.5 12.5t-52.5 34.5t-35 52t-13 65zM573 156q0 -29 17 -48t47 -19t46.5 19t16.5 48t-16.5 47.5t-46.5 18.5t-47 -18.5t-17 -47.5 zM878 156q0 35 12.5 64.5t34.5 51.5t53 34.5t68 12.5t67.5 -12.5t52.5 -34.5t34.5 -52t12.5 -64q0 -35 -12.5 -65t-34.5 -52t-53 -34.5t-67 -12.5q-37 0 -68 12.5t-53 34.5t-34.5 52t-12.5 65zM982 156q0 -29 17 -48t47 -19t46.5 19t16.5 48t-17 47.5t-46 18.5 q-30 0 -47 -18.5t-17 -47.5zM748 697l-551 -736l-74 59l551 736z" />
<glyph unicode="&#x2039;" horiz-adv-x="412" d="M45 359l316 224v-131l-189 -135l189 -134v-131l-316 223v84z" />
<glyph unicode="&#x203a;" horiz-adv-x="412" d="M368 275l-317 -223v131l190 134l-190 135v131l317 -224v-84z" />
<glyph unicode="&#x2044;" horiz-adv-x="630" d="M628 697l-551 -736l-74 59l551 736z" />
<glyph unicode="&#x205f;" horiz-adv-x="282" />
<glyph unicode="&#x2070;" horiz-adv-x="423" d="M212 721q79 0 124.5 -54t45.5 -155q0 -100 -45.5 -154.5t-124.5 -54.5t-124.5 54.5t-45.5 154.5q0 101 45.5 155t124.5 54zM212 636q-14 0 -28 -6.5t-25 -21t-17 -38.5t-6 -58q0 -68 23 -96t53 -28t53 28t23 96q0 34 -6.5 58t-17 38.5t-24.5 21t-28 6.5z" />
<glyph unicode="&#x2074;" horiz-adv-x="359" d="M200 374h-171v46l165 297h97v-258h44v-85h-44v-67h-91v67zM200 459v125l-65 -125h65z" />
<glyph unicode="&#x2075;" horiz-adv-x="363" d="M132 434q5 -22 19 -34t33 -12q27 0 41.5 16t14.5 45q0 56 -56 56q-33 0 -59 -24l-73 16l22 220h235v-85h-158l-11 -69q12 7 28.5 11.5t36.5 4.5q32 0 56.5 -10.5t40.5 -28t24.5 -41t8.5 -50.5q0 -69 -41 -107.5t-110 -38.5q-28 0 -51.5 9.5t-43 25t-31.5 37.5t-15 49z " />
<glyph unicode="&#x2076;" horiz-adv-x="382" d="M196 569q7 3 18 3q24 0 46.5 -7.5t39.5 -24t27.5 -42t10.5 -60.5q0 -60 -40 -97.5t-104 -37.5q-65 0 -104.5 37t-39.5 98q0 44 19 77l115 206h103zM194 487q-20 0 -34.5 -12.5t-14.5 -36.5q0 -23 14 -36.5t35 -13.5q20 0 34 14t14 36q0 24 -14 36.5t-34 12.5z" />
<glyph unicode="&#x2077;" horiz-adv-x="323" d="M308 681l-153 -374h-98l136 325h-152v85h267v-36z" />
<glyph unicode="&#x2078;" horiz-adv-x="370" d="M185 721q31 0 54.5 -9.5t40 -24.5t25 -35t8.5 -42q0 -56 -46 -82q22 -10 41 -31.5t19 -60.5q0 -61 -38.5 -97t-103.5 -36t-103 36t-38 97q0 39 19 60.5t40 31.5q-46 26 -46 82q0 22 9 42t25.5 35t39.5 24.5t54 9.5zM185 484q-22 0 -34 -13.5t-12 -34.5q0 -20 12.5 -34 t33.5 -14q22 0 34 14t12 34t-12 34t-34 14zM185 652q-20 0 -31 -12t-11 -33q0 -20 11 -32.5t31 -12.5t31 12.5t11 32.5t-11 32.5t-31 12.5z" />
<glyph unicode="&#x2079;" horiz-adv-x="382" d="M187 455q-8 -3 -18 -3q-24 0 -46.5 7.5t-39.5 24t-27.5 41.5t-10.5 61q0 60 40 97.5t104 37.5q65 0 104.5 -37t39.5 -98q0 -20 -4.5 -40.5t-14.5 -36.5l-115 -206h-103zM189 537q20 0 34.5 12.5t14.5 36.5q0 23 -14 36.5t-35 13.5q-20 0 -34 -14t-14 -36q0 -24 14 -36.5 t34 -12.5z" />
<glyph unicode="&#x2080;" horiz-adv-x="423" d="M212 206q79 0 124.5 -54t45.5 -155q0 -100 -45.5 -154.5t-124.5 -54.5t-124.5 54.5t-45.5 154.5q0 101 45.5 155t124.5 54zM212 121q-14 0 -28 -6.5t-25 -21t-17 -38.5t-6 -58q0 -68 23 -96t53 -28t53 28t23 96q0 34 -6.5 58t-17 38.5t-24.5 21t-28 6.5z" />
<glyph unicode="&#x2081;" horiz-adv-x="313" d="M231 202v-410h-91v285l-87 -39v97l141 67h37z" />
<glyph unicode="&#x2082;" horiz-adv-x="388" d="M54 -172l149 181q16 19 21.5 36.5t5.5 33.5q0 20 -10.5 31t-28.5 11q-17 0 -31.5 -11t-20.5 -43l-82 23q6 52 43.5 84t90.5 32q59 0 97 -33.5t38 -91.5q0 -32 -12 -56.5t-29 -44.5l-84 -103h131v-85h-278v36z" />
<glyph unicode="&#x2083;" horiz-adv-x="397" d="M136 -73q5 -28 22 -41t38 -13q50 0 50 61q0 29 -14.5 41.5t-34.5 12.5q-12 0 -20 -2.5t-18 -7.5l-41 51l67 88h-112v85h242v-36l-91 -117q26 0 47.5 -9.5t37 -25.5t24 -37.5t8.5 -46.5q0 -63 -35 -102.5t-108 -39.5q-32 0 -57.5 10t-44 27t-30 40.5t-12.5 51.5z" />
<glyph unicode="&#x2084;" horiz-adv-x="359" d="M200 -141h-171v46l165 297h97v-258h44v-85h-44v-67h-91v67zM200 -56v125l-65 -125h65z" />
<glyph unicode="&#x2085;" horiz-adv-x="363" d="M132 -81q5 -22 19 -34t33 -12q27 0 41.5 16t14.5 45q0 56 -56 56q-33 0 -59 -24l-73 16l22 220h235v-85h-158l-11 -69q12 7 28.5 11.5t36.5 4.5q32 0 56.5 -10.5t40.5 -28t24.5 -41t8.5 -50.5q0 -69 -41 -107.5t-110 -38.5q-28 0 -51.5 9.5t-43 25t-31.5 37.5t-15 49z " />
<glyph unicode="&#x2086;" horiz-adv-x="382" d="M196 54q7 3 18 3q24 0 46.5 -7.5t39.5 -24t27.5 -42t10.5 -60.5q0 -60 -40 -97.5t-104 -37.5q-65 0 -104.5 37t-39.5 98q0 44 19 77l115 206h103zM194 -28q-20 0 -34.5 -12.5t-14.5 -36.5q0 -23 14 -36.5t35 -13.5q20 0 34 14t14 36q0 24 -14 36.5t-34 12.5z" />
<glyph unicode="&#x2087;" horiz-adv-x="323" d="M308 166l-153 -374h-98l136 325h-152v85h267v-36z" />
<glyph unicode="&#x2088;" horiz-adv-x="370" d="M185 206q31 0 54.5 -9.5t40 -24.5t25 -35t8.5 -42q0 -56 -46 -82q22 -10 41 -31.5t19 -60.5q0 -61 -38.5 -97t-103.5 -36t-103 36t-38 97q0 39 19 60.5t40 31.5q-46 26 -46 82q0 22 9 42t25.5 35t39.5 24.5t54 9.5zM185 -31q-22 0 -34 -13.5t-12 -34.5q0 -20 12.5 -34 t33.5 -14q22 0 34 14t12 34t-12 34t-34 14zM185 137q-20 0 -31 -12t-11 -33q0 -20 11 -32.5t31 -12.5t31 12.5t11 32.5t-11 32.5t-31 12.5z" />
<glyph unicode="&#x2089;" horiz-adv-x="382" d="M187 -60q-8 -3 -18 -3q-24 0 -46.5 7.5t-39.5 24t-27.5 41.5t-10.5 61q0 60 40 97.5t104 37.5q65 0 104.5 -37t39.5 -98q0 -20 -4.5 -40.5t-14.5 -36.5l-115 -206h-103zM189 22q20 0 34.5 12.5t14.5 36.5q0 23 -14 36.5t-35 13.5q-20 0 -34 -14t-14 -36q0 -24 14 -36.5 t34 -12.5z" />
<glyph unicode="&#x20ac;" horiz-adv-x="659" d="M77 496h51q27 115 100 172t173 57q80 0 135.5 -31t86.5 -89l-111 -65q-17 33 -46 49.5t-65 16.5q-51 0 -88.5 -25.5t-54.5 -84.5h215l-51 -111h-178v-53h229l-51 -111h-164q17 -60 54.5 -85t88.5 -25q36 0 65 16.5t46 49.5l111 -65q-31 -57 -86.5 -88.5t-135.5 -31.5 q-100 0 -173 57t-100 172h-102l51 111h40v53h-91z" />
<glyph unicode="&#x2122;" horiz-adv-x="872" d="M24 717h312v-92h-107v-318h-99v318h-106v92zM397 717h100l99 -239l99 239h100v-410h-100v198l-66 -160h-66l-66 160v-198h-100v410z" />
<glyph unicode="&#x2126;" horiz-adv-x="712" d="M642 0h-251v41q28 60 50 128q19 58 35.5 131.5t16.5 150.5q0 76 -35 119.5t-102 43.5t-101.5 -44t-34.5 -119q0 -77 15.5 -150.5t34.5 -131.5q23 -68 52 -128v-41h-251v111h133q-31 48 -56 103q-20 47 -37.5 108t-17.5 129q0 59 18 109t52 87t83 57.5t110 20.5 t110.5 -20.5t83.5 -57.5t52 -87t18 -109q0 -68 -17.5 -129t-38.5 -108q-25 -55 -55 -103h133v-111z" />
<glyph unicode="&#x2153;" horiz-adv-x="887" d="M745 697l-551 -736l-74 59l551 736zM245 717v-410h-91v285l-87 -39v97l141 67h37zM651 136q5 -28 22 -41t38 -13q50 0 50 61q0 29 -14.5 41.5t-34.5 12.5q-12 0 -20 -2.5t-18 -7.5l-41 51l67 88h-112v85h242v-36l-91 -117q26 0 47.5 -9.5t37 -25.5t24 -37.5t8.5 -46.5 q0 -63 -35 -102.5t-108 -39.5q-32 0 -57.5 10t-44 27t-30 40.5t-12.5 51.5z" />
<glyph unicode="&#x2154;" horiz-adv-x="921" d="M778 697l-551 -736l-74 59l551 736zM37 343l149 181q16 19 21.5 36.5t5.5 33.5q0 20 -10.5 31t-28.5 11q-17 0 -31.5 -11t-20.5 -43l-82 23q6 52 43.5 84t90.5 32q59 0 97 -33.5t38 -91.5q0 -32 -12 -56.5t-29 -44.5l-84 -103h131v-85h-278v36zM680 136q5 -28 22 -41 t38 -13q50 0 50 61q0 29 -14.5 41.5t-34.5 12.5q-12 0 -20 -2.5t-18 -7.5l-41 51l67 88h-112v85h242v-36l-91 -117q26 0 47.5 -9.5t37 -25.5t24 -37.5t8.5 -46.5q0 -63 -35 -102.5t-108 -39.5q-32 0 -57.5 10t-44 27t-30 40.5t-12.5 51.5z" />
<glyph unicode="&#x215b;" horiz-adv-x="885" d="M746 697l-551 -736l-74 59l551 736zM245 717v-410h-91v285l-87 -39v97l141 67h37zM694 415q31 0 54.5 -9.5t40 -24.5t25 -35t8.5 -42q0 -56 -46 -82q22 -10 41 -31.5t19 -60.5q0 -61 -38.5 -97t-103.5 -36t-103 36t-38 97q0 39 19 60.5t40 31.5q-46 26 -46 82q0 22 9 42 t25.5 35t39.5 24.5t54 9.5zM694 178q-22 0 -34 -13.5t-12 -34.5q0 -20 12.5 -34t33.5 -14q22 0 34 14t12 34t-12 34t-34 14zM694 346q-20 0 -31 -12t-11 -33q0 -20 11 -32.5t31 -12.5t31 12.5t11 32.5t-11 32.5t-31 12.5z" />
<glyph unicode="&#x215c;" horiz-adv-x="903" d="M773 697l-551 -736l-74 59l551 736zM136 442q5 -28 22 -41t38 -13q50 0 50 61q0 29 -14.5 41.5t-34.5 12.5q-12 0 -20 -2.5t-18 -7.5l-41 51l67 88h-112v85h242v-36l-91 -117q26 0 47.5 -9.5t37 -25.5t24 -37.5t8.5 -46.5q0 -63 -35 -102.5t-108 -39.5q-32 0 -57.5 10 t-44 27t-30 40.5t-12.5 51.5zM722 415q31 0 54.5 -9.5t40 -24.5t25 -35t8.5 -42q0 -56 -46 -82q22 -10 41 -31.5t19 -60.5q0 -61 -38.5 -97t-103.5 -36t-103 36t-38 97q0 39 19 60.5t40 31.5q-46 26 -46 82q0 22 9 42t25.5 35t39.5 24.5t54 9.5zM722 178q-22 0 -34 -13.5 t-12 -34.5q0 -20 12.5 -34t33.5 -14q22 0 34 14t12 34t-12 34t-34 14zM722 346q-20 0 -31 -12t-11 -33q0 -20 11 -32.5t31 -12.5t31 12.5t11 32.5t-11 32.5t-31 12.5z" />
<glyph unicode="&#x215d;" horiz-adv-x="907" d="M773 697l-551 -736l-74 59l551 736zM130 434q5 -22 19 -34t33 -12q27 0 41.5 16t14.5 45q0 56 -56 56q-33 0 -59 -24l-73 16l22 220h235v-85h-158l-11 -69q12 7 28.5 11.5t36.5 4.5q32 0 56.5 -10.5t40.5 -28t24.5 -41t8.5 -50.5q0 -69 -41 -107.5t-110 -38.5 q-28 0 -51.5 9.5t-43 25t-31.5 37.5t-15 49zM722 415q31 0 54.5 -9.5t40 -24.5t25 -35t8.5 -42q0 -56 -46 -82q22 -10 41 -31.5t19 -60.5q0 -61 -38.5 -97t-103.5 -36t-103 36t-38 97q0 39 19 60.5t40 31.5q-46 26 -46 82q0 22 9 42t25.5 35t39.5 24.5t54 9.5zM722 178 q-22 0 -34 -13.5t-12 -34.5q0 -20 12.5 -34t33.5 -14q22 0 34 14t12 34t-12 34t-34 14zM722 346q-20 0 -31 -12t-11 -33q0 -20 11 -32.5t31 -12.5t31 12.5t11 32.5t-11 32.5t-31 12.5z" />
<glyph unicode="&#x215e;" horiz-adv-x="838" d="M707 697l-551 -736l-74 59l551 736zM318 681l-153 -374h-98l136 325h-152v85h267v-36zM656 415q31 0 54.5 -9.5t40 -24.5t25 -35t8.5 -42q0 -56 -46 -82q22 -10 41 -31.5t19 -60.5q0 -61 -38.5 -97t-103.5 -36t-103 36t-38 97q0 39 19 60.5t40 31.5q-46 26 -46 82 q0 22 9 42t25.5 35t39.5 24.5t54 9.5zM656 178q-22 0 -34 -13.5t-12 -34.5q0 -20 12.5 -34t33.5 -14q22 0 34 14t12 34t-12 34t-34 14zM656 346q-20 0 -31 -12t-11 -33q0 -20 11 -32.5t31 -12.5t31 12.5t11 32.5t-11 32.5t-31 12.5z" />
<glyph unicode="&#x2202;" horiz-adv-x="645" d="M104 577q9 32 31.5 59t52 46.5t65 31t73.5 11.5q70 0 119.5 -22.5t80.5 -66.5t46 -109t15 -150q0 -77 -16.5 -147t-54 -123t-98.5 -84t-150 -31q-48 0 -89 16t-70.5 45t-46.5 70t-17 91q0 68 24 124.5t66 98t100.5 64.5t128.5 23q23 0 46 -5.5t43 -16.5q-9 58 -36.5 86 t-78.5 28q-35 0 -66 -16.5t-52 -58.5zM352 416q-37 0 -67.5 -17t-52.5 -44.5t-34.5 -62.5t-12.5 -70q0 -24 6 -45.5t18 -38.5t32 -27.5t48 -10.5q38 0 66.5 16t48 43t29.5 62t10 73q0 59 -20.5 90.5t-70.5 31.5z" />
<glyph unicode="&#x2206;" horiz-adv-x="712" d="M50 33l254 684h105l254 -684v-33h-613v33zM200 111h313l-157 450z" />
<glyph unicode="&#x220f;" horiz-adv-x="599" d="M90 717h419v-717h-127v606h-165v-606h-127v717z" />
<glyph unicode="&#x2211;" horiz-adv-x="566" d="M53 0v56l191 302l-191 302v57h452v-111h-279l145 -233v-29l-145 -233h279v-111h-452z" />
<glyph unicode="&#x2212;" horiz-adv-x="608" d="M61 380h488v-111h-488v111z" />
<glyph unicode="&#x221a;" horiz-adv-x="615" d="M53 398h189l72 -231l159 558h123l-225 -725h-105l-94 284h-119v114z" />
<glyph unicode="&#x221e;" horiz-adv-x="905" d="M655 172q-26 0 -54 5t-54.5 16.5t-51 30.5t-42.5 45q-18 -27 -43 -45.5t-51.5 -30t-55 -16.5t-53.5 -5q-48 0 -85 14.5t-62 40t-38 62t-13 79.5t13 79t38 62t62 40t85 14q26 0 54 -5t54.5 -17t51 -30t43.5 -45q18 27 42.5 45t51 30t55 17t53.5 5q48 0 85 -14t62 -40 t38 -62t13 -79t-13 -79.5t-38 -62t-62 -40t-85 -14.5zM267 279q27 0 59.5 19t59.5 70q-27 50 -59.5 69.5t-59.5 19.5q-40 0 -66 -21.5t-26 -67.5t26 -67.5t66 -21.5zM638 279q40 0 66 21.5t26 67.5t-26 67.5t-66 21.5q-27 0 -59.5 -19.5t-59.5 -69.5q27 -50 59.5 -69.5 t59.5 -19.5z" />
<glyph unicode="&#x222b;" horiz-adv-x="494" d="M215 543q19 97 74 139.5t135 42.5q30 0 56 -5.5t40 -14.5l-47 -103q-14 7 -28 10.5t-30 3.5q-27 0 -46 -14.5t-26 -49.5l-115 -587q-19 -98 -72.5 -140t-132.5 -42q-30 0 -57.5 5.5t-42.5 14.5l47 103q14 -7 28 -11t31 -4q27 0 45.5 15t25.5 50z" />
<glyph unicode="&#x2248;" horiz-adv-x="644" d="M66 220q9 22 24.5 42t36 36t44 25.5t49.5 9.5q33 0 59 -9t49.5 -21t47 -21t49.5 -9q30 0 53 15.5t40 36.5l66 -71q-9 -22 -24.5 -42t-36 -36t-44.5 -25.5t-50 -9.5q-33 0 -59 9t-49.5 21t-46.5 21t-50 9q-30 0 -52.5 -15.5t-40.5 -36.5zM63 430q9 22 24.5 42t36 36 t44 25.5t49.5 9.5q33 0 59 -9t49.5 -21t47 -21t49.5 -9q30 0 53 15.5t40 36.5l66 -71q-9 -22 -24.5 -42t-36 -36t-44.5 -25.5t-50 -9.5q-33 0 -59 9t-49.5 21t-46.5 21t-50 9q-30 0 -52.5 -15.5t-40.5 -36.5z" />
<glyph unicode="&#x2260;" horiz-adv-x="590" d="M72 465h243l61 105l96 -53l-30 -52h77v-111h-139l-42 -73h181v-111h-244l-60 -105l-96 53l29 52h-76v111h139l42 73h-181v111z" />
<glyph unicode="&#x2264;" horiz-adv-x="588" d="M93 471l401 209v-134l-258 -134l258 -134v-135l-401 209v119zM50 111h488v-111h-488v111z" />
<glyph unicode="&#x2265;" horiz-adv-x="588" d="M496 352l-401 -209v135l258 134l-258 134v134l401 -209v-119zM539 0h-488v111h488v-111z" />
<glyph unicode="&#x25ca;" horiz-adv-x="620" d="M62 358l187 359h123l186 -359l-186 -358h-123zM431 358l-121 250l-121 -250l121 -249z" />
<glyph unicode="&#x25fc;" horiz-adv-x="517" d="M0 517h517v-517h-517v517z" />
<glyph unicode="&#xf8ff;" horiz-adv-x="790" d="M698 23q0 -8 -6 -15.5t-16 -7.5q-3 0 -7 1l-274 79l-273 -79q-4 -1 -7 -1q-10 0 -16.5 7t-6.5 16v609q0 17 17 22l276 80q6 2 10 2t11 -2l276 -80q16 -5 16 -22v-609zM373 685l-236 -69q3 -48 22.5 -90t51 -74t73 -52.5t89.5 -24.5v310zM418 375q47 4 89 24.5t73 52.5 t50.5 74t22.5 90l-235 69v-310zM136 52l237 69v209q-76 6 -138 44.5t-99 99.5v-422zM654 474q-38 -61 -99 -99.5t-137 -44.5v-209l236 -69v422z" />
<glyph horiz-adv-x="1300" d="M629 717v-717h-141l-263 473v-473h-133v717h140l264 -473v473h133zM762 111h466v-111h-466v111zM732 459q0 56 17.5 105t51 84.5t82.5 56t111 20.5t111 -20.5t83 -56t51 -84.5t17 -105t-17 -105t-51 -84.5t-82.5 -56t-111.5 -20.5q-62 0 -111 20.5t-82.5 56t-51 84.5 t-17.5 105zM865 459q0 -32 9 -60.5t25 -50t40 -34.5t55 -13t55 13t40.5 34.5t25 50t8.5 60.5t-8.5 60.5t-25 50t-40.5 34.5t-55 13t-55 -13t-40 -34.5t-25 -50t-9 -60.5z" />
<glyph horiz-adv-x="585" d="M293 725q65 0 114 -25t82 -72t50.5 -115.5t17.5 -154.5t-17.5 -154t-50.5 -115t-82.5 -72t-113.5 -25q-65 0 -114 25t-82.5 72t-50.5 115t-17 154t17 154.5t50.5 115.5t82.5 72t114 25zM293 606q-71 0 -104 -63.5t-33 -184.5t33 -184t104 -63t104 63.5t33 183.5 q0 121 -33 184.5t-104 63.5z" />
<glyph horiz-adv-x="585" d="M381 717v-717h-129v537l-137 -82v139l210 123h56z" />
<glyph horiz-adv-x="585" d="M63 51l256 331q33 41 44.5 70t11.5 60q0 44 -22 69t-66 25q-39 0 -63 -24t-30 -70l-119 23q3 41 20 75.5t45 60t66.5 40t83.5 14.5q51 0 91 -15.5t67 -43t41.5 -66t14.5 -83.5q0 -43 -14.5 -85t-47.5 -85l-175 -228h252v-119h-456v51z" />
<glyph horiz-adv-x="585" d="M179 215q11 -48 39 -76t77 -28q50 0 82 32t32 87q0 62 -32 94t-81 32q-17 0 -31.5 -3.5t-31.5 -11.5l-51 72l135 185h-228v119h411v-45l-169 -229q7 1 13 1.5t15 0.5q41 0 74.5 -15t56.5 -43.5t35.5 -67.5t12.5 -87q0 -55 -18.5 -99.5t-51.5 -75.5t-77 -48t-96 -17 q-50 0 -92 15.5t-73.5 43t-51 65.5t-23.5 83z" />
<glyph horiz-adv-x="585" d="M342 133h-308v66l302 518h135v-465h80v-119h-80v-133h-129v133zM342 252v273l-152 -273h152z" />
<glyph horiz-adv-x="585" d="M184 210q6 -30 17 -49t25.5 -30t31 -15.5t34.5 -4.5q52 0 79 32.5t27 94.5q0 60 -28.5 91.5t-83.5 31.5q-36 0 -69 -17.5t-58 -46.5l-81 16l40 404h368v-119h-263l-16 -149q20 12 46 19t55 7q56 0 97 -17.5t68.5 -48.5t40.5 -75t13 -96q0 -54 -16.5 -99.5t-47.5 -78 t-74.5 -50.5t-96.5 -18q-46 0 -85.5 13.5t-70.5 39.5t-50 61.5t-24 80.5z" />
<glyph horiz-adv-x="585" d="M305 459q49 0 91.5 -17t73.5 -47.5t49 -73.5t18 -96q0 -50 -18 -92.5t-50.5 -73.5t-76.5 -49t-95 -18t-94.5 17.5t-76 48.5t-51 74t-18.5 93q0 33 10 66.5t25 59.5l209 374h143l-155 -266h16zM297 340q-46 0 -78.5 -29.5t-32.5 -85.5q0 -27 9 -47.5t24 -35.5t35 -23 t43 -8q46 0 78.5 31t32.5 83q0 55 -32.5 85t-78.5 30z" />
<glyph horiz-adv-x="585" d="M508 664l-270 -664h-127l244 598h-281v119h434v-53z" />
<glyph horiz-adv-x="585" d="M293 725q46 0 84 -15.5t65 -42.5t42 -62.5t15 -75.5q0 -44 -17.5 -80.5t-50.5 -62.5q44 -25 69.5 -68t25.5 -104q0 -52 -19 -93.5t-51 -69.5t-74 -43.5t-89 -15.5t-89 15.5t-74.5 43.5t-51.5 69.5t-19 93.5q0 61 25.5 104t69.5 68q-33 26 -50 62.5t-17 80.5q0 40 15 75.5 t42 62.5t65 42.5t84 15.5zM293 317q-44 0 -74.5 -26.5t-30.5 -76.5t30.5 -76.5t74.5 -26.5t74 26.5t30 76.5t-30 76.5t-74 26.5zM293 616q-39 0 -62.5 -24.5t-23.5 -64.5q0 -41 23.5 -66t62.5 -25t62.5 25t23.5 66q0 40 -23.5 64.5t-62.5 24.5z" />
<glyph horiz-adv-x="585" d="M281 258q-49 0 -92 17t-73.5 47.5t-48.5 73.5t-18 96q0 50 18 92.5t50.5 73.5t76.5 49t95 18q50 0 94 -17.5t76.5 -48.5t50.5 -74t18 -93q0 -33 -9.5 -66.5t-24.5 -59.5l-209 -374h-144l156 266h-16zM289 377q46 0 78 29.5t32 85.5q0 26 -8.5 47t-24 36t-35.5 23t-42 8 q-46 0 -78.5 -31t-32.5 -83q0 -55 32.5 -85t78.5 -30z" />
<glyph horiz-adv-x="509" d="M239 688q-32 -27 -53 -53t-23 -62q33 -12 46 -33t13 -44q0 -36 -23.5 -58.5t-61.5 -22.5t-60.5 25.5t-22.5 61.5q0 37 12 68t33 58.5t49 51t62 45.5zM443 688q-32 -27 -52.5 -53t-22.5 -62q33 -12 46 -33t13 -44q0 -36 -23.5 -58.5t-61.5 -22.5t-60.5 25.5t-22.5 61.5 q0 37 12 68t33 58.5t49 51t62 45.5z" />
<glyph horiz-adv-x="509" d="M271 452q32 27 53 52.5t23 61.5q-33 12 -46 33.5t-13 44.5q0 36 23.5 58.5t61.5 22.5t60.5 -25.5t22.5 -61.5q0 -37 -12 -68t-33 -59t-49 -51.5t-62 -44.5zM67 452q32 27 52.5 52.5t22.5 61.5q-33 12 -46 33.5t-13 44.5q0 36 23.5 58.5t61.5 22.5t60.5 -25.5t22.5 -61.5 q0 -37 -12 -68t-33 -59t-49 -51.5t-62 -44.5z" />
<glyph horiz-adv-x="305" d="M239 688q-32 -27 -53 -53t-23 -62q33 -12 46 -33t13 -44q0 -36 -23.5 -58.5t-61.5 -22.5t-60.5 25.5t-22.5 61.5q0 37 12 68t33 58.5t49 51t62 45.5z" />
<glyph horiz-adv-x="305" d="M67 452q32 27 52.5 52.5t22.5 61.5q-33 12 -46 33.5t-13 44.5q0 36 23.5 58.5t61.5 22.5t60.5 -25.5t22.5 -61.5q0 -37 -12 -68t-33 -59t-49 -51.5t-62 -44.5z" />
<glyph horiz-adv-x="305" d="M67 -88q32 27 52.5 53t22.5 62q-33 12 -46 33t-13 44q0 36 23.5 58.5t61.5 22.5t60.5 -25.5t22.5 -61.5q0 -37 -12 -68t-33 -58.5t-49 -51t-62 -45.5z" />
<glyph horiz-adv-x="509" d="M271 -88q32 27 53 53t23 62q-33 12 -46 33t-13 44q0 36 23.5 58.5t61.5 22.5t60.5 -25.5t22.5 -61.5q0 -37 -12 -68t-33 -58.5t-49 -51t-62 -45.5zM67 -88q32 27 52.5 53t22.5 62q-33 12 -46 33t-13 44q0 36 23.5 58.5t61.5 22.5t60.5 -25.5t22.5 -61.5q0 -37 -12 -68 t-33 -58.5t-49 -51t-62 -45.5z" />
<glyph horiz-adv-x="676" d="M37 358l261 262l73 -75l-130 -132h389v-109h-389l130 -132l-73 -75z" />
<glyph horiz-adv-x="676" d="M369 97l-73 75l130 132h-389v109h389l-130 132l73 75l261 -262z" />
<glyph horiz-adv-x="665" d="M333 655l261 -261l-75 -72l-132 130v-391h-108v391l-133 -130l-74 72z" />
<glyph horiz-adv-x="665" d="M72 323l74 72l133 -130v390h108v-390l132 130l75 -72l-261 -262z" />
<glyph horiz-adv-x="664" d="M100 588h370v-109h-185l274 -273l-77 -77l-273 274v-185h-109v370z" />
<glyph horiz-adv-x="664" d="M564 218h-108v185l-274 -274l-77 77l275 273h-185v109h369v-370z" />
<glyph horiz-adv-x="664" d="M100 499h109v-186l273 275l77 -77l-274 -273h185v-109h-370v370z" />
<glyph horiz-adv-x="664" d="M564 129h-369v109h185l-275 273l77 77l274 -275v186h108v-370z" />
<glyph horiz-adv-x="800" d="M37 358l261 262l73 -75l-130 -132h513v-109h-513l130 -132l-73 -75z" />
<glyph horiz-adv-x="800" d="M503 97l-73 75l130 132h-513v109h513l-130 132l73 75l261 -262z" />
<glyph horiz-adv-x="665" d="M333 717l261 -261l-75 -73l-132 130v-513h-108v513l-133 -130l-74 73z" />
<glyph horiz-adv-x="665" d="M72 261l74 73l133 -130v513h108v-513l132 130l75 -73l-261 -261z" />
<glyph horiz-adv-x="750" d="M100 631h370v-109h-185l360 -359l-77 -77l-359 360v-185h-109v370z" />
<glyph horiz-adv-x="750" d="M650 261h-108v185l-360 -360l-77 77l361 359h-185v109h369v-370z" />
<glyph horiz-adv-x="750" d="M100 456h109v-186l359 361l77 -77l-360 -359h185v-109h-370v370z" />
<glyph horiz-adv-x="750" d="M650 86h-369v109h185l-361 359l77 77l360 -361v186h108v-370z" />
<glyph horiz-adv-x="833" d="M44 258q0 59 15 108.5t44.5 84t73.5 54t103 19.5q39 0 73 -17t51 -38v256h127v-725h-127v53q-5 -10 -16 -20.5t-27.5 -20t-37 -15t-43.5 -5.5q-58 0 -102.5 19.5t-74 54t-44.5 84t-15 108.5zM177 258q0 -77 35 -117.5t85 -40.5t84.5 40.5t34.5 117.5t-34.5 117.5 t-84.5 40.5t-85 -40.5t-35 -117.5zM609 452q32 27 52.5 52.5t22.5 61.5q-33 12 -46 33.5t-13 44.5q0 36 23.5 58.5t61.5 22.5t60.5 -25.5t22.5 -61.5q0 -37 -12 -68t-33 -59t-49 -51.5t-62 -44.5z" />
<glyph horiz-adv-x="527" d="M83 350q0 40 15 72.5t40.5 55t60 34.5t73.5 12q50 0 96 -22l97 51l50 -84l-74 -37q20 -36 21 -82q0 -41 -15 -72.5t-40.5 -53.5t-60.5 -34t-74 -12t-74 11q-25 -14 -25 -38q0 -38 48 -38h106q82 0 131.5 -38.5t49.5 -113.5q0 -48 -20.5 -82t-54 -55.5t-75.5 -31t-85 -9.5 q-49 0 -92 10.5t-74 32t-49 53.5t-18 74q0 32 10.5 58t31.5 44q-12 14 -19.5 35t-7.5 45q0 37 17.5 64t46.5 45q-17 20 -26.5 46.5t-9.5 59.5zM228 6q-16 0 -30.5 1t-28.5 3q-11 -17 -11 -47q0 -37 32.5 -55.5t82.5 -18.5q46 0 77 14.5t31 49.5q0 33 -23.5 43t-59.5 10h-70z M202 350q0 -32 20 -50.5t50 -18.5q31 0 51 18.5t20 50.5q0 33 -20 52.5t-51 19.5t-50.5 -19.5t-19.5 -52.5zM353 849q-32 -27 -53 -53t-23 -62q33 -12 46 -33t13 -44q0 -36 -23.5 -58.5t-61.5 -22.5t-60.5 25.5t-22.5 61.5q0 37 12 68t33 58.5t49 51t62 45.5z" />
<glyph horiz-adv-x="492" d="M207 725v-725h-127v725h127zM268 452q32 27 52.5 52.5t22.5 61.5q-33 12 -46 33.5t-13 44.5q0 36 23.5 58.5t61.5 22.5t60.5 -25.5t22.5 -61.5q0 -37 -12 -68t-33 -59t-49 -51.5t-62 -44.5z" />
<glyph horiz-adv-x="795" d="M404 516v-83q29 41 69 66t91 25q70 0 114 -39t44 -116v-369h-127v331q0 46 -20.5 65.5t-52.5 19.5q-24 0 -45 -14t-37.5 -40.5t-26 -65.5t-9.5 -90v-206h-127v516h127zM66 452q32 27 52.5 52.5t22.5 61.5q-33 12 -46 33.5t-13 44.5q0 36 23.5 58.5t61.5 22.5t60.5 -25.5 t22.5 -61.5q0 -37 -12 -68t-33 -59t-49 -51.5t-62 -44.5z" />
<glyph horiz-adv-x="623" d="M372 10q-22 -10 -43 -14t-41 -4q-88 0 -139 47t-51 143v226h-80v108h80v129l127 80v-209h136v-108h-136v-224q0 -48 17.5 -66t50.5 -18q13 0 24.5 2.5t24.5 10.5zM412 452q32 27 52.5 52.5t22.5 61.5q-33 12 -46 33.5t-13 44.5q0 36 23.5 58.5t61.5 22.5t60.5 -25.5 t22.5 -61.5q0 -37 -12 -68t-33 -59t-49 -51.5t-62 -44.5z" />
</font>
</defs>
</svg>
