<?xml version="1.0" standalone="no"?>
<!DOCTYPE svg PUBLIC "-//W3C//DTD SVG 1.1//EN" "http://www.w3.org/Graphics/SVG/1.1/DTD/svg11.dtd">
<svg xmlns="http://www.w3.org/2000/svg"><metadata>This SVG WebFont was generated by YouWorkForThem.
Copyright (c) Mark Simonson, 2005. All rights reserved.</metadata><defs><font horiz-adv-x="1171" id="ywftsvg"><font-face ascent="1618" bbox="-729 -688 2327 2210" cap-height="1366" descent="-430" font-family="" font-stretch="normal" font-weight="400" panose-1="2 0 5 6 3 0 0 2 0 4" underline-position="0" underline-thickness="0" unicode-range="U+000D-FB04" units-per-em="2048" x-height="989"/><missing-glyph d="M160 -184v1724h719v-1724h-719zM813 1479h-590v-1602h590v1602z" horiz-adv-x="1038"/><glyph d="M197 0v854h-164v135h164v76q0 152 77.5 236.5t208.5 84.5q94 0 150 -34l-39 -115q-39 23 -88 23q-76 0 -116 -50.5t-40 -144.5v-76h201v-135h-201v-854h-153zM776 0v854h-164v135h164v76q0 152 78 236.5t209 84.5q94 0 149 -34l-38 -117q-39 25 -89 25 q-76 0 -115.5 -50.5t-39.5 -144.5v-76h200v-135h-200v-854h-154zM1389 1149q-41 0 -72 29.5t-31 72.5t31 74t72 31q43 0 73.5 -31t30.5 -74t-30.5 -72.5t-73.5 -29.5zM1466 989v-1085q0 -145 -75.5 -225t-214.5 -80q-66 0 -111 14l20 129q25 -10 74 -10q154 0 154 172v1085 h153z" glyph-name="uniE004" horiz-adv-x="1622" unicode="ffj"/><glyph d="M197 0v854h-164v135h164v76q0 152 77.5 236.5t208.5 84.5q94 0 150 -34l-39 -117q-39 25 -88 25q-76 0 -116 -50.5t-40 -144.5v-76h201v-135h-201v-854h-153zM809 1149q-41 0 -71.5 29.5t-30.5 72.5t30.5 74t71.5 31q43 0 73.5 -31t30.5 -74t-30.5 -72.5t-73.5 -29.5z M887 989v-1085q0 -145 -76 -225t-215 -80q-66 0 -111 14l21 129q27 -10 74 -10q154 0 153 172v1085h154z" glyph-name="uniE005" horiz-adv-x="1042" unicode="fj"/><glyph d="M197 0v854h-164v135h164v76q0 152 77.5 236.5t208.5 84.5q94 0 150 -34l-39 -115q-39 23 -88 23q-76 0 -116 -50.5t-40 -144.5v-76h201v-135h-201v-854h-153zM776 0v854h-164v135h164v76q0 152 78 236.5t209 84.5q94 0 149 -34l-38 -115q-39 23 -89 23 q-76 0 -115.5 -50.5t-39.5 -144.5v-76h200v-135h-200v-854h-154z" glyph-name="uniFB00" horiz-adv-x="1159" unicode="ff"/><glyph d="M197 0v854h-164v135h164v76q0 152 77.5 236.5t208.5 84.5q94 0 150 -34l-39 -117q-39 25 -88 25q-76 0 -116 -50.5t-40 -144.5v-76h201v-135h-201v-854h-153zM809 1149q-41 0 -71.5 29.5t-30.5 72.5t30.5 74t71.5 31q43 0 73.5 -31t30.5 -74t-30.5 -72.5t-73.5 -29.5z M733 0v989h154v-989h-154z" glyph-name="uniFB01" horiz-adv-x="1042" unicode="fi"/><glyph d="M197 0v854h-164v135h164v76q0 152 77.5 236.5t208.5 84.5q94 0 150 -34l-39 -117q-39 25 -88 25q-76 0 -116 -50.5t-40 -144.5v-76h201v-135h-201v-854h-153zM733 0v1366h154v-1366h-154z" glyph-name="uniFB02" horiz-adv-x="1042" unicode="fl"/><glyph d="M197 0v854h-164v135h164v76q0 152 77.5 236.5t208.5 84.5q94 0 150 -34l-39 -115q-39 23 -88 23q-76 0 -116 -50.5t-40 -144.5v-76h201v-135h-201v-854h-153zM776 0v854h-164v135h164v76q0 152 78 236.5t209 84.5q94 0 149 -34l-38 -117q-39 25 -89 25 q-76 0 -115.5 -50.5t-39.5 -144.5v-76h200v-135h-200v-854h-154zM1389 1149q-41 0 -72 29.5t-31 72.5t31 74t72 31q43 0 73.5 -31t30.5 -74t-30.5 -72.5t-73.5 -29.5zM1313 0v989h153v-989h-153z" glyph-name="uniFB03" horiz-adv-x="1622" unicode="ffi"/><glyph d="M197 0v854h-164v135h164v76q0 152 77.5 236.5t208.5 84.5q94 0 150 -34l-39 -115q-39 23 -88 23q-76 0 -116 -50.5t-40 -144.5v-76h201v-135h-201v-854h-153zM776 0v854h-164v135h164v76q0 152 78 236.5t209 84.5q94 0 149 -34l-38 -117q-39 25 -89 25 q-76 0 -115.5 -50.5t-39.5 -144.5v-76h200v-135h-200v-854h-154zM1313 0v1366h153v-1366h-153z" glyph-name="uniFB04" horiz-adv-x="1622" unicode="ffl"/><glyph d="M197 0v854h-164v135h164v76q0 152 77.5 236.5t208.5 84.5q94 0 150 -34l-39 -117q-39 25 -88 25q-76 0 -116 -50.5t-40 -144.5v-76h201v-135h-201v-854h-153zM733 0v1366h154v-526q129 174 334 174q195 0 317.5 -142.5t122.5 -377.5q0 -238 -122 -378.5t-318 -140.5 q-207 0 -334 172v-147h-154zM887 268q41 -66 124 -110.5t171 -44.5q147 0 233 106.5t86 274.5t-86 275.5t-233 107.5q-88 0 -171 -46.5t-124 -113.5v-449z" glyph-name="f_b.liga" horiz-adv-x="1757" unicode="fb"/><glyph d="M197 0v854h-164v135h164v76q0 152 77.5 236.5t208.5 84.5q94 0 150 -34l-39 -117q-39 25 -88 25q-76 0 -116 -50.5t-40 -144.5v-76h201v-135h-201v-854h-153zM1403 0v651q0 123 -57.5 174.5t-165.5 51.5q-84 0 -165 -45.5t-128 -108.5v-723h-154v1366h154v-520 q57 68 153.5 118t200.5 50q315 0 315 -316v-698h-153z" glyph-name="f_h.liga" horiz-adv-x="1710" unicode="fh"/><glyph d="M197 0v854h-164v135h164v76q0 152 77.5 236.5t208.5 84.5q94 0 150 -34l-39 -117q-39 25 -88 25q-76 0 -116 -50.5t-40 -144.5v-76h201v-135h-201v-854h-153zM1407 0l-356 444l-164 -161v-283h-154v1366h154v-903l520 526h195l-439 -448l441 -541h-197z" glyph-name="f_k.liga" horiz-adv-x="1632" unicode="fk"/><glyph d="M160 -184v1724h719v-1724h-719zM813 1479h-590v-1602h590v1602z" glyph-name=".notdef" horiz-adv-x="1038"/><glyph glyph-name="glyph1" horiz-adv-x="0"/><glyph glyph-name="glyph2" horiz-adv-x="681"/><glyph glyph-name="glyph3" horiz-adv-x="0"/><glyph glyph-name="glyph3" horiz-adv-x="0"/><glyph glyph-name="space" horiz-adv-x="528" unicode=" "/><glyph d="M172 383l-33 983h193l-33 -983h-127zM123 92q0 47 32.5 80t80 33t80 -33t32.5 -80q0 -45 -33.5 -78.5t-79 -33.5t-79 33.5t-33.5 78.5z" glyph-name="exclam" horiz-adv-x="471" unicode="!"/><glyph d="M166 844q-55 420 -55 448q0 39 26.5 66.5t65.5 27.5t66.5 -27.5t27.5 -66.5l-55 -448h-76zM463 844q-55 420 -55 448q0 39 27.5 66.5t66.5 27.5t65.5 -27.5t26.5 -66.5l-55 -448h-76z" glyph-name="quotedbl" horiz-adv-x="702" unicode="&quot;"/><glyph d="M489 0l125 371h-227l-123 -371h-127l125 371h-217l35 108h219l135 408h-221l33 106h225l123 373h127l-123 -373h225l123 373h125l-125 -373h219l-30 -106h-224l-137 -408h227l-32 -108h-232l-123 -371h-125zM784 887h-225l-135 -408h225z" glyph-name="numbersign" horiz-adv-x="1208" unicode="#"/><glyph d="M1114 377q0 -156 -106.5 -268.5t-327.5 -128.5v-185h-125v182q-295 16 -469 216l102 129q150 -168 367 -191v498q-76 20 -126 36.5t-112.5 48t-99.5 68.5t-62.5 94.5t-25.5 131.5q0 158 120 262t306 116v187h125v-191q248 -20 403 -186l-102 -125q-115 129 -301 156v-445 q78 -23 128 -40t113.5 -51t101.5 -72.5t64.5 -101t26.5 -140.5zM305 1018q0 -80 64.5 -124t185.5 -79v418q-111 -6 -180.5 -65.5t-69.5 -149.5zM680 133q135 10 197.5 78t62.5 151q0 94 -66.5 144.5t-193.5 89.5v-463z" glyph-name="dollar" horiz-adv-x="1214" unicode="$"/><glyph d="M63 1047q0 145 92.5 242t235.5 97q145 0 238.5 -97t93.5 -242q0 -143 -93 -238.5t-238.5 -95.5t-237 95.5t-91.5 238.5zM262 0l873 1366h112l-874 -1366h-111zM600 1047q0 102 -58.5 168.5t-150.5 66.5q-90 0 -147.5 -66.5t-57.5 -168.5q0 -98 57.5 -165t147.5 -67 t149.5 67t59.5 165zM776 309q0 145 92.5 242.5t235.5 97.5q145 0 237.5 -97t92.5 -243q0 -143 -92.5 -238.5t-238 -95.5t-236.5 95.5t-91 238.5zM1313 309q0 102 -58.5 169t-150.5 67t-149.5 -66.5t-57.5 -169.5q0 -98 58.5 -164.5t148.5 -66.5t149.5 66.5t59.5 164.5z" glyph-name="percent" horiz-adv-x="1497" unicode="%"/><glyph d="M989 258q96 -98 266 -258h-213q-61 55 -149 143q-172 -168 -393 -168q-186 0 -306 99.5t-120 281.5q0 145 79.5 237.5t223.5 170.5q-106 176 -107 305q0 135 99.5 226t244.5 91q137 0 223.5 -70.5t86.5 -197.5q0 -74 -27 -132t-86 -106.5t-103 -75t-130 -71.5 q47 -66 155 -194q10 -12 70.5 -80t93.5 -103q96 147 145 312l134 -58q-91 -217 -187 -352zM430 1067q0 -92 82 -236q135 68 202.5 128.5t67.5 152.5q0 74 -45 114t-116 40q-80 0 -135.5 -56.5t-55.5 -142.5zM514 102q152 0 287 136q-135 141 -189 206q-113 135 -170 218 q-203 -125 -202 -295q0 -123 80.5 -194t193.5 -71z" glyph-name="ampersand" horiz-adv-x="1312" unicode="&amp;"/><glyph d="M166 844q-55 420 -55 448q0 39 26.5 66.5t65.5 27.5t66.5 -27.5t27.5 -66.5l-55 -448h-76z" glyph-name="quotesingle" horiz-adv-x="407" unicode="'"/><glyph d="M379 -408q-289 395 -289 906q0 508 289 905l92 -70q-109 -215 -161 -405.5t-52 -430t52 -431t161 -402.5z" glyph-name="parenleft" horiz-adv-x="507" unicode="("/><glyph d="M250 498q0 242 -53.5 432t-161.5 403l92 70q291 -395 291 -905q0 -512 -291 -906l-92 72q109 211 162 402.5t53 431.5z" glyph-name="parenright" horiz-adv-x="507" unicode=")"/><glyph d="M301 797l10 235l-196 -129l-45 82l209 107l-209 106l45 80l196 -127l-10 235h94l-12 -235l197 127l47 -80l-209 -106l209 -107l-47 -82l-197 129l12 -235h-94z" glyph-name="asterisk" horiz-adv-x="696" unicode="*"/><glyph d="M569 637v-436h-116v436h-394v106h394v424h116v-424h394v-106h-394z" glyph-name="plus" horiz-adv-x="1021" unicode="+"/><glyph d="M193 -260l-76 63q51 33 89 87.5t44 103.5q-8 -4 -29 -4q-43 0 -70.5 29.5t-27.5 74.5t31.5 78t76.5 33q53 0 91 -42t38 -114q0 -90 -46.5 -173t-120.5 -136z" glyph-name="comma" horiz-adv-x="471" unicode=","/><glyph d="M61 428v135h492v-135h-492z" glyph-name="hyphen" horiz-adv-x="614" unicode="-"/><glyph d="M123 92q0 47 32.5 80t80 33t80 -33t32.5 -80t-32.5 -79.5t-80 -32.5t-80 32.5t-32.5 79.5z" glyph-name="period" horiz-adv-x="471" unicode="."/><glyph d="M0 -41l485 1448h121l-485 -1448h-121z" glyph-name="slash" horiz-adv-x="606" unicode="/"/><glyph d="M104 682q0 131 30 252t90.5 224.5t164 165.5t238.5 62q133 0 237.5 -62t165 -165.5t90 -224.5t29.5 -252t-29.5 -252t-90 -225.5t-165 -167t-237.5 -62.5q-135 0 -238.5 62.5t-164 167t-90.5 225.5t-30 252zM975 682q0 147 -31 266t-112.5 203t-204.5 84t-205 -84 t-112.5 -203t-30.5 -266t30.5 -266t112.5 -204t205 -85t204.5 85t112.5 204t31 266z" glyph-name="zero" horiz-adv-x="1253" unicode="0"/><glyph d="M365 0v1141l-220 -232l-102 105l342 352h150v-1366h-170z" glyph-name="one" horiz-adv-x="694" unicode="1"/><glyph d="M111 0v135q213 168 330.5 267.5t227 211t154.5 198.5t45 173q0 123 -84 186.5t-200 63.5q-236 0 -371 -172l-104 108q78 102 203.5 158.5t271.5 56.5q186 0 322 -104t136 -297q0 -190 -163.5 -379.5t-499.5 -453.5h670v-152h-938z" glyph-name="two" horiz-adv-x="1204" unicode="2"/><glyph d="M59 201l101 106q61 -82 161.5 -131t219.5 -49q150 0 234.5 68.5t84.5 187.5q0 123 -91 182.5t-249 59.5q-121 0 -141 -2v155q23 -2 141 -2q139 0 228.5 56.5t89.5 168.5q0 109 -87 171.5t-219 62.5q-207 0 -360 -166l-94 107q174 211 467 210q203 0 333 -97t130 -267 q0 -135 -90.5 -216t-204.5 -101q113 -10 214 -98.5t101 -237.5q0 -174 -131 -284t-352 -110q-164 0 -291 64t-195 162z" glyph-name="three" horiz-adv-x="1140" unicode="3"/><glyph d="M715 0v346h-649v141l585 879h234v-870h192v-150h-192v-346h-170zM715 1208l-479 -712h479v712z" glyph-name="four" horiz-adv-x="1142" unicode="4"/><glyph d="M135 195l105 112q141 -180 376 -180q139 0 227.5 84t88.5 209q0 133 -87 214t-227 81q-184 0 -315 -129l-125 43v737h836v-152h-666v-475q123 123 320 123q180 0 307 -117.5t127 -318.5q0 -205 -137.5 -328t-348.5 -123q-315 1 -481 220z" glyph-name="five" horiz-adv-x="1208" unicode="5"/><glyph d="M104 680q0 193 57.5 348.5t185.5 256.5t312 101q236 0 379 -163l-86 -127q-119 139 -293 139q-127 0 -216 -80t-129 -197.5t-40 -259.5q0 -35 2 -53q51 82 159 147.5t229 65.5q195 0 320.5 -113.5t125.5 -322.5q0 -186 -131 -316.5t-348 -130.5q-137 0 -241.5 57.5 t-165 157t-90.5 223.5t-30 267zM938 416q0 143 -88 219t-227 76q-100 0 -192.5 -56.5t-149.5 -148.5q14 -152 98 -265.5t246 -113.5q147 0 230 89t83 200z" glyph-name="six" horiz-adv-x="1210" unicode="6"/><glyph d="M248 0l551 1214h-736v152h932v-117l-559 -1249h-188z" glyph-name="seven" horiz-adv-x="1054" unicode="7"/><glyph d="M106 346q0 129 93.5 223.5t232.5 135.5q-131 37 -217 119.5t-86 207.5q0 172 139.5 263t327.5 91t328.5 -91t140.5 -263q0 -125 -86 -208t-219 -119q139 -41 232 -135.5t93 -223.5q0 -168 -140 -269.5t-349 -101.5t-349.5 100.5t-140.5 270.5zM893 1010q0 102 -85 163.5 t-212 61.5q-129 0 -213 -61.5t-84 -163.5q0 -57 33 -103.5t86 -72t95 -39t83 -21.5q41 6 83 20.5t95 40t86 72t33 103.5zM913 365q0 82 -64.5 144t-131 88t-121.5 32q-55 -6 -121.5 -32t-132.5 -88.5t-66 -143.5q0 -106 93.5 -172t226.5 -66q131 0 224 66t93 172z" glyph-name="eight" horiz-adv-x="1189" unicode="8"/><glyph d="M172 141l86 127q119 -139 293 -139q131 0 221 82t127 198.5t37 254.5q0 37 -2 55q-51 -82 -157.5 -147.5t-227.5 -65.5q-195 0 -322 113.5t-127 322.5q0 184 131 315.5t347 131.5q139 0 243.5 -57.5t165 -158t90 -223.5t29.5 -268q0 -193 -57.5 -347.5t-185.5 -256 t-312 -101.5q-236 0 -379 164zM928 856q-12 152 -96 266.5t-246 114.5q-145 0 -229.5 -90t-84.5 -199q0 -143 88.5 -219t227.5 -76q100 0 193.5 55.5t146.5 147.5z" glyph-name="nine" horiz-adv-x="1210" unicode="9"/><glyph d="M123 891q0 47 32.5 80t80 33t80 -33t32.5 -80t-32.5 -80t-80 -33t-80 33t-32.5 80zM123 92q0 47 32.5 80t80 33t80 -33t32.5 -80t-32.5 -79.5t-80 -32.5t-80 32.5t-32.5 79.5z" glyph-name="colon" horiz-adv-x="471" unicode=":"/><glyph d="M235.5 778q-45.5 0 -79 34t-33.5 79q0 47 32.5 80t80 33t80 -33t32.5 -80q0 -45 -33.5 -79t-79 -34zM193 -260l-76 63q51 33 89 87.5t44 103.5q-8 -4 -29 -4q-43 0 -70.5 29.5t-27.5 74.5t31.5 78t76.5 33q53 0 91 -42t38 -114q0 -90 -46.5 -173t-120.5 -136z" glyph-name="semicolon" horiz-adv-x="471" unicode=";"/><glyph d="M59 631v108l904 449v-129l-773 -375l773 -373v-127z" glyph-name="less" horiz-adv-x="1021" unicode="&lt;"/><glyph d="M59 827v109h904v-109h-904zM59 432v107h904v-107h-904z" glyph-name="equal" horiz-adv-x="1021" unicode="="/><glyph d="M59 184v127l770 373l-770 375v129l904 -449v-108z" glyph-name="greater" horiz-adv-x="1021" unicode=">"/><glyph d="M336 545q0 63 33.5 119.5t65.5 83t97 73.5q59 41 88 64.5t58 66.5t29 92q0 82 -62.5 136.5t-179.5 54.5q-199 0 -326 -168l-102 111q162 209 444 208q182 0 292 -91t110 -226q0 -61 -18.5 -111.5t-58.5 -92.5t-68.5 -65.5t-84.5 -62.5q-59 -41 -85.5 -62.5t-54.5 -60.5 t-28 -82q0 -57 56 -100l-125 -53q-80 68 -80 166zM346 92q0 47 34 80t79 33t78.5 -33t33.5 -80t-33.5 -79.5t-78.5 -32.5t-79 32.5t-34 79.5z" glyph-name="question" horiz-adv-x="946" unicode="?"/><glyph d="M72 500q0 328 244.5 567.5t568.5 239.5q285 0 465 -187.5t180 -462.5q0 -227 -106.5 -355t-247.5 -128q-82 0 -132.5 48t-54.5 118l-2 12q-55 -78 -142 -128t-181 -50q-141 0 -227.5 92t-86.5 242q0 209 147.5 361.5t333.5 152.5q94 0 163 -45t100 -115l26 127h140 l-117 -555q-4 -25 -4 -43q0 -51 27.5 -78.5t68.5 -27.5q78 0 149.5 92t71.5 280q0 254 -160.5 417t-418.5 163q-295 0 -515.5 -222t-220.5 -511q0 -248 167 -414t421 -166q199 0 381 115l37 -53q-201 -129 -426 -129q-279 0 -464 185.5t-185 457.5zM1010 473l59 283 q-20 59 -74.5 105t-136.5 46q-150 0 -256 -119.5t-106 -271.5q0 -100 56 -163.5t153 -63.5q178 0 305 184z" glyph-name="at" horiz-adv-x="1603" unicode="@"/><glyph d="M1141 0l-121 303h-692l-121 -303h-189l549 1366h211l551 -1366h-188zM674 1214l-297 -759h592z" glyph-name="A" horiz-adv-x="1347" unicode="A"/><glyph d="M160 0v1366h608q176 0 279.5 -96t103.5 -252q0 -123 -69.5 -208t-170.5 -105q109 -16 188 -114.5t79 -221.5q0 -166 -105.5 -267.5t-290.5 -101.5h-622zM330 774h409q113 0 174.5 61.5t61.5 158t-62.5 158.5t-173.5 62h-409v-440zM330 152h418q119 0 186 63.5t67 171.5 q0 100 -66.5 168t-186.5 68h-418v-471z" glyph-name="B" horiz-adv-x="1288" unicode="B"/><glyph d="M801 -25q-295 0 -496 199t-201 508t201 508t496 199q334 0 524 -271l-143 -80q-59 88 -160.5 143.5t-220.5 55.5q-221 0 -370.5 -156.5t-149.5 -398.5t149.5 -398.5t370.5 -156.5q119 0 220 54.5t161 144.5l145 -80q-198 -271 -526 -271z" glyph-name="C" horiz-adv-x="1384" unicode="C"/><glyph d="M160 0v1366h467q313 0 506.5 -194.5t193.5 -489.5q0 -297 -193.5 -489.5t-506.5 -192.5h-467zM330 152h297q242 0 383 151.5t141 378.5q0 229 -139.5 380.5t-384.5 151.5h-297v-1062z" glyph-name="D" horiz-adv-x="1433" unicode="D"/><glyph d="M160 0v1366h895v-152h-725v-440h710v-151h-710v-471h725v-152h-895z" glyph-name="E" horiz-adv-x="1165" unicode="E"/><glyph d="M160 0v1366h895v-152h-725v-440h710v-151h-710v-623h-170z" glyph-name="F" horiz-adv-x="1126" unicode="F"/><glyph d="M104 682q0 313 203 510t500 197q324 0 530 -256l-135 -84q-66 86 -171 137t-224 51q-225 0 -375.5 -156.5t-150.5 -398.5t150.5 -399.5t375.5 -157.5q113 0 210 44t157 103v279h-469v151h638v-493q-211 -236 -536 -236q-297 0 -500 198t-203 511z" glyph-name="G" horiz-adv-x="1460" unicode="G"/><glyph d="M1128 0v627h-798v-627h-170v1366h170v-588h798v588h170v-1366h-170z" glyph-name="H" horiz-adv-x="1458" unicode="H"/><glyph d="M160 0v1366h170v-1366h-170z" glyph-name="I" horiz-adv-x="489" unicode="I"/><glyph d="M23 133l88 129q113 -135 258 -135q125 0 199.5 79t74.5 208v952h170v-954q0 -213 -121 -325t-313 -112q-221 0 -356 158z" glyph-name="J" horiz-adv-x="972" unicode="J"/><glyph d="M985 0l-518 614l-137 -155v-459h-170v1366h170v-707l604 707h213l-569 -649l618 -717h-211z" glyph-name="K" horiz-adv-x="1230" unicode="K"/><glyph d="M160 0v1366h170v-1214h635v-152h-805z" glyph-name="L" horiz-adv-x="1044" unicode="L"/><glyph d="M1327 0v1137l-465 -1137h-69l-463 1137v-1137h-170v1366h243l424 -1040l426 1040h244v-1366h-170z" glyph-name="M" horiz-adv-x="1656" unicode="M"/><glyph d="M1126 0l-796 1102v-1102h-170v1366h174l786 -1079v1079h170v-1366h-164z" glyph-name="N" horiz-adv-x="1449" unicode="N"/><glyph d="M104 682q0 305 188.5 506t489.5 201q299 0 488.5 -201t189.5 -506t-189.5 -506t-488.5 -201q-301 0 -489.5 201t-188.5 506zM1284 682q0 244 -138 399.5t-364 155.5q-227 0 -364 -155.5t-137 -399.5q0 -242 137 -398.5t364 -156.5q225 0 363.5 156.5t138.5 398.5z" glyph-name="O" horiz-adv-x="1566" unicode="O"/><glyph d="M160 0v1366h549q199 0 313.5 -119t114.5 -293t-116 -292.5t-312 -118.5h-379v-543h-170zM961 954.5q0 114.5 -76 187t-197 72.5h-358v-520h358q121 0 197 73t76 187.5z" glyph-name="P" horiz-adv-x="1202" unicode="P"/><glyph d="M1460 682q0 -307 -186 -504l129 -139l-119 -102l-131 141q-164 -102 -371 -103q-301 0 -489.5 201t-188.5 506t188.5 506t489.5 201q299 0 488.5 -201t189.5 -506zM782 127q141 0 260 70l-194 211l119 100l192 -207q125 152 125 381q0 244 -138 399.5t-364 155.5 q-227 0 -364 -155.5t-137 -399.5q0 -242 137 -398.5t364 -156.5z" glyph-name="Q" horiz-adv-x="1566" unicode="Q"/><glyph d="M950 0l-348 543h-272v-543h-170v1366h549q190 0 309 -112.5t119 -299.5q0 -176 -102.5 -280.5t-252.5 -116.5l369 -557h-201zM961 954.5q0 114.5 -76 187t-197 72.5h-358v-522h358q121 0 197 74t76 188.5z" glyph-name="R" horiz-adv-x="1245" unicode="R"/><glyph d="M78 193l100 129q174 -195 430 -195q166 0 244 70.5t78 164.5q0 47 -20.5 85t-47 61.5t-81 47.5t-90.5 34t-107 31q-90 25 -135.5 38t-120 45.5t-111.5 68.5t-66.5 96.5t-29.5 138.5q0 168 133 273t336 105q305 0 485 -190l-102 -125q-150 164 -395 164q-123 0 -202 -60.5 t-79 -156.5q0 -39 20.5 -72t44 -53.5t78 -41t86 -30.5t103.5 -28q88 -25 137 -39.5t124 -49t114.5 -74.5t70.5 -105.5t31 -147.5q0 -168 -124 -285t-380 -117q-331 1 -524 218z" glyph-name="S" horiz-adv-x="1200" unicode="S"/><glyph d="M498 0v1214h-432v152h1036v-152h-434v-1214h-170z" glyph-name="T" horiz-adv-x="1167" unicode="T"/><glyph d="M160 530v836h170v-831q0 -190 100 -299t286.5 -109t287 108.5t100.5 299.5v831h170v-834q0 -260 -142.5 -408.5t-415 -148.5t-414.5 148.5t-142 406.5z" glyph-name="U" horiz-adv-x="1433" unicode="U"/><glyph d="M567 0l-549 1366h195l461 -1180l461 1180h194l-551 -1366h-211z" glyph-name="V" horiz-adv-x="1347" unicode="V"/><glyph d="M1204 0l-301 1102l-301 -1102h-184l-389 1366h188l303 -1139l314 1139h141l313 -1139l301 1139h189l-389 -1366h-185z" glyph-name="W" horiz-adv-x="1808" unicode="W"/><glyph d="M1104 0l-436 582l-437 -582h-206l532 700l-502 666h207l406 -547l403 547h207l-500 -664l531 -702h-205z" glyph-name="X" horiz-adv-x="1335" unicode="X"/><glyph d="M557 0v578l-539 788h199l424 -635l424 635h199l-537 -788v-578h-170z" glyph-name="Y" horiz-adv-x="1282" unicode="Y"/><glyph d="M98 0v141l768 1073h-768v152h985v-141l-768 -1073h783v-152h-1000z" glyph-name="Z" horiz-adv-x="1198" unicode="Z"/><glyph d="M82 -389v1778h381v-113h-262v-1552h262v-113h-381z" glyph-name="bracketleft" horiz-adv-x="497" unicode="["/><glyph d="M0 1407h121l485 -1448h-121z" glyph-name="backslash" horiz-adv-x="606" unicode="\"/><glyph d="M35 -389v113h262v1552h-262v113h381v-1778h-381z" glyph-name="bracketright" horiz-adv-x="497" unicode="]"/><glyph d="M719 682l-277 571l-276 -571h-127l346 684h117l344 -684h-127z" glyph-name="asciicircum" horiz-adv-x="884" unicode="^"/><glyph d="M-6 -195v113h1167v-113h-1167z" glyph-name="underscore" horiz-adv-x="1155" unicode="_"/><glyph d="M346 1139l-346 295h160l303 -295h-117z" glyph-name="grave" horiz-adv-x="462" unicode="`"/><glyph d="M772 0v113q-125 -137 -328 -138q-137 0 -241.5 88.5t-104.5 239.5q0 156 103.5 241t242.5 85q211 0 328 -135v178q0 98 -69.5 153.5t-180.5 55.5q-174 0 -303 -138l-72 107q158 164 396 164q170 0 276.5 -82t106.5 -252v-680h-154zM772 209v186q-88 123 -272 123 q-106 0 -175 -60.5t-69 -156.5q0 -94 68.5 -154.5t175.5 -60.5q184 0 272 123z" glyph-name="a" horiz-adv-x="1079" unicode="a"/><glyph d="M154 0v1366h153v-526q129 174 334 174q195 0 317.5 -142.5t122.5 -377.5q0 -238 -121.5 -378.5t-318.5 -140.5q-207 0 -334 172v-147h-153zM307 268q41 -66 124 -110.5t171 -44.5q147 0 233.5 106.5t86.5 274.5t-86 275.5t-234 107.5q-88 0 -171 -46.5t-124 -113.5v-449z " glyph-name="b" horiz-adv-x="1177" unicode="b"/><glyph d="M96 495.5q0 223.5 137.5 371t356.5 147.5q229 0 362 -172l-102 -94q-94 129 -252 129q-156 0 -249 -106.5t-93 -274.5t93 -275.5t249 -107.5t252 129l102 -95q-133 -172 -362 -172q-219 0 -356.5 148.5t-137.5 372z" glyph-name="c" horiz-adv-x="1013" unicode="c"/><glyph d="M870 0v147q-127 -172 -333 -172q-197 0 -319 140.5t-122 378.5q0 236 122 378t319 142q205 0 333 -174v526h154v-1366h-154zM870 268v449q-43 68 -125.5 114t-171.5 46q-145 0 -231 -107.5t-86 -275.5t86 -274.5t231 -106.5q90 0 172 44.5t125 110.5z" glyph-name="d" horiz-adv-x="1177" unicode="d"/><glyph d="M96 496q0 217 139.5 367.5t348.5 150.5q219 0 347 -150.5t128 -380.5v-39h-801q10 -145 106.5 -243.5t249.5 -98.5q184 0 306 125l73 -100q-152 -152 -393 -152q-221 0 -362.5 145t-141.5 376zM582 887q-147 0 -232.5 -100.5t-91.5 -229.5h649q-2 127 -85.5 228.5 t-239.5 101.5z" glyph-name="e" horiz-adv-x="1153" unicode="e"/><glyph d="M197 0v854h-164v135h164v76q0 152 77.5 236.5t208.5 84.5q94 0 150 -34l-39 -115q-39 23 -88 23q-76 0 -116 -50.5t-40 -144.5v-76h201v-135h-201v-854h-153z" glyph-name="f" horiz-adv-x="579" unicode="f"/><glyph d="M152 -254l77 115q113 -135 322 -135q137 0 227 72.5t90 224.5v141q-55 -78 -143 -127t-188 -49q-197 0 -319 138t-122 373.5t122 375t319 139.5q203 0 331 -174v149h154v-960q0 -227 -133 -328.5t-338 -101.5q-131 0 -223 31.5t-176 115.5zM868 285v432 q-41 68 -122.5 114t-172.5 46q-147 0 -232 -104.5t-85 -272.5q0 -166 86 -271.5t231 -105.5q88 0 171 47t124 115z" glyph-name="g" horiz-adv-x="1175" unicode="g"/><glyph d="M823 0v651q0 123 -57 174.5t-166 51.5q-84 0 -165 -45.5t-128 -108.5v-723h-153v1366h153v-520q57 68 153.5 118t201.5 50q315 0 315 -316v-698h-154z" glyph-name="h" horiz-adv-x="1130" unicode="h"/><glyph d="M229 1149q-41 0 -71.5 29.5t-30.5 72.5t30.5 74t71.5 31q43 0 74 -31t31 -74t-31 -72.5t-74 -29.5zM154 0v989h153v-989h-153z" glyph-name="i" horiz-adv-x="460" unicode="i"/><glyph d="M229 1149q-41 0 -71.5 29.5t-30.5 72.5t30.5 74t71.5 31q43 0 74 -31t31 -74t-31 -72.5t-74 -29.5zM307 989v-1085q0 -145 -75.5 -225t-215.5 -80q-66 0 -110 14l20 129q27 -10 74 -10q154 0 154 172v1085h153z" glyph-name="j" horiz-adv-x="460" unicode="j"/><glyph d="M827 0l-356 444l-164 -161v-283h-153v1366h153v-903l520 526h195l-438 -448l440 -541h-197z" glyph-name="k" horiz-adv-x="1052" unicode="k"/><glyph d="M154 0v1366h153v-1366h-153z" glyph-name="l" horiz-adv-x="460" unicode="l"/><glyph d="M1348 0v672q0 205 -183 205q-74 0 -147.5 -45.5t-114.5 -106.5v-725h-153v672q0 205 -183 205q-72 0 -144.5 -45.5t-115.5 -108.5v-723h-153v989h153v-143q37 57 129 112.5t191 55.5q109 0 176 -51.5t90 -133.5q45 74 137 129.5t195 55.5q276 0 276 -299v-715h-153z" glyph-name="m" horiz-adv-x="1654" unicode="m"/><glyph d="M821 0v647q0 125 -57 177.5t-164 52.5q-86 0 -167 -45.5t-126 -108.5v-723h-153v989h153v-143q57 68 153.5 118t198.5 50q315 0 316 -320v-694h-154z" glyph-name="n" horiz-adv-x="1128" unicode="n"/><glyph d="M586 -25q-221 0 -355.5 149.5t-134.5 371t134.5 370t355.5 148.5t355 -148.5t134 -370t-134 -371t-355 -149.5zM585.5 113q151.5 0 239.5 111.5t88 271t-88 270.5t-239.5 111t-240.5 -112t-89 -269q0 -160 89 -271.5t240.5 -111.5z" glyph-name="o" unicode="o"/><glyph d="M307 -377h-153v1366h153v-147q55 78 143.5 125t190.5 47q197 0 318.5 -140.5t121.5 -378t-121.5 -379t-318.5 -141.5q-209 0 -334 175v-527zM920 496q0 168 -86 274.5t-232 106.5q-88 0 -171 -46.5t-124 -111.5v-447q41 -68 124 -113.5t171 -45.5q145 0 231.5 107.5 t86.5 275.5z" glyph-name="p" horiz-adv-x="1175" unicode="p"/><glyph d="M1022 -377h-154v527q-125 -174 -331 -175q-197 0 -319 141.5t-122 379t122 378t319 140.5q102 0 189 -47t142 -125v147h154v-1366zM868 272v447q-41 68 -122.5 113t-172.5 45q-145 0 -231 -106.5t-86 -274.5t86 -275.5t231 -107.5q90 0 172 45.5t123 113.5z" glyph-name="q" horiz-adv-x="1175" unicode="q"/><glyph d="M154 0v989h153v-160q137 180 330 181v-158q-27 6 -62 6q-70 0 -151.5 -49t-116.5 -109v-700h-153z" glyph-name="r" horiz-adv-x="675" unicode="r"/><glyph d="M68 131l79 111q51 -59 140.5 -100.5t185.5 -41.5q111 0 172.5 45t61.5 119q0 39 -19.5 67.5t-60.5 49t-77 33t-97 26.5q-68 16 -104 25.5t-93 33t-86 51.5t-52.5 74t-23.5 105q0 121 99.5 203t269.5 82q223 0 366 -144l-71 -106q-104 125 -295 125q-100 0 -159.5 -41 t-59.5 -109q0 -66 60.5 -97.5t180.5 -59.5q68 -14 107 -25.5t96 -36t89 -54.5t55.5 -79t23.5 -113q0 -131 -102.5 -215t-286.5 -84q-252 0 -399 156z" glyph-name="s" horiz-adv-x="952" unicode="s"/><glyph d="M403 -25q-109 0 -164 59.5t-55 172.5v647h-164v135h164v271h154v-271h201v-135h-201v-614q0 -57 25.5 -92t74.5 -35q68 0 105 41l45 -115q-68 -64 -185 -64z" glyph-name="t" horiz-adv-x="602" unicode="t"/><glyph d="M821 0v139q-61 -70 -154.5 -117t-197.5 -47q-315 0 -315 316v698h153v-651q0 -123 56.5 -174t164.5 -51q86 0 167 43t126 106v727h154v-989h-154z" glyph-name="u" horiz-adv-x="1128" unicode="u"/><glyph d="M418 0l-412 989h166l330 -811l327 811h168l-411 -989h-168z" glyph-name="v" horiz-adv-x="1003" unicode="v"/><glyph d="M1010 0l-258 795l-258 -795h-154l-315 989h159l242 -788l260 788h131l260 -788l242 788h160l-316 -989h-153z" glyph-name="w" horiz-adv-x="1503" unicode="w"/><glyph d="M795 0l-297 406l-297 -406h-176l378 508l-358 481h178l275 -377l274 377h178l-358 -481l381 -508h-178z" glyph-name="x" horiz-adv-x="995" unicode="x"/><glyph d="M123 -248q37 -16 84 -16q53 0 88 22.5t59 81.5l66 150l-414 999h166l330 -811l327 811h168l-495 -1190q-82 -197 -291 -200q-63 0 -113 14z" glyph-name="y" horiz-adv-x="1003" unicode="y"/><glyph d="M106 0v119l545 735h-545v135h746v-117l-549 -739h557v-133h-754z" glyph-name="z" horiz-adv-x="966" unicode="z"/><glyph d="M373 -389q-102 0 -179 76.5t-77 197.5v422q0 61 -28 101.5t-79 40.5v102q51 0 79 40t28 101v420q0 123 76.5 200t179.5 77h125v-113h-125q-55 0 -95 -46t-40 -118v-432q0 -139 -95 -180q94 -41 95 -181v-432q0 -70 39.5 -116.5t95.5 -46.5h125v-113h-125z" glyph-name="braceleft" horiz-adv-x="532" unicode="{"/><glyph d="M160 -41v1448h112v-1448h-112z" glyph-name="bar" horiz-adv-x="432" unicode="|"/><glyph d="M35 -276h125q55 0 95 47t40 116v432q0 139 94 181q-94 41 -94 180v432q0 72 -40 118t-95 46h-125v113h125q102 0 179 -77t77 -200v-420q0 -61 27.5 -101t78.5 -40v-102q-51 0 -78.5 -40t-27.5 -102v-422q0 -121 -77 -197.5t-179 -76.5h-125v113z" glyph-name="braceright" horiz-adv-x="532" unicode="}"/><glyph d="M973 1352q-10 -104 -25.5 -182t-46.5 -152t-84 -113t-127 -39q-51 0 -89 18.5t-64.5 60.5t-39 68.5t-32.5 84.5q-20 55 -31.5 80.5t-37 51t-58.5 25.5q-129 0 -168 -391l-115 15q10 102 26.5 181t47.5 152.5t84 112.5t125 39q51 0 90 -18.5t65.5 -59.5t39 -69.5 t32.5 -83.5q18 -53 30.5 -82t37 -53.5t57.5 -24.5q133 0 168 393z" glyph-name="asciitilde" horiz-adv-x="1030" unicode="~"/><glyph glyph-name="uni00A0" horiz-adv-x="528" unicode=" "/><glyph d="M235.5 1010q45.5 0 79 -34t33.5 -79t-32.5 -79t-80 -34t-80 34t-32.5 79t33.5 79t79 34zM172 606h127l33 -983h-191z" glyph-name="exclamdown" horiz-adv-x="471" unicode="¡"/><glyph d="M637 115q131 16 213 127l102 -95q-115 -154 -315 -170v-182h-121v185q-188 27 -304 169t-116 347q0 203 116 345t304 169v147h121v-145q201 -16 315 -170l-102 -94q-80 111 -213 126v-759zM256 495.5q0 -143.5 69.5 -244.5t190.5 -128v743q-121 -27 -190.5 -127 t-69.5 -243.5z" glyph-name="cent" horiz-adv-x="1013" unicode="¢"/><glyph d="M967 207l73 -137q-100 -96 -276 -97q-98 0 -201 50q-94 45 -166 45q-86 0 -241 -82l-62 127q131 59 202 140t71 173q0 61 -31 123h-297v110h217l-14 17q-47 55 -71 88t-48.5 93.5t-24.5 125.5q0 168 135.5 285.5t323.5 117.5q139 0 247.5 -60t166.5 -169l-137 -82 q-29 70 -99.5 119t-161.5 49q-121 0 -206.5 -71.5t-85.5 -190.5q0 -55 20.5 -107.5t39.5 -80t60 -76.5q4 -4 45 -58h308v-110h-248q12 -39 12 -88q0 -160 -156 -271q51 18 107 19q68 0 162 -45q82 -39 141 -39q63 0 116.5 25.5t78.5 56.5z" glyph-name="sterling" horiz-adv-x="1060" unicode="£"/><glyph d="M1102 682q0 -172 -94 -301l157 -158l-94 -92l-158 154q-123 -94 -301 -95q-180 0 -303 97l-155 -156l-97 92l158 158q-92 131 -92 301q0 176 94 301l-162 162l97 94l159 -162q127 94 301 94q172 0 301 -92l158 158l94 -94l-159 -160q96 -129 96 -301zM612.5 330 q153.5 0 242.5 103.5t89 248.5t-89 246.5t-242.5 101.5t-242.5 -102.5t-89 -245.5q0 -145 89 -248.5t242.5 -103.5z" glyph-name="currency" horiz-adv-x="1224" unicode="¤"/><glyph d="M1264 1366l-467 -682h442v-106h-512v-220h512v-108h-512v-250h-170v250h-512v108h512v220h-512v106h440l-467 682h199l424 -635l424 635h199z" glyph-name="yen" horiz-adv-x="1282" unicode="¥"/><glyph d="M160 760v647h112v-647h-112zM160 -41v647h112v-647h-112z" glyph-name="brokenbar" horiz-adv-x="432" unicode="¦"/><glyph d="M668 383q188 -72 188 -248q0 -141 -106.5 -221t-282.5 -80q-233 0 -397 160l77 100q123 -147 320 -147q109 0 174.5 47t65.5 131q0 41 -19.5 70.5t-63.5 51t-78 33t-102 27.5q-70 18 -102.5 27.5t-89.5 34t-85 51t-50.5 72t-22.5 102.5q0 102 66.5 168.5t169.5 93.5 q-236 74 -236 252q0 119 99.5 198.5t269.5 79.5q240 0 364 -145l-69 -92q-102 123 -291 123q-98 0 -160.5 -45t-62.5 -119q0 -29 14 -53.5t32.5 -39t58.5 -28.5t64.5 -20t78.5 -19q68 -16 105.5 -26.5t94 -35t87 -53t54 -76.5t23.5 -112q0 -178 -188 -262zM473 813 q-127 -33 -178 -82t-51 -121q0 -53 45 -91t85 -51t138 -38q14 -4 23 -6q170 74 170 201q0 80 -63 120.5t-169 67.5z" glyph-name="section" horiz-adv-x="958" unicode="§"/><glyph d="M211 1159q-39 0 -66.5 29t-27.5 67.5t27.5 66.5t66.5 28t66.5 -28t27.5 -67q0 -41 -27.5 -68.5t-66.5 -27.5zM635 1159q-41 0 -68.5 29t-27.5 67.5t28.5 66.5t67.5 28t66.5 -28t27.5 -66.5t-27.5 -67.5t-66.5 -29z" glyph-name="dieresis" horiz-adv-x="845" unicode="¨"/><glyph d="M797 -25q-293 0 -500 207t-207 500t207 500t500 207t499.5 -207t206.5 -500t-206.5 -500t-499.5 -207zM796.5 1325q-266.5 0 -454.5 -188.5t-188 -454.5t188 -454.5t454.5 -188.5t455 188.5t188.5 454.5t-188.5 454.5t-455 188.5zM1102 381q-117 -135 -301 -135 q-178 0 -302 126t-124 312t124 311t302 125q184 0 299 -135l-51 -49q-39 53 -108 85t-140 32q-143 0 -246.5 -103.5t-103.5 -265.5q0 -158 104 -264.5t246 -106.5q74 0 140.5 33t107.5 86z" glyph-name="copyright" horiz-adv-x="1593" unicode="©"/><glyph d="M532 668v71q-82 -88 -219 -88q-90 0 -159.5 57.5t-69.5 155.5q0 100 68.5 155.5t160.5 55.5q137 0 219 -86v113q0 61 -47 97t-114 36q-121 0 -203 -94l-51 76q109 111 268 110q117 0 190.5 -55t73.5 -172v-432h-117zM532 807v115q-57 78 -174 77q-68 0 -111.5 -37.5 t-43.5 -97.5q0 -61 44 -98t111 -37q117 0 174 78z" glyph-name="ordfeminine" horiz-adv-x="774" unicode="ª"/><glyph d="M389 129l-328 369l328 362h154l-328 -362l328 -369h-154zM684 129l-328 369l328 362h154l-328 -362l328 -369h-154z" glyph-name="guillemotleft" horiz-adv-x="899" unicode="«"/><glyph d="M963 432h-113v395h-791v109h904v-504z" glyph-name="logicalnot" horiz-adv-x="1032" unicode="¬"/><glyph d="M61 428v135h492v-135h-492z" glyph-name="uni00AD" horiz-adv-x="614" unicode="­"/><glyph d="M506 518q-180 0 -307 127t-127 307.5t127 307t307 126.5q182 0 308 -125.5t126 -308.5q0 -180 -127 -307t-307 -127zM506 1327q-158 0 -267.5 -109.5t-109.5 -265t110.5 -266.5t266.5 -111t265.5 111t109.5 266.5t-109.5 265t-265.5 109.5zM625 702l-129 197h-90v-197 h-66v498h203q66 0 111.5 -42t45.5 -109q0 -72 -46 -110t-81 -38l134 -199h-82zM543 1143h-137v-185h137q39 0 64.5 26t25.5 65q0 41 -25.5 67.5t-64.5 26.5z" glyph-name="registered" horiz-adv-x="1011" unicode="®"/><glyph d="M57 1171v99h629v-99h-629z" glyph-name="macron" horiz-adv-x="743" unicode="¯"/><glyph d="M295 887q-102 0 -175 72.5t-73 177.5q0 102 73 175.5t175 73.5q104 0 178 -73.5t74 -175.5q0 -104 -74 -177t-178 -73zM295 1288q-61 0 -104.5 -45t-43.5 -106q0 -63 43 -107.5t105 -44.5q63 0 108.5 44t45.5 108q0 61 -45.5 106t-108.5 45z" glyph-name="degree" horiz-adv-x="593" unicode="°"/><glyph d="M569 664v-439h-116v439h-394v106h394v424h116v-424h394v-106h-394zM59 0v106h904v-106h-904z" glyph-name="plusminus" horiz-adv-x="1021" unicode="±"/><glyph d="M102 862v92q254 180 361.5 288t107.5 202q0 74 -51 111.5t-123 37.5q-150 0 -229 -106l-68 78q102 129 301 129q123 0 208 -62.5t85 -179.5q0 -115 -102.5 -228.5t-308.5 -260.5h415v-101h-596z" glyph-name="uni00B2" horiz-adv-x="794" unicode="²"/><glyph d="M393 848q-211 0 -307 133l66 78q90 -111 237 -111q88 0 139.5 39t51.5 105q0 141 -213 141q-70 0 -82 -2v102q14 -2 80 -2q201 0 200 131q0 61 -52 96t-130 35q-131 0 -223 -100l-64 74q113 127 297 127q131 0 213 -59.5t82 -159.5q0 -82 -55 -130.5t-127 -60.5 q70 -6 133 -57t63 -142q0 -106 -84 -171.5t-225 -65.5z" glyph-name="uni00B3" horiz-adv-x="794" unicode="³"/><glyph d="M117 1139h-117l303 295h160z" glyph-name="acute" horiz-adv-x="462" unicode="´"/><glyph d="M307 -377h-153v1366h153v-651q0 -229 225 -229q84 0 164 45t125 108v727h154v-758q0 -119 96 -118q23 0 39 4l12 -133q-45 -8 -82 -9q-180 0 -213 177q-55 -76 -139 -126.5t-174 -50.5q-154 0 -207 99v-451z" glyph-name="uni00B5" horiz-adv-x="1157" unicode="µ"/><glyph d="M682 -205v1479h-182v-1479h-92v867q-145 0 -249 103t-104 248.5t103.5 249t249.5 103.5h366v-1571h-92z" glyph-name="paragraph" horiz-adv-x="919" unicode="¶"/><glyph d="M235.5 389q-45.5 0 -79 33t-33.5 78t32.5 78.5t80 33.5t80 -33.5t32.5 -78.5t-33.5 -78t-79 -33z" glyph-name="periodcentered" horiz-adv-x="471" unicode="·"/><glyph d="M0 -330l39 78q72 -59 164 -59q53 0 89 23.5t36 66.5q0 68 -76 67q-47 0 -78 -34l-68 38l64 173h92l-53 -136q33 23 76 23q59 0 97 -37t38 -96q0 -76 -61.5 -122t-151.5 -46q-129 0 -207 61z" glyph-name="cedilla" horiz-adv-x="419" unicode="¸"/><glyph d="M236 862v660l-136 -142l-71 76l221 225h108v-819h-122z" glyph-name="uni00B9" horiz-adv-x="481" unicode="¹"/><glyph d="M82 989.5q0 143.5 91 240.5t241 97q152 0 243 -97t91 -240.5t-91.5 -241t-242.5 -97.5q-150 0 -241 97.5t-91 241zM627 989q0 102 -57.5 169t-155.5 67q-96 0 -152.5 -66.5t-56.5 -169.5q0 -104 56 -171.5t153 -67.5q98 0 155.5 67.5t57.5 171.5z" glyph-name="ordmasculine" horiz-adv-x="829" unicode="º"/><glyph d="M215 129h-154l328 369l-328 362h154l328 -362zM510 129h-154l328 369l-328 362h154l328 -362z" glyph-name="guillemotright" horiz-adv-x="899" unicode="»"/><glyph d="M236 547v659l-136 -141l-71 76l221 225h108v-819h-122zM313 0h-112l872 1366h115zM1335 205v-205h-121v205h-401v90l352 524h170v-514h119v-100h-119zM1214 711l-278 -406h278v406z" glyph-name="onequarter" horiz-adv-x="1527" unicode="¼"/><glyph d="M236 547v659l-136 -141l-71 76l221 225h108v-819h-122zM313 0h-112l872 1366h115zM938 0v92q254 180 361.5 287.5t107.5 202.5q0 74 -51 111.5t-123 37.5q-150 0 -229 -106l-68 77q100 129 301 129q123 0 208 -62t85 -179q0 -115 -102.5 -228.5t-309.5 -261.5h416v-100 h-596z" glyph-name="onehalf" horiz-adv-x="1630" unicode="½"/><glyph d="M393 532q-211 0 -307 134l66 77q90 -111 237 -110q88 0 139.5 39t51.5 104q0 141 -213 142q-70 0 -82 -3v103q14 -2 80 -2q201 0 200 131q0 61 -52 96t-130 35q-131 0 -223 -100l-64 73q113 127 297 127q131 0 213 -59t82 -160q0 -82 -55 -130t-127 -60q70 -6 133 -57.5 t63 -141.5q0 -106 -84 -172t-225 -66zM555 0h-113l873 1366h115zM1577 205v-205h-121v205h-401v90l352 524h170v-514h119v-100h-119zM1456 711l-278 -406h278v406z" glyph-name="threequarters" horiz-adv-x="1769" unicode="¾"/><glyph d="M600 895q0 -45 -34 -78t-79 -33t-78.5 33t-33.5 78q0 47 33.5 81t78.5 34t79 -34t34 -81zM608 438q0 -49 -15 -89t-49 -75.5t-58.5 -55t-73.5 -54.5q-57 -41 -87 -64.5t-57.5 -67.5t-27.5 -93q0 -80 62.5 -134.5t176.5 -54.5q203 0 328 166l100 -109q-160 -209 -442 -208 q-182 0 -292 91t-110 226q0 80 39 146.5t79 100.5t112 83q57 39 85 62.5t54.5 62.5t26.5 82q0 59 -53 98l122 55q80 -72 80 -168z" glyph-name="questiondown" horiz-adv-x="806" unicode="¿"/><glyph d="M614 1481l-346 295h160l303 -295h-117zM1141 0l-121 303h-692l-121 -303h-189l549 1366h211l551 -1366h-188zM674 1214l-297 -759h592z" glyph-name="Agrave" horiz-adv-x="1347" unicode="À"/><glyph d="M727 1481h-117l303 295h160zM1141 0l-121 303h-692l-121 -303h-189l549 1366h211l551 -1366h-188zM674 1214l-297 -759h592z" glyph-name="Aacute" horiz-adv-x="1347" unicode="Á"/><glyph d="M844 1481l-170 217l-164 -217h-104l194 295h148l200 -295h-104zM1141 0l-121 303h-692l-121 -303h-189l549 1366h211l551 -1366h-188zM674 1214l-297 -759h592z" glyph-name="Acircumflex" horiz-adv-x="1347" unicode="Â"/><glyph d="M641 1585q-51 80 -96 80q-43 0 -71 -44t-28 -132h-92q0 123 52.5 198.5t146.5 75.5q39 0 70.5 -19.5t45 -35.5t38.5 -53q20 -31 29 -42t28.5 -24.5t40.5 -13.5q43 0 70.5 44t27.5 132h92q0 -123 -52 -198.5t-146 -75.5q-39 0 -71 18t-46 36.5t-39 53.5zM1141 0l-121 303 h-692l-121 -303h-189l549 1366h211l551 -1366h-188zM674 1214l-297 -759h592z" glyph-name="Atilde" horiz-adv-x="1347" unicode="Ã"/><glyph d="M463 1501q-39 0 -66.5 29t-27.5 67.5t27.5 66.5t66.5 28t66.5 -28t27.5 -67q0 -41 -27.5 -68.5t-66.5 -27.5zM887 1501q-39 0 -67.5 27.5t-28.5 68.5q0 39 28.5 67t67.5 28t66.5 -28t27.5 -66.5t-27.5 -67.5t-66.5 -29zM1141 0l-121 303h-692l-121 -303h-189l549 1366 h211l551 -1366h-188zM674 1214l-297 -759h592z" glyph-name="Adieresis" horiz-adv-x="1347" unicode="Ä"/><glyph d="M473 1655q0 84 59.5 143.5t141.5 59.5t141 -59.5t59 -143.5q0 -82 -58 -141.5t-142 -59.5t-142.5 59.5t-58.5 141.5zM793 1655q0 51 -34 86t-85 35q-49 0 -84 -35t-35 -86q0 -49 35 -85t84 -36t84 36t35 85zM1141 0l-121 303h-692l-121 -303h-189l549 1366h211l551 -1366 h-188zM674 1214l-297 -759h592z" glyph-name="Aring" horiz-adv-x="1347" unicode="Å"/><glyph d="M934 0v303h-545l-186 -303h-189l852 1366h963v-152h-725v-440h711v-151h-711v-471h725v-152h-895zM934 1214l-461 -759h461v759z" glyph-name="AE" horiz-adv-x="1939" unicode="Æ"/><glyph d="M1327 246q-190 -256 -496 -271l-34 -88q33 23 75 23q59 0 97.5 -37t38.5 -96q0 -76 -61.5 -122t-151.5 -46q-131 0 -207 61l39 78q72 -59 164 -59q53 0 88.5 23.5t35.5 66.5q0 68 -75 67q-47 0 -78 -34l-68 38l47 127q-274 23 -455.5 217.5t-181.5 487.5q0 309 201 508 t496 199q334 0 524 -271l-143 -80q-59 88 -160.5 143.5t-220.5 55.5q-221 0 -370.5 -156.5t-149.5 -398.5t149.5 -398.5t370.5 -156.5q119 0 220 54.5t161 144.5z" glyph-name="Ccedilla" horiz-adv-x="1384" unicode="Ç"/><glyph d="M559 1481l-346 295h160l303 -295h-117zM160 0v1366h895v-152h-725v-440h710v-151h-710v-471h725v-152h-895z" glyph-name="Egrave" horiz-adv-x="1165" unicode="È"/><glyph d="M672 1481h-117l303 295h160zM160 0v1366h895v-152h-725v-440h710v-151h-710v-471h725v-152h-895z" glyph-name="Eacute" horiz-adv-x="1165" unicode="É"/><glyph d="M788 1481l-170 217l-163 -217h-105l195 295h147l201 -295h-105zM160 0v1366h895v-152h-725v-440h710v-151h-710v-471h725v-152h-895z" glyph-name="Ecircumflex" horiz-adv-x="1165" unicode="Ê"/><glyph d="M407.5 1501q-38.5 0 -66.5 29t-28 67.5t28 66.5t66.5 28t66.5 -28t28 -67q0 -41 -28 -68.5t-66.5 -27.5zM831 1501q-41 0 -68.5 27.5t-27.5 68.5q0 39 29 67t67.5 28t66.5 -28t28 -66.5t-28 -67.5t-67 -29zM160 0v1366h895v-152h-725v-440h710v-151h-710v-471h725v-152 h-895z" glyph-name="Edieresis" horiz-adv-x="1165" unicode="Ë"/><glyph d="M186 1481l-346 295h160l303 -295h-117zM160 0v1366h170v-1366h-170z" glyph-name="Igrave" horiz-adv-x="489" unicode="Ì"/><glyph d="M299 1481h-117l303 295h160zM160 0v1366h170v-1366h-170z" glyph-name="Iacute" horiz-adv-x="489" unicode="Í"/><glyph d="M416 1481l-170 217l-164 -217h-105l195 295h147l201 -295h-104zM160 0v1366h170v-1366h-170z" glyph-name="Icircumflex" horiz-adv-x="489" unicode="Î"/><glyph d="M33 1501q-39 0 -66.5 29t-27.5 67.5t27.5 66.5t66.5 28t66.5 -28t27.5 -67q0 -41 -27.5 -68.5t-66.5 -27.5zM457 1501q-39 0 -68 27.5t-29 68.5q0 39 29 67t68 28t66.5 -28t27.5 -66.5t-27.5 -67.5t-66.5 -29zM160 0v1366h170v-1366h-170z" glyph-name="Idieresis" horiz-adv-x="489" unicode="Ï"/><glyph d="M684 1366q313 0 506.5 -194.5t193.5 -489.5q0 -297 -193.5 -489.5t-506.5 -192.5h-467v610h-197v129h197v627h467zM684 152q242 0 383 151.5t141 378.5q0 229 -139 380.5t-385 151.5h-297v-475h348v-129h-348v-458h297z" glyph-name="Eth" horiz-adv-x="1490" unicode="Ð"/><glyph d="M692 1585q-51 80 -96 80q-43 0 -70.5 -44t-27.5 -132h-92q0 123 52 198.5t146 75.5q39 0 71 -19.5t45 -35.5t38 -53q20 -31 29.5 -42t29 -24.5t39.5 -13.5q43 0 70.5 44t27.5 132h93q0 -123 -52.5 -198.5t-146.5 -75.5q-39 0 -71 18t-46 36.5t-39 53.5zM1126 0l-796 1102 v-1102h-170v1366h174l786 -1079v1079h170v-1366h-164z" glyph-name="Ntilde" horiz-adv-x="1449" unicode="Ñ"/><glyph d="M723 1481l-346 295h160l303 -295h-117zM104 682q0 305 188.5 506t489.5 201q299 0 488.5 -201t189.5 -506t-189.5 -506t-488.5 -201q-301 0 -489.5 201t-188.5 506zM1284 682q0 244 -138 399.5t-364 155.5q-227 0 -364 -155.5t-137 -399.5q0 -242 137 -398.5t364 -156.5 q225 0 363.5 156.5t138.5 398.5z" glyph-name="Ograve" horiz-adv-x="1566" unicode="Ò"/><glyph d="M834 1481h-117l303 295h160zM104 682q0 305 188.5 506t489.5 201q299 0 488.5 -201t189.5 -506t-189.5 -506t-488.5 -201q-301 0 -489.5 201t-188.5 506zM1284 682q0 244 -138 399.5t-364 155.5q-227 0 -364 -155.5t-137 -399.5q0 -242 137 -398.5t364 -156.5 q225 0 363.5 156.5t138.5 398.5z" glyph-name="Oacute" horiz-adv-x="1566" unicode="Ó"/><glyph d="M950 1481l-170 217l-164 -217h-104l195 295h147l201 -295h-105zM104 682q0 305 188.5 506t489.5 201q299 0 488.5 -201t189.5 -506t-189.5 -506t-488.5 -201q-301 0 -489.5 201t-188.5 506zM1284 682q0 244 -138 399.5t-364 155.5q-227 0 -364 -155.5t-137 -399.5 q0 -242 137 -398.5t364 -156.5q225 0 363.5 156.5t138.5 398.5z" glyph-name="Ocircumflex" horiz-adv-x="1566" unicode="Ô"/><glyph d="M748 1585q-51 80 -97 80q-43 0 -70.5 -44t-27.5 -132h-92q0 123 52 198.5t146 75.5q39 0 71 -19.5t45 -35.5t38 -53q20 -31 29.5 -42t29 -24.5t39.5 -13.5q43 0 71 44t28 132h92q0 -123 -52.5 -198.5t-146.5 -75.5q-39 0 -70.5 18t-45.5 36.5t-39 53.5zM104 682 q0 305 188.5 506t489.5 201q299 0 488.5 -201t189.5 -506t-189.5 -506t-488.5 -201q-301 0 -489.5 201t-188.5 506zM1284 682q0 244 -138 399.5t-364 155.5q-227 0 -364 -155.5t-137 -399.5q0 -242 137 -398.5t364 -156.5q225 0 363.5 156.5t138.5 398.5z" glyph-name="Otilde" horiz-adv-x="1566" unicode="Õ"/><glyph d="M569 1501q-39 0 -66.5 29t-27.5 67.5t27.5 66.5t66.5 28t67 -28t28 -67q0 -41 -28 -68.5t-67 -27.5zM993 1501q-39 0 -67.5 27.5t-28.5 68.5q0 39 28.5 67t67.5 28t66.5 -28t27.5 -66.5t-27.5 -67.5t-66.5 -29zM104 682q0 305 188.5 506t489.5 201q299 0 488.5 -201 t189.5 -506t-189.5 -506t-488.5 -201q-301 0 -489.5 201t-188.5 506zM1284 682q0 244 -138 399.5t-364 155.5q-227 0 -364 -155.5t-137 -399.5q0 -242 137 -398.5t364 -156.5q225 0 363.5 156.5t138.5 398.5z" glyph-name="Odieresis" horiz-adv-x="1566" unicode="Ö"/><glyph d="M510 608l-303 -305l-76 76l303 305l-303 303l76 78l303 -305l305 305l76 -78l-303 -303l303 -305l-76 -76z" glyph-name="multiply" horiz-adv-x="1021" unicode="×"/><glyph d="M1217 1239q117 -96 180 -240.5t63 -316.5q0 -305 -189.5 -506t-488.5 -201q-199 0 -354 93l-45 -68h-135l90 133q-233 205 -234 549q0 305 188.5 506t489.5 201q188 0 342 -86l43 63h136zM281 682q0 -256 149 -412l606 901q-119 66 -254 66q-227 0 -364 -155.5 t-137 -399.5zM782 127q225 0 363.5 156.5t138.5 398.5q0 266 -158 420l-608 -903q117 -72 264 -72z" glyph-name="Oslash" horiz-adv-x="1566" unicode="Ø"/><glyph d="M659 1481l-346 295h160l303 -295h-117zM160 530v836h170v-831q0 -190 100 -299t286.5 -109t287 108.5t100.5 299.5v831h170v-834q0 -260 -142.5 -408.5t-415 -148.5t-414.5 148.5t-142 406.5z" glyph-name="Ugrave" horiz-adv-x="1433" unicode="Ù"/><glyph d="M770 1481h-117l303 295h160zM160 530v836h170v-831q0 -190 100 -299t286.5 -109t287 108.5t100.5 299.5v831h170v-834q0 -260 -142.5 -408.5t-415 -148.5t-414.5 148.5t-142 406.5z" glyph-name="Uacute" horiz-adv-x="1433" unicode="Ú"/><glyph d="M887 1481l-170 217l-164 -217h-104l194 295h148l200 -295h-104zM160 530v836h170v-831q0 -190 100 -299t286.5 -109t287 108.5t100.5 299.5v831h170v-834q0 -260 -142.5 -408.5t-415 -148.5t-414.5 148.5t-142 406.5z" glyph-name="Ucircumflex" horiz-adv-x="1433" unicode="Û"/><glyph d="M506 1501q-39 0 -66.5 29t-27.5 67.5t27.5 66.5t66.5 28t66.5 -28t27.5 -67q0 -41 -27.5 -68.5t-66.5 -27.5zM930 1501q-41 0 -68.5 27.5t-27.5 68.5q0 39 28.5 67t67.5 28t66.5 -28t27.5 -66.5t-27.5 -67.5t-66.5 -29zM160 530v836h170v-831q0 -190 100 -299t286.5 -109 t287 108.5t100.5 299.5v831h170v-834q0 -260 -142.5 -408.5t-415 -148.5t-414.5 148.5t-142 406.5z" glyph-name="Udieresis" horiz-adv-x="1433" unicode="Ü"/><glyph d="M694 1481h-116l303 295h159zM557 0v578l-539 788h199l424 -635l424 635h199l-537 -788v-578h-170z" glyph-name="Yacute" horiz-adv-x="1282" unicode="Ý"/><glyph d="M160 0v1366h170v-244h379q199 0 313.5 -118.5t114.5 -294.5q0 -174 -116 -292t-312 -118h-379v-299h-170zM961 708.5q0 114.5 -76 188.5t-197 74h-358v-520h358q121 0 197 71.5t76 186z" glyph-name="Thorn" horiz-adv-x="1202" unicode="Þ"/><glyph d="M803 -25q-135 0 -220 41t-161 119l78 107q47 -61 126 -101.5t177 -40.5q111 0 171 50.5t60 121.5q0 31 -14 55.5t-32.5 41t-57.5 32t-64.5 22.5t-77.5 21q-63 14 -99 25.5t-89 35t-82 50.5t-50.5 72t-21.5 102t30 107.5t62.5 76t86.5 60.5q43 29 61.5 43t38.5 40.5 t20 53.5q0 66 -61 102.5t-141 36.5q-100 0 -168 -62.5t-68 -164.5v-1022h-153v1022q0 154 107.5 259t283.5 105q147 0 252.5 -70.5t105.5 -187.5q0 -55 -29.5 -103t-57.5 -69.5t-85 -58.5q-45 -29 -68.5 -47.5t-45 -50t-21.5 -68.5q0 -61 56.5 -91t174.5 -56 q66 -16 102 -26.5t92 -35t86 -53.5t53.5 -79t23.5 -114q0 -127 -99.5 -214t-281.5 -87z" glyph-name="germandbls" horiz-adv-x="1222" unicode="ß"/><glyph d="M485 1139l-346 295h160l303 -295h-117zM772 0v113q-125 -137 -328 -138q-137 0 -241.5 88.5t-104.5 239.5q0 156 103.5 241t242.5 85q211 0 328 -135v178q0 98 -69.5 153.5t-180.5 55.5q-174 0 -303 -138l-72 107q158 164 396 164q170 0 276.5 -82t106.5 -252v-680h-154z M772 209v186q-88 123 -272 123q-106 0 -175 -60.5t-69 -156.5q0 -94 68.5 -154.5t175.5 -60.5q184 0 272 123z" glyph-name="agrave" horiz-adv-x="1079" unicode="à"/><glyph d="M598 1139h-117l303 295h160zM772 0v113q-125 -137 -328 -138q-137 0 -241.5 88.5t-104.5 239.5q0 156 103.5 241t242.5 85q211 0 328 -135v178q0 98 -69.5 153.5t-180.5 55.5q-174 0 -303 -138l-72 107q158 164 396 164q170 0 276.5 -82t106.5 -252v-680h-154zM772 209 v186q-88 123 -272 123q-106 0 -175 -60.5t-69 -156.5q0 -94 68.5 -154.5t175.5 -60.5q184 0 272 123z" glyph-name="aacute" horiz-adv-x="1079" unicode="á"/><glyph d="M715 1139l-170 217l-164 -217h-105l195 295h147l201 -295h-104zM772 0v113q-125 -137 -328 -138q-137 0 -241.5 88.5t-104.5 239.5q0 156 103.5 241t242.5 85q211 0 328 -135v178q0 98 -69.5 153.5t-180.5 55.5q-174 0 -303 -138l-72 107q158 164 396 164 q170 0 276.5 -82t106.5 -252v-680h-154zM772 209v186q-88 123 -272 123q-106 0 -175 -60.5t-69 -156.5q0 -94 68.5 -154.5t175.5 -60.5q184 0 272 123z" glyph-name="acircumflex" horiz-adv-x="1079" unicode="â"/><glyph d="M512 1243q-51 80 -96 80q-43 0 -71 -44t-28 -132h-92q0 123 52.5 198.5t146.5 75.5q39 0 70.5 -19.5t45 -35.5t38.5 -53q20 -31 29 -42t28.5 -24.5t40.5 -13.5q43 0 70.5 44t27.5 132h92q0 -123 -52 -198.5t-146 -75.5q-39 0 -71 18t-46 36.5t-39 53.5zM772 0v113 q-125 -137 -328 -138q-137 0 -241.5 88.5t-104.5 239.5q0 156 103.5 241t242.5 85q211 0 328 -135v178q0 98 -69.5 153.5t-180.5 55.5q-174 0 -303 -138l-72 107q158 164 396 164q170 0 276.5 -82t106.5 -252v-680h-154zM772 209v186q-88 123 -272 123q-106 0 -175 -60.5 t-69 -156.5q0 -94 68.5 -154.5t175.5 -60.5q184 0 272 123z" glyph-name="atilde" horiz-adv-x="1079" unicode="ã"/><glyph d="M334 1159q-39 0 -66.5 29t-27.5 67.5t27.5 66.5t66.5 28t66.5 -28t27.5 -67q0 -41 -27.5 -68.5t-66.5 -27.5zM758 1159q-41 0 -68.5 29t-27.5 67.5t28.5 66.5t67.5 28t66.5 -28t27.5 -66.5t-27.5 -67.5t-66.5 -29zM772 0v113q-125 -137 -328 -138q-137 0 -241.5 88.5 t-104.5 239.5q0 156 103.5 241t242.5 85q211 0 328 -135v178q0 98 -69.5 153.5t-180.5 55.5q-174 0 -303 -138l-72 107q158 164 396 164q170 0 276.5 -82t106.5 -252v-680h-154zM772 209v186q-88 123 -272 123q-106 0 -175 -60.5t-69 -156.5q0 -94 68.5 -154.5t175.5 -60.5 q184 0 272 123z" glyph-name="adieresis" horiz-adv-x="1079" unicode="ä"/><glyph d="M344 1313q0 84 59.5 143.5t141.5 59.5t141 -59.5t59 -143.5t-59 -142.5t-141 -58.5t-141.5 58.5t-59.5 142.5zM664 1313q0 51 -34 86t-85 35q-49 0 -84 -35t-35 -86q0 -49 35 -85t84 -36t84 36t35 85zM772 0v113q-125 -137 -328 -138q-137 0 -241.5 88.5t-104.5 239.5 q0 156 103.5 241t242.5 85q211 0 328 -135v178q0 98 -69.5 153.5t-180.5 55.5q-174 0 -303 -138l-72 107q158 164 396 164q170 0 276.5 -82t106.5 -252v-680h-154zM772 209v186q-88 123 -272 123q-106 0 -175 -60.5t-69 -156.5q0 -94 68.5 -154.5t175.5 -60.5q184 0 272 123 z" glyph-name="aring" horiz-adv-x="1079" unicode="å"/><glyph d="M975 444q10 -145 98 -241.5t232 -96.5q172 0 284 125l74 -104q-147 -152 -365 -152q-279 0 -395 238q-53 -106 -162.5 -172t-244.5 -66q-168 0 -283 87.5t-115 241t105.5 239.5t259.5 86q229 0 358 -131v176q0 96 -74.5 151.5t-197.5 55.5q-193 0 -330 -138l-72 107 q162 164 420 164q131 0 227.5 -53.5t123.5 -161.5q123 215 366 215q207 0 324.5 -149.5t117.5 -381.5v-39h-751zM1575 557q-2 129 -78 229.5t-223 100.5q-135 0 -214 -101.5t-85 -228.5h600zM821 393q-106 125 -297 125q-121 0 -194.5 -56t-73.5 -151q0 -92 73.5 -148.5 t194.5 -56.5q127 0 212 80t85 183v24z" glyph-name="ae" horiz-adv-x="1820" unicode="æ"/><glyph d="M598 113q156 0 252 129l102 -95q-123 -160 -323 -170l-35 -90q33 23 76 23q59 0 97 -37t38 -96q0 -76 -61.5 -122t-151.5 -46q-129 0 -207 61l39 78q72 -59 164 -59q53 0 89 23.5t36 66.5q0 68 -76 67q-47 0 -78 -34l-67 38l47 127q-199 18 -321 164t-122 355 q0 223 137.5 370.5t356.5 147.5q229 0 362 -172l-102 -94q-94 129 -252 129q-156 0 -249 -106.5t-93 -274.5t93 -275.5t249 -107.5z" glyph-name="ccedilla" horiz-adv-x="1013" unicode="ç"/><glyph d="M522 1139l-346 295h160l303 -295h-117zM96 496q0 217 139.5 367.5t348.5 150.5q219 0 347 -150.5t128 -380.5v-39h-801q10 -145 106.5 -243.5t249.5 -98.5q184 0 306 125l73 -100q-152 -152 -393 -152q-221 0 -362.5 145t-141.5 376zM582 887q-147 0 -232.5 -100.5 t-91.5 -229.5h649q-2 127 -85.5 228.5t-239.5 101.5z" glyph-name="egrave" horiz-adv-x="1153" unicode="è"/><glyph d="M635 1139h-117l303 295h160zM96 496q0 217 139.5 367.5t348.5 150.5q219 0 347 -150.5t128 -380.5v-39h-801q10 -145 106.5 -243.5t249.5 -98.5q184 0 306 125l73 -100q-152 -152 -393 -152q-221 0 -362.5 145t-141.5 376zM582 887q-147 0 -232.5 -100.5t-91.5 -229.5 h649q-2 127 -85.5 228.5t-239.5 101.5z" glyph-name="eacute" horiz-adv-x="1153" unicode="é"/><glyph d="M752 1139l-170 217l-164 -217h-105l195 295h147l201 -295h-104zM96 496q0 217 139.5 367.5t348.5 150.5q219 0 347 -150.5t128 -380.5v-39h-801q10 -145 106.5 -243.5t249.5 -98.5q184 0 306 125l73 -100q-152 -152 -393 -152q-221 0 -362.5 145t-141.5 376zM582 887 q-147 0 -232.5 -100.5t-91.5 -229.5h649q-2 127 -85.5 228.5t-239.5 101.5z" glyph-name="ecircumflex" horiz-adv-x="1153" unicode="ê"/><glyph d="M371 1159q-39 0 -67 29t-28 67.5t28 66.5t67 28t66.5 -28t27.5 -67q0 -41 -27.5 -68.5t-66.5 -27.5zM795 1159q-41 0 -69 29t-28 67.5t29 66.5t68 28t66.5 -28t27.5 -66.5t-27.5 -67.5t-66.5 -29zM96 496q0 217 139.5 367.5t348.5 150.5q219 0 347 -150.5t128 -380.5v-39 h-801q10 -145 106.5 -243.5t249.5 -98.5q184 0 306 125l73 -100q-152 -152 -393 -152q-221 0 -362.5 145t-141.5 376zM582 887q-147 0 -232.5 -100.5t-91.5 -229.5h649q-2 127 -85.5 228.5t-239.5 101.5z" glyph-name="edieresis" horiz-adv-x="1153" unicode="ë"/><glyph d="M172 1139l-346 295h160l303 -295h-117zM154 0v989h153v-989h-153z" glyph-name="igrave" horiz-adv-x="460" unicode="ì"/><glyph d="M283 1139h-117l303 295h160zM154 0v989h153v-989h-153z" glyph-name="iacute" horiz-adv-x="460" unicode="í"/><glyph d="M399 1139l-170 217l-163 -217h-105l195 295h147l201 -295h-105zM154 0v989h153v-989h-153z" glyph-name="icircumflex" horiz-adv-x="460" unicode="î"/><glyph d="M18.5 1159q-38.5 0 -66.5 29t-28 67.5t28 66.5t66.5 28t66.5 -28t28 -67q0 -41 -28 -68.5t-66.5 -27.5zM442 1159q-41 0 -68.5 29t-27.5 67.5t28.5 66.5t67.5 28t67 -28t28 -66.5t-28 -67.5t-67 -29zM154 0v989h153v-989h-153z" glyph-name="idieresis" horiz-adv-x="460" unicode="ï"/><glyph d="M696 1217q379 -326 379 -711q0 -233 -133 -382t-356 -149q-219 0 -354.5 143.5t-135.5 360.5t127 359.5t323.5 142.5t323.5 -182q-100 180 -327 350l-293 -131l-37 86l242 106q-74 49 -154 99l84 127q137 -84 229 -156l222 98l34 -84zM585.5 113q151.5 0 239.5 106.5 t88 259.5q0 152 -88 258.5t-239.5 106.5t-240.5 -106.5t-89 -258.5q0 -154 89 -260t240.5 -106z" glyph-name="eth" unicode="ð"/><glyph d="M532 1243q-51 80 -96 80q-43 0 -70.5 -44t-27.5 -132h-92q0 123 52 198.5t146 75.5q39 0 71 -19.5t45 -35.5t38 -53q20 -31 29.5 -42t29 -24.5t39.5 -13.5q43 0 71 44t28 132h92q0 -123 -52.5 -198.5t-146.5 -75.5q-39 0 -70.5 18t-46 36.5t-39.5 53.5zM821 0v647 q0 125 -57 177.5t-164 52.5q-86 0 -167 -45.5t-126 -108.5v-723h-153v989h153v-143q57 68 153.5 118t198.5 50q315 0 316 -320v-694h-154z" glyph-name="ntilde" horiz-adv-x="1128" unicode="ñ"/><glyph d="M526 1139l-346 295h160l303 -295h-117zM586 -25q-221 0 -355.5 149.5t-134.5 371t134.5 370t355.5 148.5t355 -148.5t134 -370t-134 -371t-355 -149.5zM585.5 113q151.5 0 239.5 111.5t88 271t-88 270.5t-239.5 111t-240.5 -112t-89 -269q0 -160 89 -271.5t240.5 -111.5z " glyph-name="ograve" unicode="ò"/><glyph d="M639 1139h-117l303 295h160zM586 -25q-221 0 -355.5 149.5t-134.5 371t134.5 370t355.5 148.5t355 -148.5t134 -370t-134 -371t-355 -149.5zM585.5 113q151.5 0 239.5 111.5t88 271t-88 270.5t-239.5 111t-240.5 -112t-89 -269q0 -160 89 -271.5t240.5 -111.5z" glyph-name="oacute" unicode="ó"/><glyph d="M756 1139l-170 217l-164 -217h-105l195 295h147l201 -295h-104zM586 -25q-221 0 -355.5 149.5t-134.5 371t134.5 370t355.5 148.5t355 -148.5t134 -370t-134 -371t-355 -149.5zM585.5 113q151.5 0 239.5 111.5t88 271t-88 270.5t-239.5 111t-240.5 -112t-89 -269 q0 -160 89 -271.5t240.5 -111.5z" glyph-name="ocircumflex" unicode="ô"/><glyph d="M553 1243q-51 80 -96 80q-43 0 -71 -44t-28 -132h-92q0 123 52.5 198.5t146.5 75.5q39 0 70.5 -19.5t45 -35.5t37.5 -53q20 -31 29.5 -42t29 -24.5t40.5 -13.5q43 0 70.5 44t27.5 132h92q0 -123 -52 -198.5t-146 -75.5q-39 0 -71 18t-46 36.5t-39 53.5zM586 -25 q-221 0 -355.5 149.5t-134.5 371t134.5 370t355.5 148.5t355 -148.5t134 -370t-134 -371t-355 -149.5zM585.5 113q151.5 0 239.5 111.5t88 271t-88 270.5t-239.5 111t-240.5 -112t-89 -269q0 -160 89 -271.5t240.5 -111.5z" glyph-name="otilde" unicode="õ"/><glyph d="M373 1159q-39 0 -66.5 29t-27.5 67.5t27.5 66.5t66.5 28t66.5 -28t27.5 -67q0 -41 -27.5 -68.5t-66.5 -27.5zM797 1159q-39 0 -68 29t-29 67.5t29 66.5t68 28t66.5 -28t27.5 -66.5t-27.5 -67.5t-66.5 -29zM586 -25q-221 0 -355.5 149.5t-134.5 371t134.5 370t355.5 148.5 t355 -148.5t134 -370t-134 -371t-355 -149.5zM585.5 113q151.5 0 239.5 111.5t88 271t-88 270.5t-239.5 111t-240.5 -112t-89 -269q0 -160 89 -271.5t240.5 -111.5z" glyph-name="odieresis" unicode="ö"/><glyph d="M522 983q-39 0 -65.5 27.5t-26.5 66.5t26.5 66.5t65.5 27.5q41 0 68.5 -27.5t27.5 -66.5t-28.5 -66.5t-67.5 -27.5zM59 637v106h928v-106h-928zM522 201q-39 0 -65.5 27.5t-26.5 66.5t26.5 66.5t65.5 27.5t67.5 -27.5t28.5 -66.5t-28.5 -66.5t-67.5 -27.5z" glyph-name="divide" horiz-adv-x="1046" unicode="÷"/><glyph d="M932 872q143 -147 143 -376q0 -221 -134 -371t-355 -150q-166 0 -291 93l-53 -68h-111l98 125q-133 150 -133 371t134.5 369.5t355.5 148.5q162 0 280 -84l47 59h111zM256 496q0 -141 72 -248l446 567q-78 61 -188 62q-152 0 -241 -111.5t-89 -269.5zM586 113 q152 0 239.5 111.5t87.5 271.5q0 150 -77 256l-451 -570q86 -69 201 -69z" glyph-name="oslash" unicode="ø"/><glyph d="M506 1139l-346 295h159l304 -295h-117zM821 0v139q-61 -70 -154.5 -117t-197.5 -47q-315 0 -315 316v698h153v-651q0 -123 56.5 -174t164.5 -51q86 0 167 43t126 106v727h154v-989h-154z" glyph-name="ugrave" horiz-adv-x="1128" unicode="ù"/><glyph d="M616 1139h-116l303 295h160zM821 0v139q-61 -70 -154.5 -117t-197.5 -47q-315 0 -315 316v698h153v-651q0 -123 56.5 -174t164.5 -51q86 0 167 43t126 106v727h154v-989h-154z" glyph-name="uacute" horiz-adv-x="1128" unicode="ú"/><glyph d="M733 1139l-170 217l-164 -217h-104l194 295h148l201 -295h-105zM821 0v139q-61 -70 -154.5 -117t-197.5 -47q-315 0 -315 316v698h153v-651q0 -123 56.5 -174t164.5 -51q86 0 167 43t126 106v727h154v-989h-154z" glyph-name="ucircumflex" horiz-adv-x="1128" unicode="û"/><glyph d="M352 1159q-39 0 -66.5 29t-27.5 67.5t27.5 66.5t66.5 28t66.5 -28t27.5 -67q0 -41 -27.5 -68.5t-66.5 -27.5zM776 1159q-39 0 -67.5 29t-28.5 67.5t28.5 66.5t67.5 28t66.5 -28t27.5 -66.5t-27.5 -67.5t-66.5 -29zM821 0v139q-61 -70 -154.5 -117t-197.5 -47 q-315 0 -315 316v698h153v-651q0 -123 56.5 -174t164.5 -51q86 0 167 43t126 106v727h154v-989h-154z" glyph-name="udieresis" horiz-adv-x="1128" unicode="ü"/><glyph d="M555 1139h-117l303 295h160zM123 -248q37 -16 84 -16q53 0 88 22.5t59 81.5l66 150l-414 999h166l330 -811l327 811h168l-495 -1190q-82 -197 -291 -200q-63 0 -113 14z" glyph-name="yacute" horiz-adv-x="1003" unicode="ý"/><glyph d="M307 150v-527h-153v1743h153v-524q55 78 143.5 125t190.5 47q197 0 318.5 -140.5t121.5 -378t-121.5 -379t-318.5 -141.5q-209 1 -334 175zM920 496q0 168 -86 274.5t-232 106.5q-88 0 -171 -46.5t-124 -111.5v-447q41 -68 124 -113.5t171 -45.5q145 0 231.5 107.5 t86.5 275.5z" glyph-name="thorn" horiz-adv-x="1175" unicode="þ"/><glyph d="M291 1159q-39 0 -66.5 29t-27.5 67.5t27.5 66.5t66.5 28t66.5 -28t27.5 -67q0 -41 -27.5 -68.5t-66.5 -27.5zM715 1159q-39 0 -68 29t-29 67.5t29 66.5t68 28t66.5 -28t27.5 -66.5t-27.5 -67.5t-66.5 -29zM123 -248q37 -16 84 -16q53 0 88 22.5t59 81.5l66 150l-414 999 h166l330 -811l327 811h168l-495 -1190q-82 -197 -291 -200q-63 0 -113 14z" glyph-name="ydieresis" horiz-adv-x="1003" unicode="ÿ"/><glyph d="M358 1513v99h629v-99h-629zM1141 0l-121 303h-692l-121 -303h-189l549 1366h211l551 -1366h-188zM674 1214l-297 -759h592z" glyph-name="Amacron" horiz-adv-x="1347" unicode="Ā"/><glyph d="M229 1171v99h629v-99h-629zM772 0v113q-125 -137 -328 -138q-137 0 -241.5 88.5t-104.5 239.5q0 156 103.5 241t242.5 85q211 0 328 -135v178q0 98 -69.5 153.5t-180.5 55.5q-174 0 -303 -138l-72 107q158 164 396 164q170 0 276.5 -82t106.5 -252v-680h-154zM772 209 v186q-88 123 -272 123q-106 0 -175 -60.5t-69 -156.5q0 -94 68.5 -154.5t175.5 -60.5q184 0 272 123z" glyph-name="amacron" horiz-adv-x="1079" unicode="ā"/><glyph d="M674 1468q-223 0 -361 181l76 65q106 -147 285 -147q180 0 282 147l76 -65q-133 -181 -358 -181zM1141 0l-121 303h-692l-121 -303h-189l549 1366h211l551 -1366h-188zM674 1214l-297 -759h592z" glyph-name="Abreve" horiz-adv-x="1347" unicode="Ă"/><glyph d="M545 1126q-223 0 -361 181l76 65q106 -147 285 -147q180 0 282 147l76 -65q-133 -181 -358 -181zM772 0v113q-125 -137 -328 -138q-137 0 -241.5 88.5t-104.5 239.5q0 156 103.5 241t242.5 85q211 0 328 -135v178q0 98 -69.5 153.5t-180.5 55.5q-174 0 -303 -138l-72 107 q158 164 396 164q170 0 276.5 -82t106.5 -252v-680h-154zM772 209v186q-88 123 -272 123q-106 0 -175 -60.5t-69 -156.5q0 -94 68.5 -154.5t175.5 -60.5q184 0 272 123z" glyph-name="abreve" horiz-adv-x="1079" unicode="ă"/><glyph d="M1298 0q-193 -82 -192 -193q0 -37 24.5 -58t61.5 -21q35 0 65 18l41 -92q-55 -35 -139 -35q-82 0 -141.5 40t-59.5 114q0 66 58.5 125t152.5 102h-28l-121 303h-692l-121 -303h-189l549 1366h211l551 -1366h-31zM377 455h592l-295 759z" glyph-name="Aogonek" horiz-adv-x="1347" unicode="Ą"/><glyph d="M926 0q-193 -82 -193 -193q0 -37 24.5 -58t61.5 -21q35 0 66 18l41 -92q-55 -35 -140 -35q-82 0 -141 40t-59 114q0 66 58 125t153 102h-25v113q-125 -137 -328 -138q-137 0 -241.5 88.5t-104.5 239.5q0 156 103.5 241t242.5 85q211 0 328 -135v178q0 98 -69.5 153.5 t-180.5 55.5q-174 0 -303 -138l-72 107q158 164 396 164q170 0 276.5 -82t106.5 -252v-680zM772 209v186q-88 123 -272 123q-106 0 -175 -60.5t-69 -156.5q0 -94 68.5 -154.5t175.5 -60.5q184 0 272 123z" glyph-name="aogonek" horiz-adv-x="1079" unicode="ą"/><glyph d="M854 1481h-117l303 295h160zM801 -25q-295 0 -496 199t-201 508t201 508t496 199q334 0 524 -271l-143 -80q-59 88 -160.5 143.5t-220.5 55.5q-221 0 -370.5 -156.5t-149.5 -398.5t149.5 -398.5t370.5 -156.5q119 0 220 54.5t161 144.5l145 -80q-198 -271 -526 -271z" glyph-name="Cacute" horiz-adv-x="1384" unicode="Ć"/><glyph d="M639 1139h-117l303 295h160zM96 495.5q0 223.5 137.5 371t356.5 147.5q229 0 362 -172l-102 -94q-94 129 -252 129q-156 0 -249 -106.5t-93 -274.5t93 -275.5t249 -107.5t252 129l102 -95q-133 -172 -362 -172q-219 0 -356.5 148.5t-137.5 372z" glyph-name="cacute" horiz-adv-x="1013" unicode="ć"/><glyph d="M971 1481l-170 217l-164 -217h-105l195 295h147l201 -295h-104zM801 -25q-295 0 -496 199t-201 508t201 508t496 199q334 0 524 -271l-143 -80q-59 88 -160.5 143.5t-220.5 55.5q-221 0 -370.5 -156.5t-149.5 -398.5t149.5 -398.5t370.5 -156.5q119 0 220 54.5t161 144.5 l145 -80q-198 -271 -526 -271z" glyph-name="Ccircumflex" horiz-adv-x="1384" unicode="Ĉ"/><glyph d="M756 1139l-170 217l-164 -217h-105l195 295h147l201 -295h-104zM96 495.5q0 223.5 137.5 371t356.5 147.5q229 0 362 -172l-102 -94q-94 129 -252 129q-156 0 -249 -106.5t-93 -274.5t93 -275.5t249 -107.5t252 129l102 -95q-133 -172 -362 -172q-219 0 -356.5 148.5 t-137.5 372z" glyph-name="ccircumflex" horiz-adv-x="1013" unicode="ĉ"/><glyph d="M705 1593q0 39 28.5 68t67.5 29t66.5 -28t27.5 -69t-27.5 -68.5t-66.5 -27.5t-67.5 28.5t-28.5 67.5zM801 -25q-295 0 -496 199t-201 508t201 508t496 199q334 0 524 -271l-143 -80q-59 88 -160.5 143.5t-220.5 55.5q-221 0 -370.5 -156.5t-149.5 -398.5t149.5 -398.5 t370.5 -156.5q119 0 220 54.5t161 144.5l145 -80q-198 -271 -526 -271z" glyph-name="Cdotaccent" horiz-adv-x="1384" unicode="Ċ"/><glyph d="M489 1251q0 39 29 68t68 29t66.5 -28t27.5 -69t-27.5 -68.5t-66.5 -27.5t-68 28.5t-29 67.5zM96 495.5q0 223.5 137.5 371t356.5 147.5q229 0 362 -172l-102 -94q-94 129 -252 129q-156 0 -249 -106.5t-93 -274.5t93 -275.5t249 -107.5t252 129l102 -95 q-133 -172 -362 -172q-219 0 -356.5 148.5t-137.5 372z" glyph-name="cdotaccent" horiz-adv-x="1013" unicode="ċ"/><glyph d="M727 1481l-201 295h105l170 -217l164 217h104l-195 -295h-147zM801 -25q-295 0 -496 199t-201 508t201 508t496 199q334 0 524 -271l-143 -80q-59 88 -160.5 143.5t-220.5 55.5q-221 0 -370.5 -156.5t-149.5 -398.5t149.5 -398.5t370.5 -156.5q119 0 220 54.5t161 144.5 l145 -80q-198 -271 -526 -271z" glyph-name="Ccaron" horiz-adv-x="1384" unicode="Č"/><glyph d="M512 1139l-201 295h105l170 -217l164 217h104l-195 -295h-147zM96 495.5q0 223.5 137.5 371t356.5 147.5q229 0 362 -172l-102 -94q-94 129 -252 129q-156 0 -249 -106.5t-93 -274.5t93 -275.5t249 -107.5t252 129l102 -95q-133 -172 -362 -172q-219 0 -356.5 148.5 t-137.5 372z" glyph-name="ccaron" horiz-adv-x="1013" unicode="č"/><glyph d="M647 1481l-201 295h105l170 -217l164 217h104l-194 -295h-148zM160 0v1366h467q313 0 506.5 -194.5t193.5 -489.5q0 -297 -193.5 -489.5t-506.5 -192.5h-467zM330 152h297q242 0 383 151.5t141 378.5q0 229 -139.5 380.5t-384.5 151.5h-297v-1062z" glyph-name="Dcaron" horiz-adv-x="1433" unicode="Ď"/><glyph d="M1182 981l-68 53q47 31 81 81t38 95q-4 -4 -23 -4q-37 0 -61.5 25.5t-24.5 64.5t28 67t67 28q45 0 76.5 -36t31.5 -100q0 -82 -41 -155.5t-104 -118.5zM870 0v147q-127 -172 -333 -172q-197 0 -319 140.5t-122 378.5q0 236 122 378t319 142q205 0 333 -174v526h154v-1366 h-154zM870 268v449q-43 68 -125.5 114t-171.5 46q-145 0 -231 -107.5t-86 -275.5t86 -274.5t231 -106.5q90 0 172 44.5t125 110.5z" glyph-name="dcaron" horiz-adv-x="1318" unicode="ď"/><glyph d="M684 1366q313 0 506.5 -194.5t193.5 -489.5q0 -297 -193.5 -489.5t-506.5 -192.5h-467v610h-197v129h197v627h467zM684 152q242 0 383 151.5t141 378.5q0 229 -139 380.5t-385 151.5h-297v-475h348v-129h-348v-458h297z" glyph-name="Dcroat" horiz-adv-x="1490" unicode="Đ"/><glyph d="M1163 1194v-98h-139v-1096h-154v147q-127 -172 -333 -172q-197 0 -319 140.5t-122 378.5q0 236 122 378t319 142q205 0 333 -174v256h-321v98h321v172h154v-172h139zM870 268v449q-43 68 -125.5 114t-171.5 46q-145 0 -231 -107.5t-86 -275.5t86 -274.5t231 -106.5 q90 0 172 44.5t125 110.5z" glyph-name="dcroat" horiz-adv-x="1181" unicode="đ"/><glyph d="M303 1513v99h629v-99h-629zM160 0v1366h895v-152h-725v-440h710v-151h-710v-471h725v-152h-895z" glyph-name="Emacron" horiz-adv-x="1165" unicode="Ē"/><glyph d="M266 1171v99h629v-99h-629zM96 496q0 217 139.5 367.5t348.5 150.5q219 0 347 -150.5t128 -380.5v-39h-801q10 -145 106.5 -243.5t249.5 -98.5q184 0 306 125l73 -100q-152 -152 -393 -152q-221 0 -362.5 145t-141.5 376zM582 887q-147 0 -232.5 -100.5t-91.5 -229.5h649 q-2 127 -85.5 228.5t-239.5 101.5z" glyph-name="emacron" horiz-adv-x="1153" unicode="ē"/><glyph d="M618 1468q-223 0 -360 181l76 65q106 -147 284 -147q180 0 283 147l76 -65q-134 -181 -359 -181zM160 0v1366h895v-152h-725v-440h710v-151h-710v-471h725v-152h-895z" glyph-name="Ebreve" horiz-adv-x="1165" unicode="Ĕ"/><glyph d="M582 1126q-223 0 -361 181l76 65q106 -147 285 -147q180 0 282 147l76 -65q-133 -181 -358 -181zM96 496q0 217 139.5 367.5t348.5 150.5q219 0 347 -150.5t128 -380.5v-39h-801q10 -145 106.5 -243.5t249.5 -98.5q184 0 306 125l73 -100q-152 -152 -393 -152 q-221 0 -362.5 145t-141.5 376zM582 887q-147 0 -232.5 -100.5t-91.5 -229.5h649q-2 127 -85.5 228.5t-239.5 101.5z" glyph-name="ebreve" horiz-adv-x="1153" unicode="ĕ"/><glyph d="M522 1593q0 39 29 68t67.5 29t66.5 -28t28 -69t-28 -68.5t-66.5 -27.5t-67.5 28.5t-29 67.5zM160 0v1366h895v-152h-725v-440h710v-151h-710v-471h725v-152h-895z" glyph-name="Edotaccent" horiz-adv-x="1165" unicode="Ė"/><glyph d="M485 1251q0 39 29 68t68 29t66.5 -28t27.5 -69t-27.5 -68.5t-66.5 -27.5t-68 28.5t-29 67.5zM96 496q0 217 139.5 367.5t348.5 150.5q219 0 347 -150.5t128 -380.5v-39h-801q10 -145 106.5 -243.5t249.5 -98.5q184 0 306 125l73 -100q-152 -152 -393 -152 q-221 0 -362.5 145t-141.5 376zM582 887q-147 0 -232.5 -100.5t-91.5 -229.5h649q-2 127 -85.5 228.5t-239.5 101.5z" glyph-name="edotaccent" horiz-adv-x="1153" unicode="ė"/><glyph d="M1055 1214h-725v-440h710v-151h-710v-471h725v-152q-193 -82 -193 -193q0 -37 24.5 -58t61.5 -21q35 0 66 18l41 -92q-55 -35 -140 -35q-82 0 -141 40t-59 114q0 66 58 125t153 102h-766v1366h895v-152z" glyph-name="Eogonek" horiz-adv-x="1165" unicode="Ę"/><glyph d="M600 -25q-221 0 -362.5 144.5t-141.5 376.5q0 217 139.5 367.5t348.5 150.5q219 0 347 -150.5t128 -380.5v-39h-801q10 -145 106.5 -243.5t249.5 -98.5q184 0 306 125l73 -100q-227 -193 -227 -309q0 -43 24.5 -66.5t63.5 -23.5q37 0 68 18l41 -92q-55 -35 -140 -35 q-82 0 -141 40t-59 114q0 113 153 227q-80 -25 -176 -25zM582 887q-147 0 -232.5 -100.5t-91.5 -229.5h649q-2 127 -85.5 228.5t-239.5 101.5z" glyph-name="eogonek" horiz-adv-x="1153" unicode="ę"/><glyph d="M545 1481l-201 295h105l169 -217l164 217h105l-195 -295h-147zM160 0v1366h895v-152h-725v-440h710v-151h-710v-471h725v-152h-895z" glyph-name="Ecaron" horiz-adv-x="1165" unicode="Ě"/><glyph d="M508 1139l-201 295h105l170 -217l163 217h105l-195 -295h-147zM96 496q0 217 139.5 367.5t348.5 150.5q219 0 347 -150.5t128 -380.5v-39h-801q10 -145 106.5 -243.5t249.5 -98.5q184 0 306 125l73 -100q-152 -152 -393 -152q-221 0 -362.5 145t-141.5 376zM582 887 q-147 0 -232.5 -100.5t-91.5 -229.5h649q-2 127 -85.5 228.5t-239.5 101.5z" glyph-name="ecaron" horiz-adv-x="1153" unicode="ě"/><glyph d="M975 1481l-170 217l-164 -217h-104l194 295h148l200 -295h-104zM104 682q0 313 203 510t500 197q324 0 530 -256l-135 -84q-66 86 -171 137t-224 51q-225 0 -375.5 -156.5t-150.5 -398.5t150.5 -399.5t375.5 -157.5q113 0 210 44t157 103v279h-469v151h638v-493 q-211 -236 -536 -236q-297 0 -500 198t-203 511z" glyph-name="Gcircumflex" horiz-adv-x="1460" unicode="Ĝ"/><glyph d="M764 1139l-170 217l-164 -217h-104l194 295h148l200 -295h-104zM152 -254l77 115q113 -135 322 -135q137 0 227 72.5t90 224.5v141q-55 -78 -143 -127t-188 -49q-197 0 -319 138t-122 373.5t122 375t319 139.5q203 0 331 -174v149h154v-960q0 -227 -133 -328.5 t-338 -101.5q-131 0 -223 31.5t-176 115.5zM868 285v432q-41 68 -122.5 114t-172.5 46q-147 0 -232 -104.5t-85 -272.5q0 -166 86 -271.5t231 -105.5q88 0 171 47t124 115z" glyph-name="gcircumflex" horiz-adv-x="1175" unicode="ĝ"/><glyph d="M805 1468q-223 0 -361 181l76 65q106 -147 285 -147q180 0 282 147l76 -65q-133 -181 -358 -181zM104 682q0 313 203 510t500 197q324 0 530 -256l-135 -84q-66 86 -171 137t-224 51q-225 0 -375.5 -156.5t-150.5 -398.5t150.5 -399.5t375.5 -157.5q113 0 210 44t157 103 v279h-469v151h638v-493q-211 -236 -536 -236q-297 0 -500 198t-203 511z" glyph-name="Gbreve" horiz-adv-x="1460" unicode="Ğ"/><glyph d="M594 1126q-223 0 -361 181l76 65q106 -147 285 -147q180 0 283 147l75 -65q-133 -181 -358 -181zM152 -254l77 115q113 -135 322 -135q137 0 227 72.5t90 224.5v141q-55 -78 -143 -127t-188 -49q-197 0 -319 138t-122 373.5t122 375t319 139.5q203 0 331 -174v149h154 v-960q0 -227 -133 -328.5t-338 -101.5q-131 0 -223 31.5t-176 115.5zM868 285v432q-41 68 -122.5 114t-172.5 46q-147 0 -232 -104.5t-85 -272.5q0 -166 86 -271.5t231 -105.5q88 0 171 47t124 115z" glyph-name="gbreve" horiz-adv-x="1175" unicode="ğ"/><glyph d="M709 1593q0 39 28.5 68t67.5 29t66.5 -28t27.5 -69t-27.5 -68.5t-66.5 -27.5t-67.5 28.5t-28.5 67.5zM104 682q0 313 203 510t500 197q324 0 530 -256l-135 -84q-66 86 -171 137t-224 51q-225 0 -375.5 -156.5t-150.5 -398.5t150.5 -399.5t375.5 -157.5q113 0 210 44 t157 103v279h-469v151h638v-493q-211 -236 -536 -236q-297 0 -500 198t-203 511z" glyph-name="Gdotaccent" horiz-adv-x="1460" unicode="Ġ"/><glyph d="M498 1251q0 39 28.5 68t67.5 29t66.5 -28t27.5 -69t-27.5 -68.5t-66.5 -27.5t-67.5 28.5t-28.5 67.5zM152 -254l77 115q113 -135 322 -135q137 0 227 72.5t90 224.5v141q-55 -78 -143 -127t-188 -49q-197 0 -319 138t-122 373.5t122 375t319 139.5q203 0 331 -174v149 h154v-960q0 -227 -133 -328.5t-338 -101.5q-131 0 -223 31.5t-176 115.5zM868 285v432q-41 68 -122.5 114t-172.5 46q-147 0 -232 -104.5t-85 -272.5q0 -166 86 -271.5t231 -105.5q88 0 171 47t124 115z" glyph-name="gdotaccent" horiz-adv-x="1175" unicode="ġ"/><glyph d="M104 682q0 313 203 510t500 197q324 0 530 -256l-135 -84q-66 86 -171 137t-224 51q-225 0 -375.5 -156.5t-150.5 -398.5t150.5 -399.5t375.5 -157.5q113 0 210 44t157 103v279h-469v151h638v-493q-211 -236 -536 -236q-297 0 -500 198t-203 511zM770 -557l-68 53 q47 31 81 81t38 95q-4 -4 -22 -4q-37 0 -61.5 25.5t-24.5 64.5q0 41 27.5 69t66.5 28q45 0 76.5 -37t31.5 -101q0 -80 -41 -153.5t-104 -120.5z" glyph-name="Gcommaaccent" horiz-adv-x="1460" unicode="Ģ"/><glyph d="M629 1559l67 -56q-45 -31 -79.5 -79t-36.5 -93q4 2 10 2q35 0 64.5 -27.5t29.5 -64.5t-28.5 -65.5t-69.5 -28.5q-39 0 -69 31.5t-30 91.5q0 88 40.5 167t101.5 122zM152 -254l77 115q113 -135 322 -135q137 0 227 72.5t90 224.5v141q-55 -78 -143 -127t-188 -49 q-197 0 -319 138t-122 373.5t122 375t319 139.5q203 0 331 -174v149h154v-960q0 -227 -133 -328.5t-338 -101.5q-131 0 -223 31.5t-176 115.5zM868 285v432q-41 68 -122.5 114t-172.5 46q-147 0 -232 -104.5t-85 -272.5q0 -166 86 -271.5t231 -105.5q88 0 171 47t124 115z " glyph-name="gcommaaccent" horiz-adv-x="1175" unicode="ģ"/><glyph d="M899 1481l-170 217l-164 -217h-104l194 295h148l201 -295h-105zM1128 0v627h-798v-627h-170v1366h170v-588h798v588h170v-1366h-170z" glyph-name="Hcircumflex" horiz-adv-x="1458" unicode="Ĥ"/><glyph d="M735 1481l-170 217l-164 -217h-104l195 295h147l201 -295h-105zM823 0v651q0 123 -57 174.5t-166 51.5q-84 0 -165 -45.5t-128 -108.5v-723h-153v1366h153v-520q57 68 153.5 118t201.5 50q315 0 315 -316v-698h-154z" glyph-name="hcircumflex" horiz-adv-x="1130" unicode="ĥ"/><glyph d="M1481 1118v-98h-162v-1020h-170v627h-799v-627h-170v1020h-160v98h160v248h170v-248h799v248h170v-248h162zM1149 778v242h-799v-242h799z" glyph-name="Hbar" horiz-adv-x="1497" unicode="Ħ"/><glyph d="M666 1014q315 0 315 -316v-698h-154v651q0 123 -57 174.5t-166 51.5q-84 0 -165 -45.5t-128 -108.5v-723h-153v1096h-140v98h140v172h153v-172h322v-98h-322v-250q57 68 154 118t201 50z" glyph-name="hbar" horiz-adv-x="1134" unicode="ħ"/><glyph d="M213 1585q-51 80 -96 80q-43 0 -71 -44t-28 -132h-92q0 123 52.5 198.5t146.5 75.5q39 0 70.5 -19.5t45 -35.5t38.5 -53q20 -31 29 -42t28.5 -24.5t40.5 -13.5q43 0 70.5 44t27.5 132h92q0 -123 -52 -198.5t-146 -75.5q-39 0 -71 18t-46 36.5t-39 53.5zM160 0v1366h170 v-1366h-170z" glyph-name="Itilde" horiz-adv-x="489" unicode="Ĩ"/><glyph d="M197 1243q-51 80 -97 80q-43 0 -70.5 -44t-27.5 -132h-92q0 123 52 198.5t147 75.5q39 0 70.5 -19.5t45 -35.5t37.5 -53q20 -31 29.5 -42t29 -24.5t39.5 -13.5q43 0 71 44t28 132h92q0 -123 -52.5 -198.5t-146.5 -75.5q-39 0 -70.5 18t-45.5 36.5t-39 53.5zM154 0v989 h153v-989h-153z" glyph-name="itilde" horiz-adv-x="460" unicode="ĩ"/><glyph d="M-70 1513v99h629v-99h-629zM160 0v1366h170v-1366h-170z" glyph-name="Imacron" horiz-adv-x="489" unicode="Ī"/><glyph d="M-86 1171v99h629v-99h-629zM154 0v989h153v-989h-153z" glyph-name="imacron" horiz-adv-x="460" unicode="ī"/><glyph d="M246 1468q-223 0 -361 181l76 65q106 -147 285 -147q180 0 282 147l76 -65q-133 -181 -358 -181zM160 0v1366h170v-1366h-170z" glyph-name="Ibreve" horiz-adv-x="489" unicode="Ĭ"/><glyph d="M229 1126q-223 0 -360 181l76 65q106 -147 284 -147q180 0 283 147l76 -65q-134 -181 -359 -181zM154 0v989h153v-989h-153z" glyph-name="ibreve" horiz-adv-x="460" unicode="ĭ"/><glyph d="M223 -272q35 0 66 18l41 -92q-55 -35 -140 -35q-82 0 -141 40t-59 114q0 66 58 125t153 102h-41v1366h170v-1366q-193 -82 -193 -193q0 -37 24.5 -58t61.5 -21z" glyph-name="Iogonek" horiz-adv-x="489" unicode="Į"/><glyph d="M229 1149q-41 0 -71.5 29.5t-30.5 72.5t30.5 74t71.5 31q43 0 74 -31t31 -74t-31 -72.5t-74 -29.5zM154 0v989h153v-989q-193 -82 -192 -193q0 -37 24.5 -58t61.5 -21q35 0 65 18l41 -92q-55 -35 -139 -35q-82 0 -141.5 40t-59.5 114q0 66 58.5 125t152.5 102h-24z" glyph-name="iogonek" horiz-adv-x="460" unicode="į"/><glyph d="M150 1593q0 39 28.5 68t67.5 29t66.5 -28t27.5 -69t-27.5 -68.5t-66.5 -27.5t-67.5 28.5t-28.5 67.5zM160 0v1366h170v-1366h-170z" glyph-name="Idotaccent" horiz-adv-x="489" unicode="İ"/><glyph d="M154 0v989h153v-989h-153z" glyph-name="dotlessi" horiz-adv-x="460" unicode="ı"/><glyph d="M160 0v1366h170v-1366h-170zM512 133l88 129q113 -135 258 -135q125 0 200 79t75 208v952h170v-954q0 -213 -121 -325t-314 -112q-221 0 -356 158z" glyph-name="IJ" horiz-adv-x="1460" unicode="Ĳ"/><glyph d="M690 1149q-41 0 -71.5 29.5t-30.5 72.5t30.5 74t71.5 31q43 0 74 -31t31 -74t-31 -72.5t-74 -29.5zM229 1149q-41 0 -71.5 29.5t-30.5 72.5t30.5 74t71.5 31q43 0 74 -31t31 -74t-31 -72.5t-74 -29.5zM154 0v989h153v-989h-153zM768 989v-1085q0 -145 -76 -225t-215 -80 q-66 0 -110 14l20 129q27 -10 74 -10q154 0 153 172v1085h154z" glyph-name="ij" horiz-adv-x="923" unicode="ĳ"/><glyph d="M901 1481l-170 217l-164 -217h-104l194 295h148l201 -295h-105zM23 133l88 129q113 -135 258 -135q125 0 199.5 79t74.5 208v952h170v-954q0 -213 -121 -325t-313 -112q-221 0 -356 158z" glyph-name="Jcircumflex" horiz-adv-x="972" unicode="Ĵ"/><glyph d="M399 1139l-170 217l-163 -217h-105l195 295h147l201 -295h-105zM-94 -387l20 129q27 -10 74 -10q154 0 154 172v1085h153v-1085q0 -145 -75.5 -225t-215.5 -80q-65 0 -110 14z" glyph-name="jcircumflex" horiz-adv-x="460" unicode="ĵ"/><glyph d="M985 0l-518 614l-137 -155v-459h-170v1366h170v-707l604 707h213l-569 -649l618 -717h-211zM598 -557l-68 53q47 31 81 81t38 95q-4 -4 -22 -4q-37 0 -61.5 25.5t-24.5 64.5q0 41 27.5 69t66.5 28q45 0 76.5 -37t31.5 -101q0 -80 -41 -153.5t-104 -120.5z" glyph-name="Kcommaaccent" horiz-adv-x="1230" unicode="Ķ"/><glyph d="M827 0l-356 444l-164 -161v-283h-153v1366h153v-903l520 526h195l-438 -448l440 -541h-197zM498 -557l-68 53q47 31 81 81t38 95q-4 -4 -23 -4q-37 0 -61.5 25.5t-24.5 64.5q0 41 28 69t67 28q45 0 76.5 -37t31.5 -101q0 -80 -41 -153.5t-104 -120.5z" glyph-name="kcommaaccent" horiz-adv-x="1052" unicode="ķ"/><glyph d="M827 0l-356 444l-164 -161v-283h-153v989h153v-526l520 526h195l-438 -448l440 -541h-197z" glyph-name="kgreenlandic" horiz-adv-x="1052" unicode="ĸ"/><glyph d="M616 1481h-116l303 295h160zM160 0v1366h170v-1214h635v-152h-805z" glyph-name="Lacute" horiz-adv-x="1044" unicode="Ĺ"/><glyph d="M283 1481h-117l303 295h160zM154 0v1366h153v-1366h-153z" glyph-name="lacute" horiz-adv-x="460" unicode="ĺ"/><glyph d="M160 0v1366h170v-1214h635v-152h-805zM526 -557l-67 53q47 31 80.5 81t38.5 95q-4 -4 -23 -4q-37 0 -61.5 25.5t-24.5 64.5q0 41 27.5 69t66.5 28q45 0 77 -37t32 -101q0 -80 -41.5 -153.5t-104.5 -120.5z" glyph-name="Lcommaaccent" horiz-adv-x="1044" unicode="Ļ"/><glyph d="M154 0v1366h153v-1366h-153zM195 -557l-68 53q47 31 81 81t38 95q-4 -4 -23 -4q-37 0 -61.5 25.5t-24.5 64.5q0 41 28 69t66 28q45 0 77 -37t32 -101q0 -80 -41 -153.5t-104 -120.5z" glyph-name="lcommaaccent" horiz-adv-x="460" unicode="ļ"/><glyph d="M580 981l-66 53q45 31 79 81t38 95q-4 -4 -23 -4q-37 0 -61.5 25.5t-24.5 64.5q0 41 28 69t66 28q45 0 77 -37t32 -101q0 -80 -41 -153.5t-104 -120.5zM160 0v1366h170v-1214h635v-152h-805z" glyph-name="Lcaron" horiz-adv-x="1044" unicode="Ľ"/><glyph d="M465 981l-66 53q45 31 80 81t39 95q-8 -4 -24 -4q-37 0 -61.5 25.5t-24.5 64.5t27.5 67t66.5 28q45 0 77.5 -36t32.5 -100q0 -82 -42 -155.5t-105 -118.5zM154 0v1366h153v-1366h-153z" glyph-name="lcaron" horiz-adv-x="595" unicode="ľ"/><glyph d="M160 0v1366h170v-1214h635v-152h-805zM756 588q-45 0 -79 32.5t-34 77.5q0 47 33 80t80 33t79.5 -33t32.5 -80q0 -45 -33.5 -77.5t-78.5 -32.5z" glyph-name="Ldot" horiz-adv-x="1044" unicode="Ŀ"/><glyph d="M154 0v1366h153v-1366h-153zM543 389q-45 0 -79 33t-34 78t33 78.5t80 33.5t80.5 -33.5t33.5 -78.5t-33.5 -78t-80.5 -33z" glyph-name="ldot" horiz-adv-x="628" unicode="ŀ"/><glyph d="M369 152h635v-152h-805v555l-179 -102v147l179 102v664h170v-565l198 114v-147l-198 -115v-501z" glyph-name="Lslash" horiz-adv-x="1083" unicode="Ł"/><glyph d="M565 901v-123l-194 -110v-668h-154v580l-197 -113v123l197 112v664h154v-575z" glyph-name="lslash" horiz-adv-x="587" unicode="ł"/><glyph d="M778 1481h-116l303 295h159zM1126 0l-796 1102v-1102h-170v1366h174l786 -1079v1079h170v-1366h-164z" glyph-name="Nacute" horiz-adv-x="1449" unicode="Ń"/><glyph d="M618 1139h-116l303 295h160zM821 0v647q0 125 -57 177.5t-164 52.5q-86 0 -167 -45.5t-126 -108.5v-723h-153v989h153v-143q57 68 153.5 118t198.5 50q315 0 316 -320v-694h-154z" glyph-name="nacute" horiz-adv-x="1128" unicode="ń"/><glyph d="M1126 0l-796 1102v-1102h-170v1366h174l786 -1079v1079h170v-1366h-164zM678 -557l-68 53q47 31 81 81t38 95q-4 -4 -22 -4q-37 0 -61.5 25.5t-24.5 64.5q0 41 27.5 69t66.5 28q45 0 76.5 -37t31.5 -101q0 -80 -41 -153.5t-104 -120.5z" glyph-name="Ncommaaccent" horiz-adv-x="1449" unicode="Ņ"/><glyph d="M821 0v647q0 125 -57 177.5t-164 52.5q-86 0 -167 -45.5t-126 -108.5v-723h-153v989h153v-143q57 68 153.5 118t198.5 50q315 0 316 -320v-694h-154zM528 -557l-67 53q47 31 80.5 81t38.5 95q-4 -4 -23 -4q-37 0 -61.5 25.5t-24.5 64.5q0 41 27.5 69t66.5 28q45 0 77 -37 t32 -101q0 -80 -41.5 -153.5t-104.5 -120.5z" glyph-name="ncommaaccent" horiz-adv-x="1128" unicode="ņ"/><glyph d="M651 1481l-200 295h104l170 -217l164 217h104l-194 -295h-148zM1126 0l-796 1102v-1102h-170v1366h174l786 -1079v1079h170v-1366h-164z" glyph-name="Ncaron" horiz-adv-x="1449" unicode="Ň"/><glyph d="M492 1139l-201 295h104l170 -217l164 217h105l-195 -295h-147zM821 0v647q0 125 -57 177.5t-164 52.5q-86 0 -167 -45.5t-126 -108.5v-723h-153v989h153v-143q57 68 153.5 118t198.5 50q315 0 316 -320v-694h-154z" glyph-name="ncaron" horiz-adv-x="1128" unicode="ň"/><glyph d="M182 1112l-65 51q47 31 80.5 81t38.5 95h-11q-10 -2 -14 -2q-35 0 -59.5 26t-24.5 64.5t26.5 66.5t67.5 28q45 0 77 -37t32 -99q0 -82 -42.5 -155.5t-105.5 -118.5zM821 0v647q0 125 -57 177.5t-164 52.5q-86 0 -167 -45.5t-126 -108.5v-723h-153v989h153v-143 q57 68 153.5 118t198.5 50q315 0 316 -320v-694h-154z" glyph-name="napostrophe" horiz-adv-x="1128" unicode="ŉ"/><glyph d="M1120 1366h170v-1335q0 -213 -120.5 -322.5t-313.5 -109.5q-221 0 -356 157l90 129q109 -135 256 -135q119 0 192.5 70.5t81.5 187.5l-790 1094v-1102h-170v1366h174l786 -1079v1079z" glyph-name="Eng" horiz-adv-x="1449" unicode="Ŋ"/><glyph d="M975 -96q0 -145 -76 -225t-215 -80q-66 0 -111 14l21 129q25 -10 74 -10q154 0 153 172v743q0 125 -57 177.5t-164 52.5q-86 0 -167 -45.5t-126 -108.5v-723h-153v989h153v-143q57 68 153.5 118t198.5 50q315 0 316 -320v-790z" glyph-name="eng" horiz-adv-x="1128" unicode="ŋ"/><glyph d="M465 1513v99h629v-99h-629zM104 682q0 305 188.5 506t489.5 201q299 0 488.5 -201t189.5 -506t-189.5 -506t-488.5 -201q-301 0 -489.5 201t-188.5 506zM1284 682q0 244 -138 399.5t-364 155.5q-227 0 -364 -155.5t-137 -399.5q0 -242 137 -398.5t364 -156.5 q225 0 363.5 156.5t138.5 398.5z" glyph-name="Omacron" horiz-adv-x="1566" unicode="Ō"/><glyph d="M270 1171v99h629v-99h-629zM586 -25q-221 0 -355.5 149.5t-134.5 371t134.5 370t355.5 148.5t355 -148.5t134 -370t-134 -371t-355 -149.5zM585.5 113q151.5 0 239.5 111.5t88 271t-88 270.5t-239.5 111t-240.5 -112t-89 -269q0 -160 89 -271.5t240.5 -111.5z" glyph-name="omacron" unicode="ō"/><glyph d="M780 1468q-223 0 -360 181l76 65q106 -147 284 -147q180 0 283 147l76 -65q-134 -181 -359 -181zM104 682q0 305 188.5 506t489.5 201q299 0 488.5 -201t189.5 -506t-189.5 -506t-488.5 -201q-301 0 -489.5 201t-188.5 506zM1284 682q0 244 -138 399.5t-364 155.5 q-227 0 -364 -155.5t-137 -399.5q0 -242 137 -398.5t364 -156.5q225 0 363.5 156.5t138.5 398.5z" glyph-name="Obreve" horiz-adv-x="1566" unicode="Ŏ"/><glyph d="M586 1126q-223 0 -361 181l76 65q106 -147 285 -147q180 0 282 147l76 -65q-133 -181 -358 -181zM586 -25q-221 0 -355.5 149.5t-134.5 371t134.5 370t355.5 148.5t355 -148.5t134 -370t-134 -371t-355 -149.5zM585.5 113q151.5 0 239.5 111.5t88 271t-88 270.5 t-239.5 111t-240.5 -112t-89 -269q0 -160 89 -271.5t240.5 -111.5z" glyph-name="obreve" unicode="ŏ"/><glyph d="M678 1481h-98l192 295h141zM969 1481h-99l193 295h141zM104 682q0 305 188.5 506t489.5 201q299 0 488.5 -201t189.5 -506t-189.5 -506t-488.5 -201q-301 0 -489.5 201t-188.5 506zM1284 682q0 244 -138 399.5t-364 155.5q-227 0 -364 -155.5t-137 -399.5 q0 -242 137 -398.5t364 -156.5q225 0 363.5 156.5t138.5 398.5z" glyph-name="Ohungarumlaut" horiz-adv-x="1566" unicode="Ő"/><glyph d="M481 1139h-98l192 295h142zM772 1139h-98l192 295h142zM586 -25q-221 0 -355.5 149.5t-134.5 371t134.5 370t355.5 148.5t355 -148.5t134 -370t-134 -371t-355 -149.5zM585.5 113q151.5 0 239.5 111.5t88 271t-88 270.5t-239.5 111t-240.5 -112t-89 -269 q0 -160 89 -271.5t240.5 -111.5z" glyph-name="ohungarumlaut" unicode="ő"/><glyph d="M1255 0v246q-74 -129 -205.5 -200t-281.5 -71q-295 0 -479.5 201t-184.5 506t184.5 504.5t479.5 199.5q150 0 282 -69.5t205 -198.5v248h897v-152h-727v-440h713v-151h-713v-471h727v-152h-897zM1255 907q-59 160 -183 244t-286 84q-229 0 -367 -154.5t-138 -398.5 t138 -399.5t367 -155.5q162 0 286 85t183 245v450z" glyph-name="OE" horiz-adv-x="2263" unicode="Œ"/><glyph d="M1077 444q10 -145 105.5 -243.5t249.5 -98.5q182 0 307 125l73 -100q-156 -152 -393 -152q-170 0 -272.5 85t-153.5 198q-127 -283 -407 -283q-221 0 -355.5 149.5t-134.5 371t134.5 370t355.5 148.5q86 0 159.5 -29t121.5 -75t78 -89t50 -90q45 106 146.5 194.5 t259.5 88.5q219 0 347 -150.5t128 -380.5v-39h-799zM1726 557q-4 127 -88 228.5t-239 101.5q-147 0 -232.5 -100.5t-91.5 -229.5h651zM585.5 877q-149.5 0 -239.5 -110t-90 -271.5t90 -273t239.5 -111.5t238.5 110.5t89 274.5q0 162 -89 271.5t-238.5 109.5z" glyph-name="oe" horiz-adv-x="1970" unicode="œ"/><glyph d="M680 1481h-117l303 295h160zM950 0l-348 543h-272v-543h-170v1366h549q190 0 309 -112.5t119 -299.5q0 -176 -102.5 -280.5t-252.5 -116.5l369 -557h-201zM961 954.5q0 114.5 -76 187t-197 72.5h-358v-522h358q121 0 197 74t76 188.5z" glyph-name="Racute" horiz-adv-x="1245" unicode="Ŕ"/><glyph d="M444 1139h-116l303 295h160zM154 0v989h153v-160q137 180 330 181v-158q-27 6 -62 6q-70 0 -151.5 -49t-116.5 -109v-700h-153z" glyph-name="racute" horiz-adv-x="675" unicode="ŕ"/><glyph d="M950 0l-348 543h-272v-543h-170v1366h549q190 0 309 -112.5t119 -299.5q0 -176 -102.5 -280.5t-252.5 -116.5l369 -557h-201zM961 954.5q0 114.5 -76 187t-197 72.5h-358v-522h358q121 0 197 74t76 188.5zM590 -557l-68 53q47 31 81 81t38 95q-4 -4 -23 -4 q-37 0 -61.5 25.5t-24.5 64.5q0 41 28 69t67 28q45 0 76.5 -37t31.5 -101q0 -80 -41 -153.5t-104 -120.5z" glyph-name="Rcommaaccent" horiz-adv-x="1245" unicode="Ŗ"/><glyph d="M154 0v989h153v-160q137 180 330 181v-158q-27 6 -62 6q-70 0 -151.5 -49t-116.5 -109v-700h-153zM197 -557l-68 53q47 31 81 81t38 95q-4 -4 -23 -4q-37 0 -61.5 25.5t-24.5 64.5q0 41 28 69t66 28q45 0 77 -37t32 -101q0 -80 -41 -153.5t-104 -120.5z" glyph-name="rcommaaccent" horiz-adv-x="675" unicode="ŗ"/><glyph d="M553 1481l-201 295h105l170 -217l164 217h104l-195 -295h-147zM950 0l-348 543h-272v-543h-170v1366h549q190 0 309 -112.5t119 -299.5q0 -176 -102.5 -280.5t-252.5 -116.5l369 -557h-201zM961 954.5q0 114.5 -76 187t-197 72.5h-358v-522h358q121 0 197 74t76 188.5z " glyph-name="Rcaron" horiz-adv-x="1245" unicode="Ř"/><glyph d="M317 1139l-200 295h104l170 -217l164 217h104l-194 -295h-148zM154 0v989h153v-160q137 180 330 181v-158q-27 6 -62 6q-70 0 -151.5 -49t-116.5 -109v-700h-153z" glyph-name="rcaron" horiz-adv-x="675" unicode="ř"/><glyph d="M643 1481h-117l303 295h160zM78 193l100 129q174 -195 430 -195q166 0 244 70.5t78 164.5q0 47 -20.5 85t-47 61.5t-81 47.5t-90.5 34t-107 31q-90 25 -135.5 38t-120 45.5t-111.5 68.5t-66.5 96.5t-29.5 138.5q0 168 133 273t336 105q305 0 485 -190l-102 -125 q-150 164 -395 164q-123 0 -202 -60.5t-79 -156.5q0 -39 20.5 -72t44 -53.5t78 -41t86 -30.5t103.5 -28q88 -25 137 -39.5t124 -49t114.5 -74.5t70.5 -105.5t31 -147.5q0 -168 -124 -285t-380 -117q-331 1 -524 218z" glyph-name="Sacute" horiz-adv-x="1200" unicode="Ś"/><glyph d="M516 1139h-117l303 295h160zM68 131l79 111q51 -59 140.5 -100.5t185.5 -41.5q111 0 172.5 45t61.5 119q0 39 -19.5 67.5t-60.5 49t-77 33t-97 26.5q-68 16 -104 25.5t-93 33t-86 51.5t-52.5 74t-23.5 105q0 121 99.5 203t269.5 82q223 0 366 -144l-71 -106 q-104 125 -295 125q-100 0 -159.5 -41t-59.5 -109q0 -66 60.5 -97.5t180.5 -59.5q68 -14 107 -25.5t96 -36t89 -54.5t55.5 -79t23.5 -113q0 -131 -102.5 -215t-286.5 -84q-252 0 -399 156z" glyph-name="sacute" horiz-adv-x="952" unicode="ś"/><glyph d="M760 1481l-170 217l-164 -217h-104l194 295h148l200 -295h-104zM78 193l100 129q174 -195 430 -195q166 0 244 70.5t78 164.5q0 47 -20.5 85t-47 61.5t-81 47.5t-90.5 34t-107 31q-90 25 -135.5 38t-120 45.5t-111.5 68.5t-66.5 96.5t-29.5 138.5q0 168 133 273t336 105 q305 0 485 -190l-102 -125q-150 164 -395 164q-123 0 -202 -60.5t-79 -156.5q0 -39 20.5 -72t44 -53.5t78 -41t86 -30.5t103.5 -28q88 -25 137 -39.5t124 -49t114.5 -74.5t70.5 -105.5t31 -147.5q0 -168 -124 -285t-380 -117q-331 1 -524 218z" glyph-name="Scircumflex" horiz-adv-x="1200" unicode="Ŝ"/><glyph d="M633 1139l-170 217l-164 -217h-104l194 295h148l200 -295h-104zM68 131l79 111q51 -59 140.5 -100.5t185.5 -41.5q111 0 172.5 45t61.5 119q0 39 -19.5 67.5t-60.5 49t-77 33t-97 26.5q-68 16 -104 25.5t-93 33t-86 51.5t-52.5 74t-23.5 105q0 121 99.5 203t269.5 82 q223 0 366 -144l-71 -106q-104 125 -295 125q-100 0 -159.5 -41t-59.5 -109q0 -66 60.5 -97.5t180.5 -59.5q68 -14 107 -25.5t96 -36t89 -54.5t55.5 -79t23.5 -113q0 -131 -102.5 -215t-286.5 -84q-252 0 -399 156z" glyph-name="scircumflex" horiz-adv-x="952" unicode="ŝ"/><glyph d="M1106 377q0 -162 -116 -277.5t-355 -124.5l-35 -88q33 23 76 23q59 0 97 -37t38 -96q0 -76 -61.5 -122t-151.5 -46q-131 0 -207 61l39 78q72 -59 164 -59q53 0 89 23.5t36 66.5q0 68 -76 67q-47 0 -78 -34l-67 38l47 127q-293 16 -467 216l100 129q174 -195 430 -195 q166 0 244 70.5t78 164.5q0 47 -20.5 85t-47 61.5t-81 47.5t-90.5 34t-107 31q-90 25 -135.5 38t-120 45.5t-111.5 68.5t-66.5 96.5t-29.5 138.5q0 168 133 273t336 105q305 0 485 -190l-102 -125q-150 164 -395 164q-123 0 -202 -60.5t-79 -156.5q0 -39 20.5 -72t44 -53.5 t78 -41t86 -30.5t103.5 -28q88 -25 137 -39.5t124 -49t114.5 -74.5t70.5 -105.5t31 -147.5z" glyph-name="Scedilla" horiz-adv-x="1200" unicode="Ş"/><glyph d="M856 274q0 -123 -91 -205.5t-259 -91.5l-35 -90q33 23 76 23q59 0 97 -37t38 -96q0 -76 -61.5 -122t-151.5 -46q-131 0 -207 61l39 78q72 -59 164 -59q53 0 89 23.5t36 66.5q0 68 -76 67q-47 0 -78 -34l-67 38l47 127q-217 16 -348 154l79 111q51 -59 140.5 -100.5 t185.5 -41.5q111 0 172.5 45t61.5 119q0 39 -19.5 67.5t-60.5 49t-77 33t-97 26.5q-68 16 -104 25.5t-93 33t-86 51.5t-52.5 74t-23.5 105q0 121 99.5 203t269.5 82q223 0 366 -144l-71 -106q-104 125 -295 125q-100 0 -159.5 -41t-59.5 -109q0 -66 60.5 -97.5t180.5 -59.5 q68 -14 107 -25.5t96 -36t89 -54.5t55.5 -79.5t23.5 -112.5z" glyph-name="scedilla" horiz-adv-x="952" unicode="ş"/><glyph d="M516 1481l-201 295h105l170 -217l164 217h104l-194 -295h-148zM78 193l100 129q174 -195 430 -195q166 0 244 70.5t78 164.5q0 47 -20.5 85t-47 61.5t-81 47.5t-90.5 34t-107 31q-90 25 -135.5 38t-120 45.5t-111.5 68.5t-66.5 96.5t-29.5 138.5q0 168 133 273t336 105 q305 0 485 -190l-102 -125q-150 164 -395 164q-123 0 -202 -60.5t-79 -156.5q0 -39 20.5 -72t44 -53.5t78 -41t86 -30.5t103.5 -28q88 -25 137 -39.5t124 -49t114.5 -74.5t70.5 -105.5t31 -147.5q0 -168 -124 -285t-380 -117q-331 1 -524 218z" glyph-name="Scaron" horiz-adv-x="1200" unicode="Š"/><glyph d="M389 1139l-201 295h105l170 -217l164 217h104l-194 -295h-148zM68 131l79 111q51 -59 140.5 -100.5t185.5 -41.5q111 0 172.5 45t61.5 119q0 39 -19.5 67.5t-60.5 49t-77 33t-97 26.5q-68 16 -104 25.5t-93 33t-86 51.5t-52.5 74t-23.5 105q0 121 99.5 203t269.5 82 q223 0 366 -144l-71 -106q-104 125 -295 125q-100 0 -159.5 -41t-59.5 -109q0 -66 60.5 -97.5t180.5 -59.5q68 -14 107 -25.5t96 -36t89 -54.5t55.5 -79t23.5 -113q0 -131 -102.5 -215t-286.5 -84q-252 0 -399 156z" glyph-name="scaron" horiz-adv-x="952" unicode="š"/><glyph d="M498 0v1214h-432v152h1036v-152h-434v-1214h-170zM549 -557l-68 53q47 31 81 81t38 95q-4 -4 -22 -4q-37 0 -61.5 25.5t-24.5 64.5q0 41 27.5 69t66.5 28q45 0 76.5 -37t31.5 -101q0 -80 -41 -153.5t-104 -120.5z" glyph-name="Tcommaaccent" horiz-adv-x="1167" unicode="Ţ"/><glyph d="M403 -25q-109 0 -164 59.5t-55 172.5v647h-164v135h164v271h154v-271h201v-135h-201v-614q0 -57 25.5 -92t74.5 -35q68 0 105 41l45 -115q-68 -64 -185 -64zM270 -557l-67 53q47 31 80.5 81t38.5 95q-4 -4 -23 -4q-37 0 -61.5 25.5t-24.5 64.5q0 41 27.5 69t66.5 28 q45 0 77 -37t32 -101q0 -80 -41.5 -153.5t-104.5 -120.5z" glyph-name="tcommaaccent" horiz-adv-x="602" unicode="ţ"/><glyph d="M510 1481l-201 295h105l170 -217l164 217h104l-195 -295h-147zM498 0v1214h-432v152h1036v-152h-434v-1214h-170z" glyph-name="Tcaron" horiz-adv-x="1167" unicode="Ť"/><glyph d="M520 1112l-65 51q45 31 78.5 81t37.5 95h-10q-8 -2 -12 -2q-37 0 -61.5 26t-24.5 64.5t27.5 66.5t66.5 28q45 0 77 -37t32 -99q0 -82 -41.5 -155.5t-104.5 -118.5zM403 -25q-109 0 -164 59.5t-55 172.5v647h-164v135h164v271h154v-271h201v-135h-201v-614q0 -57 25.5 -92 t74.5 -35q68 0 105 41l45 -115q-68 -64 -185 -64z" glyph-name="tcaron" horiz-adv-x="641" unicode="ť"/><glyph d="M1102 1214h-434v-514h309v-98h-309v-602h-170v602h-308v98h308v514h-432v152h1036v-152z" glyph-name="Tbar" horiz-adv-x="1167" unicode="Ŧ"/><glyph d="M543 154l45 -115q-68 -63 -185 -64q-109 0 -164 59.5t-55 172.5v256h-164v98h164v293h-164v135h164v271h154v-271h201v-135h-201v-293h143v-98h-143v-223q0 -57 25.5 -92t74.5 -35q68 0 105 41z" glyph-name="tbar" horiz-adv-x="602" unicode="ŧ"/><glyph d="M684 1585q-51 80 -96 80q-43 0 -71 -44t-28 -132h-92q0 123 52.5 198.5t146.5 75.5q39 0 70.5 -19.5t45 -35.5t38.5 -53q20 -31 29 -42t28.5 -24.5t40.5 -13.5q43 0 70.5 44t27.5 132h92q0 -123 -52 -198.5t-146 -75.5q-39 0 -71 18t-46 36.5t-39 53.5zM160 530v836h170 v-831q0 -190 100 -299t286.5 -109t287 108.5t100.5 299.5v831h170v-834q0 -260 -142.5 -408.5t-415 -148.5t-414.5 148.5t-142 406.5z" glyph-name="Utilde" horiz-adv-x="1433" unicode="Ũ"/><glyph d="M530 1243q-51 80 -96 80q-43 0 -70.5 -44t-27.5 -132h-92q0 123 52 198.5t146 75.5q39 0 71 -19.5t45 -35.5t38 -53q20 -31 29.5 -42t29 -24.5t39.5 -13.5q43 0 71 44t28 132h92q0 -123 -52.5 -198.5t-146.5 -75.5q-39 0 -70.5 18t-46 36.5t-39.5 53.5zM821 0v139 q-61 -70 -154.5 -117t-197.5 -47q-315 0 -315 316v698h153v-651q0 -123 56.5 -174t164.5 -51q86 0 167 43t126 106v727h154v-989h-154z" glyph-name="utilde" horiz-adv-x="1128" unicode="ũ"/><glyph d="M401 1513v99h629v-99h-629zM160 530v836h170v-831q0 -190 100 -299t286.5 -109t287 108.5t100.5 299.5v831h170v-834q0 -260 -142.5 -408.5t-415 -148.5t-414.5 148.5t-142 406.5z" glyph-name="Umacron" horiz-adv-x="1433" unicode="Ū"/><glyph d="M248 1171v99h629v-99h-629zM821 0v139q-61 -70 -154.5 -117t-197.5 -47q-315 0 -315 316v698h153v-651q0 -123 56.5 -174t164.5 -51q86 0 167 43t126 106v727h154v-989h-154z" glyph-name="umacron" horiz-adv-x="1128" unicode="ū"/><glyph d="M717 1468q-223 0 -361 181l76 65q106 -147 285 -147q180 0 282 147l76 -65q-133 -181 -358 -181zM160 530v836h170v-831q0 -190 100 -299t286.5 -109t287 108.5t100.5 299.5v831h170v-834q0 -260 -142.5 -408.5t-415 -148.5t-414.5 148.5t-142 406.5z" glyph-name="Ubreve" horiz-adv-x="1433" unicode="Ŭ"/><glyph d="M563 1126q-223 0 -360 181l76 65q106 -147 284 -147q180 0 283 147l76 -65q-134 -181 -359 -181zM821 0v139q-61 -70 -154.5 -117t-197.5 -47q-315 0 -315 316v698h153v-651q0 -123 56.5 -174t164.5 -51q86 0 167 43t126 106v727h154v-989h-154z" glyph-name="ubreve" horiz-adv-x="1128" unicode="ŭ"/><glyph d="M518 1655q0 84 59.5 143.5t141.5 59.5t141.5 -59.5t59.5 -143.5q0 -82 -58.5 -141.5t-142.5 -59.5t-142.5 59.5t-58.5 141.5zM838 1655q0 51 -34 86t-85 35q-49 0 -84 -35t-35 -86q0 -49 35 -85t84 -36t84 36t35 85zM160 530v836h170v-831q0 -190 100 -299t286.5 -109 t287 108.5t100.5 299.5v831h170v-834q0 -260 -142.5 -408.5t-415 -148.5t-414.5 148.5t-142 406.5z" glyph-name="Uring" horiz-adv-x="1433" unicode="Ů"/><glyph d="M365 1313q0 84 59 143.5t141 59.5t141.5 -59.5t59.5 -143.5t-59.5 -142.5t-141.5 -58.5t-141 58.5t-59 142.5zM684 1313q0 51 -34 86t-85 35q-49 0 -84 -35t-35 -86q0 -49 35 -85t84 -36t84 36t35 85zM821 0v139q-61 -70 -154.5 -117t-197.5 -47q-315 0 -315 316v698h153 v-651q0 -123 56.5 -174t164.5 -51q86 0 167 43t126 106v727h154v-989h-154z" glyph-name="uring" horiz-adv-x="1128" unicode="ů"/><glyph d="M614 1481h-98l193 295h141zM905 1481h-98l192 295h142zM160 530v836h170v-831q0 -190 100 -299t286.5 -109t287 108.5t100.5 299.5v831h170v-834q0 -260 -142.5 -408.5t-415 -148.5t-414.5 148.5t-142 406.5z" glyph-name="Uhungarumlaut" horiz-adv-x="1433" unicode="Ű"/><glyph d="M461 1139h-99l193 295h141zM752 1139h-99l193 295h141zM821 0v139q-61 -70 -154.5 -117t-197.5 -47q-315 0 -315 316v698h153v-651q0 -123 56.5 -174t164.5 -51q86 0 167 43t126 106v727h154v-989h-154z" glyph-name="uhungarumlaut" horiz-adv-x="1128" unicode="ű"/><glyph d="M160 530v836h170v-831q0 -190 100 -299t286.5 -109t287 108.5t100.5 299.5v831h170v-834q0 -408 -324 -522q-109 -37 -169 -90t-60 -113q0 -37 24.5 -58t61.5 -21q33 0 67 18l39 -92q-53 -35 -139 -35q-82 0 -141.5 40t-59.5 114q0 117 170 202h-26q-272 0 -414.5 148.5 t-142.5 406.5z" glyph-name="Uogonek" horiz-adv-x="1433" unicode="Ų"/><glyph d="M821 989h154v-989q-193 -82 -193 -193q0 -37 24.5 -58t61.5 -21q35 0 66 18l41 -92q-55 -35 -139 -35q-82 0 -141.5 40t-59.5 114q0 66 58.5 125t152.5 102h-25v139q-61 -70 -154.5 -117t-197.5 -47q-315 0 -315 316v698h153v-651q0 -123 56.5 -174t164.5 -51 q86 0 167 43t126 106v727z" glyph-name="uogonek" horiz-adv-x="1128" unicode="ų"/><glyph d="M1073 1481l-170 217l-164 -217h-104l194 295h148l201 -295h-105zM1204 0l-301 1102l-301 -1102h-184l-389 1366h188l303 -1139l314 1139h141l313 -1139l301 1139h189l-389 -1366h-185z" glyph-name="Wcircumflex" horiz-adv-x="1808" unicode="Ŵ"/><glyph d="M922 1139l-170 217l-164 -217h-105l195 295h147l201 -295h-104zM1010 0l-258 795l-258 -795h-154l-315 989h159l242 -788l260 788h131l260 -788l242 788h160l-316 -989h-153z" glyph-name="wcircumflex" horiz-adv-x="1503" unicode="ŵ"/><glyph d="M811 1481l-170 217l-164 -217h-104l194 295h148l200 -295h-104zM557 0v578l-539 788h199l424 -635l424 635h199l-537 -788v-578h-170z" glyph-name="Ycircumflex" horiz-adv-x="1282" unicode="Ŷ"/><glyph d="M672 1139l-170 217l-164 -217h-105l195 295h147l201 -295h-104zM123 -248q37 -16 84 -16q53 0 88 22.5t59 81.5l66 150l-414 999h166l330 -811l327 811h168l-495 -1190q-82 -197 -291 -200q-63 0 -113 14z" glyph-name="ycircumflex" horiz-adv-x="1003" unicode="ŷ"/><glyph d="M430 1501q-39 0 -66.5 29t-27.5 67.5t27.5 66.5t66.5 28t66.5 -28t27.5 -67q0 -41 -27.5 -68.5t-66.5 -27.5zM854 1501q-39 0 -67.5 27.5t-28.5 68.5q0 39 28.5 67t67.5 28t66.5 -28t27.5 -66.5t-27.5 -67.5t-66.5 -29zM557 0v578l-539 788h199l424 -635l424 635h199 l-537 -788v-578h-170z" glyph-name="Ydieresis" horiz-adv-x="1282" unicode="Ÿ"/><glyph d="M653 1481h-116l303 295h159zM98 0v141l768 1073h-768v152h985v-141l-768 -1073h783v-152h-1000z" glyph-name="Zacute" horiz-adv-x="1198" unicode="Ź"/><glyph d="M537 1139h-117l303 295h160zM106 0v119l545 735h-545v135h746v-117l-549 -739h557v-133h-754z" glyph-name="zacute" horiz-adv-x="966" unicode="ź"/><glyph d="M504 1593q0 39 28.5 68t67.5 29t66.5 -28t27.5 -69t-27.5 -68.5t-66.5 -27.5t-67.5 28.5t-28.5 67.5zM98 0v141l768 1073h-768v152h985v-141l-768 -1073h783v-152h-1000z" glyph-name="Zdotaccent" horiz-adv-x="1198" unicode="Ż"/><glyph d="M387 1251q0 39 28.5 68t67.5 29t67 -28t28 -69t-28 -68.5t-67 -27.5t-67.5 28.5t-28.5 67.5zM106 0v119l545 735h-545v135h746v-117l-549 -739h557v-133h-754z" glyph-name="zdotaccent" horiz-adv-x="966" unicode="ż"/><glyph d="M526 1481l-200 295h104l170 -217l164 217h104l-194 -295h-148zM98 0v141l768 1073h-768v152h985v-141l-768 -1073h783v-152h-1000z" glyph-name="Zcaron" horiz-adv-x="1198" unicode="Ž"/><glyph d="M410 1139l-201 295h104l170 -217l164 217h105l-195 -295h-147zM106 0v119l545 735h-545v135h746v-117l-549 -739h557v-133h-754z" glyph-name="zcaron" horiz-adv-x="966" unicode="ž"/><glyph d="M197 0v854h-164v135h164v76q0 152 77.5 236.5t208.5 84.5q94 0 150 -34l-39 -115q-39 23 -88 23q-76 0 -116 -50.5t-40 -144.5v-1065h-153z" glyph-name="longs" horiz-adv-x="579" unicode="ſ"/><glyph d="M723 1389q297 0 499.5 -197t202.5 -510t-194.5 -511t-480.5 -198q-313 0 -491.5 206t-178.5 552h1167q-14 223 -162.5 364.5t-361.5 141.5q-121 0 -224.5 -51t-170.5 -137l-135 84q202 256 530 256zM737 125q197 0 335 126t167 329h-975q20 -199 145 -327t328 -128z" glyph-name="uni018F" horiz-adv-x="1529" unicode="Ə"/><glyph d="M51 -330l189 850h-140v139h168l94 418q31 143 127.5 226t229.5 83q121 0 192 -73l-75 -125q-37 47 -103 47q-74 0 -129 -50t-76 -138l-86 -388h285v-139h-315l-189 -850h-172z" glyph-name="florin" horiz-adv-x="882" unicode="ƒ"/><glyph d="M1120 1366h170v-1366h-164l-796 1102v-1067q0 -213 -121 -324.5t-313 -111.5q-66 0 -109 10l12 153q37 -12 86 -12q125 0 200 79t75 208v1329h174l786 -1079v1079z" glyph-name="uni019D" horiz-adv-x="1449" unicode="Ɲ"/><glyph d="M1473 1360q0 -76 -37 -144.5t-97 -113.5q121 -178 121 -420q0 -305 -189.5 -506t-488.5 -201q-301 0 -489.5 201t-188.5 506t188.5 506t489.5 201q317 0 512 -226q82 68 92 156q-4 -4 -22 -4q-35 0 -57.5 24.5t-22.5 59.5q0 37 24.5 63.5t61.5 26.5q43 0 73 -35t30 -94z M782 127q225 0 363.5 156.5t138.5 398.5q0 244 -138 399.5t-364 155.5q-227 0 -364 -155.5t-137 -399.5q0 -242 137 -398.5t364 -156.5z" glyph-name="Ohorn" horiz-adv-x="1566" unicode="Ơ"/><glyph d="M1079 1085q0 -70 -32.5 -135t-85.5 -108q115 -143 114 -346q0 -221 -134 -371t-355 -150t-355.5 149.5t-134.5 371t134.5 370t355.5 148.5q193 0 321 -117q76 66 86 147l-22 -2q-35 0 -58.5 24t-23.5 60q0 35 25.5 61.5t62.5 26.5q43 0 72.5 -35t29.5 -94zM585.5 113 q151.5 0 239.5 111.5t88 271t-88 270.5t-239.5 111t-240.5 -112t-89 -269q0 -160 89 -271.5t240.5 -111.5z" glyph-name="ohorn" unicode="ơ"/><glyph d="M1511 1491q0 -98 -64.5 -184t-172.5 -129v-646q0 -260 -142.5 -408.5t-415 -148.5t-414.5 148.5t-142 406.5v836h170v-831q0 -190 100 -299t286.5 -109t287 108.5t100.5 299.5v831h170v-109q61 31 104 84.5t45 108.5h-10q-8 -2 -12 -2q-35 0 -57.5 23.5t-22.5 60.5 t25.5 62.5t62.5 25.5q43 0 72.5 -35t29.5 -94z" glyph-name="Uhorn" horiz-adv-x="1433" unicode="Ư"/><glyph d="M1167 1098q0 -88 -52 -167t-140 -126v-805h-154v139q-61 -70 -154.5 -117t-197.5 -47q-315 0 -315 316v698h153v-651q0 -123 56.5 -174t164.5 -51q86 0 167 43t126 106v727h154v-98q98 74 104 166l-22 -2q-35 0 -58.5 23.5t-23.5 60.5q0 35 25.5 61.5t62.5 26.5 q43 0 73.5 -35t30.5 -94z" glyph-name="uhorn" horiz-adv-x="1128" unicode="ư"/><glyph d="M731 1481l-201 295h105l170 -217l164 217h104l-194 -295h-148zM104 682q0 313 203 510t500 197q324 0 530 -256l-135 -84q-66 86 -171 137t-224 51q-225 0 -375.5 -156.5t-150.5 -398.5t150.5 -399.5t375.5 -157.5q113 0 210 44t157 103v279h-469v151h638v-493 q-211 -236 -536 -236q-297 0 -500 198t-203 511z" glyph-name="Gcaron" horiz-adv-x="1460" unicode="Ǧ"/><glyph d="M520 1139l-201 295h105l170 -217l164 217h104l-194 -295h-148zM152 -254l77 115q113 -135 322 -135q137 0 227 72.5t90 224.5v141q-55 -78 -143 -127t-188 -49q-197 0 -319 138t-122 373.5t122 375t319 139.5q203 0 331 -174v149h154v-960q0 -227 -133 -328.5 t-338 -101.5q-131 0 -223 31.5t-176 115.5zM868 285v432q-41 68 -122.5 114t-172.5 46q-147 0 -232 -104.5t-85 -272.5q0 -166 86 -271.5t231 -105.5q88 0 171 47t124 115z" glyph-name="gcaron" horiz-adv-x="1175" unicode="ǧ"/><glyph d="M940 -8q-174 -78 -174 -185q0 -37 24.5 -58t61.5 -21q35 0 66 18l40 -92q-55 -35 -139 -35q-82 0 -141.5 40t-59.5 114q0 111 162 202q-299 0 -487.5 201t-188.5 506t188.5 506t489.5 201q299 0 488.5 -201t189.5 -506q0 -262 -142 -450.5t-378 -239.5zM281 682 q0 -242 137 -398.5t364 -156.5q225 0 363.5 156.5t138.5 398.5q0 244 -138 399.5t-364 155.5q-227 0 -364 -155.5t-137 -399.5z" glyph-name="uni01EA" horiz-adv-x="1566" unicode="Ǫ"/><glyph d="M725 -6q-178 -82 -178 -187q0 -37 24.5 -58t61.5 -21q35 0 65 18l41 -92q-55 -35 -139 -35q-82 0 -141.5 40t-59.5 114q0 115 164 202q-211 8 -339 157t-128 364q0 221 134.5 369.5t355.5 148.5t355 -148.5t134 -369.5q0 -182 -94 -320.5t-256 -181.5zM256 496 q0 -160 89 -271.5t240.5 -111.5t239.5 111.5t88 271t-88 270.5t-239.5 111t-240.5 -111.5t-89 -269.5z" glyph-name="uni01EB" unicode="ǫ"/><glyph d="M725 1915h-117l303 295h160zM473 1655q0 84 59.5 143.5t141.5 59.5t141 -59.5t59 -143.5q0 -82 -58 -141.5t-142 -59.5t-142.5 59.5t-58.5 141.5zM793 1655q0 51 -34 86t-85 35q-49 0 -84 -35t-35 -86q0 -49 35 -85t84 -36t84 36t35 85zM1141 0l-121 303h-692l-121 -303 h-189l549 1366h211l551 -1366h-188zM674 1214l-297 -759h592z" glyph-name="Aringacute" horiz-adv-x="1347" unicode="Ǻ"/><glyph d="M598 1573h-117l303 295h160zM344 1313q0 84 59.5 143.5t141.5 59.5t141 -59.5t59 -143.5t-59 -142.5t-141 -58.5t-141.5 58.5t-59.5 142.5zM664 1313q0 51 -34 86t-85 35q-49 0 -84 -35t-35 -86q0 -49 35 -85t84 -36t84 36t35 85zM772 0v113q-125 -137 -328 -138 q-137 0 -241.5 88.5t-104.5 239.5q0 156 103.5 241t242.5 85q211 0 328 -135v178q0 98 -69.5 153.5t-180.5 55.5q-174 0 -303 -138l-72 107q158 164 396 164q170 0 276.5 -82t106.5 -252v-680h-154zM772 209v186q-88 123 -272 123q-106 0 -175 -60.5t-69 -156.5 q0 -94 68.5 -154.5t175.5 -60.5q184 0 272 123z" glyph-name="aringacute" horiz-adv-x="1079" unicode="ǻ"/><glyph d="M1069 1481h-117l303 295h160zM934 0v303h-545l-186 -303h-189l852 1366h963v-152h-725v-440h711v-151h-711v-471h725v-152h-895zM934 1214l-461 -759h461v759z" glyph-name="AEacute" horiz-adv-x="1939" unicode="Ǽ"/><glyph d="M956 1139h-116l303 295h160zM975 444q10 -145 98 -241.5t232 -96.5q172 0 284 125l74 -104q-147 -152 -365 -152q-279 0 -395 238q-53 -106 -162.5 -172t-244.5 -66q-168 0 -283 87.5t-115 241t105.5 239.5t259.5 86q229 0 358 -131v176q0 96 -74.5 151.5t-197.5 55.5 q-193 0 -330 -138l-72 107q162 164 420 164q131 0 227.5 -53.5t123.5 -161.5q123 215 366 215q207 0 324.5 -149.5t117.5 -381.5v-39h-751zM1575 557q-2 129 -78 229.5t-223 100.5q-135 0 -214 -101.5t-85 -228.5h600zM821 393q-106 125 -297 125q-121 0 -194.5 -56 t-73.5 -151q0 -92 73.5 -148.5t194.5 -56.5q127 0 212 80t85 183v24z" glyph-name="aeacute" horiz-adv-x="1820" unicode="ǽ"/><glyph d="M1130 1776l-346 -295h-116l303 295h159zM1217 1239q117 -96 180 -240.5t63 -316.5q0 -305 -189.5 -506t-488.5 -201q-199 0 -354 93l-45 -68h-135l90 133q-233 205 -234 549q0 305 188.5 506t489.5 201q188 0 342 -86l43 63h136zM281 682q0 -256 149 -412l606 901 q-119 66 -254 66q-227 0 -364 -155.5t-137 -399.5zM782 127q225 0 363.5 156.5t138.5 398.5q0 266 -158 420l-608 -903q117 -72 264 -72z" glyph-name="Oslashacute" horiz-adv-x="1566" unicode="Ǿ"/><glyph d="M985 1434l-346 -295h-117l303 295h160zM932 872q143 -147 143 -376q0 -221 -134 -371t-355 -150q-166 0 -291 93l-53 -68h-111l98 125q-133 150 -133 371t134.5 369.5t355.5 148.5q162 0 280 -84l47 59h111zM256 496q0 -141 72 -248l446 567q-78 61 -188 62 q-152 0 -241 -111.5t-89 -269.5zM586 113q152 0 239.5 111.5t87.5 271.5q0 150 -77 256l-451 -570q86 -69 201 -69z" glyph-name="oslashacute" unicode="ǿ"/><glyph d="M78 193l100 129q174 -195 430 -195q166 0 244 70.5t78 164.5q0 47 -20.5 85t-47 61.5t-81 47.5t-90.5 34t-107 31q-90 25 -135.5 38t-120 45.5t-111.5 68.5t-66.5 96.5t-29.5 138.5q0 168 133 273t336 105q305 0 485 -190l-102 -125q-150 164 -395 164q-123 0 -202 -60.5 t-79 -156.5q0 -39 20.5 -72t44 -53.5t78 -41t86 -30.5t103.5 -28q88 -25 137 -39.5t124 -49t114.5 -74.5t70.5 -105.5t31 -147.5q0 -168 -124 -285t-380 -117q-331 1 -524 218zM555 -557l-68 53q47 31 81 81t38 95q-4 -4 -22 -4q-37 0 -61.5 25.5t-24.5 64.5q0 41 27.5 69 t66.5 28q45 0 76.5 -37t31.5 -101q0 -80 -41 -153.5t-104 -120.5z" glyph-name="Scommaaccent" horiz-adv-x="1200" unicode="Ș"/><glyph d="M68 131l79 111q51 -59 140.5 -100.5t185.5 -41.5q111 0 172.5 45t61.5 119q0 39 -19.5 67.5t-60.5 49t-77 33t-97 26.5q-68 16 -104 25.5t-93 33t-86 51.5t-52.5 74t-23.5 105q0 121 99.5 203t269.5 82q223 0 366 -144l-71 -106q-104 125 -295 125q-100 0 -159.5 -41 t-59.5 -109q0 -66 60.5 -97.5t180.5 -59.5q68 -14 107 -25.5t96 -36t89 -54.5t55.5 -79t23.5 -113q0 -131 -102.5 -215t-286.5 -84q-252 0 -399 156zM426 -557l-68 53q47 31 81 81t38 95q-4 -4 -22 -4q-37 0 -61.5 25.5t-24.5 64.5q0 41 27.5 69t66.5 28q45 0 76.5 -37 t31.5 -101q0 -80 -41 -153.5t-104 -120.5z" glyph-name="scommaaccent" horiz-adv-x="952" unicode="ș"/><glyph d="M498 0v1214h-432v152h1036v-152h-434v-1214h-170zM549 -557l-68 53q47 31 81 81t38 95q-4 -4 -22 -4q-37 0 -61.5 25.5t-24.5 64.5q0 41 27.5 69t66.5 28q45 0 76.5 -37t31.5 -101q0 -80 -41 -153.5t-104 -120.5z" glyph-name="uni021A" horiz-adv-x="1167" unicode="Ț"/><glyph d="M403 -25q-109 0 -164 59.5t-55 172.5v647h-164v135h164v271h154v-271h201v-135h-201v-614q0 -57 25.5 -92t74.5 -35q68 0 105 41l45 -115q-68 -64 -185 -64zM270 -557l-67 53q47 31 80.5 81t38.5 95q-4 -4 -23 -4q-37 0 -61.5 25.5t-24.5 64.5q0 41 27.5 69t66.5 28 q45 0 77 -37t32 -101q0 -80 -41.5 -153.5t-104.5 -120.5z" glyph-name="uni021B" horiz-adv-x="602" unicode="ț"/><glyph d="M326 1513v99h628v-99h-628zM557 0v578l-539 788h199l424 -635l424 635h199l-537 -788v-578h-170z" glyph-name="uni0232" horiz-adv-x="1282" unicode="Ȳ"/><glyph d="M186 1171v99h629v-99h-629zM123 -248q37 -16 84 -16q53 0 88 22.5t59 81.5l66 150l-414 999h166l330 -811l327 811h168l-495 -1190q-82 -197 -291 -200q-63 0 -113 14z" glyph-name="uni0233" horiz-adv-x="1003" unicode="ȳ"/><glyph d="M-94 -387l20 129q27 -10 74 -10q154 0 154 172v1085h153v-1085q0 -145 -75.5 -225t-215.5 -80q-65 0 -110 14z" glyph-name="uni0237" horiz-adv-x="460" unicode="ȷ"/><glyph d="M1057 494q0 -217 -139.5 -368t-348.5 -151q-219 0 -347 150.5t-128 380.5v39h799q-10 145 -105.5 243.5t-248.5 98.5q-182 0 -308 -125l-73 100q156 152 393 152q221 0 363.5 -144.5t142.5 -375.5zM569 102q147 0 233.5 100.5t92.5 229.5h-649q2 -127 85.5 -228.5 t237.5 -101.5z" glyph-name="uni0259" horiz-adv-x="1153" unicode="ə"/><glyph d="M659 1014q315 0 316 -320v-694h-154v647q0 125 -57 177.5t-164 52.5q-86 0 -167 -45.5t-126 -108.5v-819q0 -145 -75.5 -225t-215.5 -80q-66 0 -110 14l20 129q27 -10 74 -10q154 0 154 172v1085h153v-143q57 68 153.5 118t198.5 50z" glyph-name="uni0272" horiz-adv-x="1128" unicode="ɲ"/><glyph d="M573 668v413q0 147 -145 148q-111 0 -188 -94v-467h-117v888h117v-337q96 109 237 108q215 0 215 -219v-440h-119z" glyph-name="uni02B0" horiz-adv-x="815" unicode="ʰ"/><glyph d="M193 922l-76 63q49 33 88 87t45 104q-8 -4 -29 -5q-43 0 -70.5 30t-27.5 75t31.5 77.5t76.5 32.5q53 0 91 -41.5t38 -113.5q0 -90 -46.5 -173t-120.5 -136z" glyph-name="afii57929" horiz-adv-x="471" unicode="ʼ"/><glyph d="M438 1139l-170 217l-164 -217h-104l195 295h147l201 -295h-105z" glyph-name="circumflex" horiz-adv-x="542" unicode="ˆ"/><glyph d="M201 1139l-201 295h104l170 -217l164 217h105l-195 -295h-147z" glyph-name="caron" horiz-adv-x="542" unicode="ˇ"/><glyph d="M57 1210v99h629v-99h-629z" glyph-name="uni02C9" horiz-adv-x="743" unicode="ˉ"/><glyph d="M346 1139l-346 295h160l303 -295h-117z" glyph-name="uni02CB" horiz-adv-x="462" unicode="ˋ"/><glyph d="M360 1126q-223 0 -360 181l76 65q106 -147 284 -147q180 0 283 147l76 -65q-134 -181 -359 -181z" glyph-name="breve" horiz-adv-x="718" unicode="˘"/><glyph d="M35 1251q0 39 28.5 68t67.5 29t66.5 -28t27.5 -69t-27.5 -68.5t-66.5 -27.5t-67.5 28.5t-28.5 67.5z" glyph-name="dotaccent" horiz-adv-x="260" unicode="˙"/><glyph d="M41 1313q0 84 59.5 143.5t141.5 59.5t141 -59.5t59 -143.5t-59 -142.5t-141 -58.5t-141.5 58.5t-59.5 142.5zM360 1313q0 51 -33.5 86t-84.5 35q-49 0 -84 -35t-35 -86q0 -49 35 -85t84 -36t83.5 36t34.5 85z" glyph-name="ring" horiz-adv-x="483" unicode="˚"/><glyph d="M369 -346q-55 -35 -140 -35q-82 0 -141 40t-59 114q0 72 66.5 134t172.5 105l101 -12q-193 -82 -193 -193q0 -37 24.5 -58t61.5 -21q35 0 66 18z" glyph-name="ogonek" horiz-adv-x="397" unicode="˛"/><glyph d="M287 1243q-51 80 -97 80q-43 0 -70.5 -44t-27.5 -132h-92q0 123 52 198.5t147 75.5q39 0 70.5 -19.5t45 -35.5t37.5 -53q20 -31 29.5 -42t29 -24.5t40.5 -13.5q43 0 70.5 44t27.5 132h92q0 -123 -52 -198.5t-147 -75.5q-39 0 -70.5 18t-45.5 36.5t-39 53.5z" glyph-name="tilde" horiz-adv-x="641" unicode="˜"/><glyph d="M98 1139h-98l193 295h141zM389 1139h-98l192 295h142z" glyph-name="hungarumlaut" horiz-adv-x="624" unicode="˝"/><glyph d="M-117 1139l-346 295h160l303 -295h-117z" glyph-name="gravecomb" horiz-adv-x="0" unicode="̀"/><glyph d="M-346 1139h-117l303 295h160z" glyph-name="acutecomb" horiz-adv-x="0" unicode="́"/><glyph d="M-104 1139l-170 217l-164 -217h-105l195 295h147l201 -295h-104z" glyph-name="uni0302" horiz-adv-x="0" unicode="̂"/><glyph d="M-354 1243q-51 80 -97 80q-43 0 -70.5 -44t-27.5 -132h-92q0 123 52 198.5t147 75.5q39 0 70.5 -19.5t45 -35.5t37.5 -53q20 -31 29.5 -42t29 -24.5t40.5 -13.5q43 0 70.5 44t27.5 132h92q0 -123 -52 -198.5t-147 -75.5q-39 0 -70.5 18t-45.5 36.5t-39 53.5z" glyph-name="tildecomb" horiz-adv-x="0" unicode="̃"/><glyph d="M-686 1171v99h629v-99h-629z" glyph-name="uni0304" horiz-adv-x="0" unicode="̄"/><glyph d="M-358 1126q-223 0 -361 181l76 65q106 -147 285 -147q180 0 282 147l76 -65q-133 -181 -358 -181z" glyph-name="uni0306" horiz-adv-x="0" unicode="̆"/><glyph d="M-225 1251q0 39 28.5 68t67.5 29t66.5 -28t27.5 -69t-27.5 -68.5t-66.5 -27.5t-67.5 28.5t-28.5 67.5z" glyph-name="uni0307" horiz-adv-x="0" unicode="̇"/><glyph d="M-635 1159q-39 0 -66.5 29t-27.5 67.5t27.5 66.5t66.5 28t66.5 -28t27.5 -67q0 -41 -27.5 -68.5t-66.5 -27.5zM-211 1159q-39 0 -67.5 29t-28.5 67.5t28.5 66.5t67.5 28t66.5 -28t27.5 -66.5t-27.5 -67.5t-66.5 -29z" glyph-name="uni0308" horiz-adv-x="0" unicode="̈"/><glyph d="M-383 1323q20 63 71.5 103t123.5 40q80 0 134 -46t54 -138q0 -70 -49 -141h-105q59 66 60 139q0 102 -94 102q-78 0 -109 -86z" glyph-name="hookabovecomb" horiz-adv-x="0" unicode="̉"/><glyph d="M-442 1313q0 84 59 143.5t141 59.5t141.5 -59.5t59.5 -143.5t-59.5 -142.5t-141.5 -58.5t-141 58.5t-59 142.5zM-123 1313q0 51 -33.5 86t-85.5 35q-49 0 -83.5 -35t-34.5 -86q0 -49 34.5 -85t83.5 -36t84 36t35 85z" glyph-name="uni030A" horiz-adv-x="0" unicode="̊"/><glyph d="M-526 1139h-99l193 295h141zM-236 1139h-98l193 295h141z" glyph-name="uni030B" horiz-adv-x="0" unicode="̋"/><glyph d="M-342 1139l-201 295h105l170 -217l164 217h104l-195 -295h-147z" glyph-name="uni030C" horiz-adv-x="0" unicode="̌"/><glyph d="M-274 -557l-68 53q47 31 81 81t38 95q-4 -4 -23 -4q-37 0 -61.5 25.5t-24.5 64.5q0 41 28 69t66 28q45 0 77 -37t32 -101q0 -80 -41 -153.5t-104 -120.5z" glyph-name="uni0326" horiz-adv-x="0" unicode="̦"/><glyph d="M-420 -330l39 78q72 -59 164 -59q53 0 89 23.5t36 66.5q0 68 -76 67q-47 0 -78 -34l-67 38l63 173h92l-53 -136q33 23 76 23q59 0 97 -37t38 -96q0 -76 -61.5 -122t-151.5 -46q-131 0 -207 61z" glyph-name="uni0327" horiz-adv-x="0" unicode="̧"/><glyph d="M-29 -346q-55 -35 -139 -35q-82 0 -141.5 40t-59.5 114q0 72 66.5 134t173.5 105l100 -12q-193 -82 -192 -193q0 -37 24.5 -58t61.5 -21q35 0 65 18z" glyph-name="uni0328" horiz-adv-x="0" unicode="̨"/><glyph d="M235.5 778q-45.5 0 -79 34t-33.5 79q0 47 32.5 80t80 33t80 -33t32.5 -80q0 -45 -33.5 -79t-79 -34zM193 -260l-76 63q51 33 89 87.5t44 103.5q-8 -4 -29 -4q-43 0 -70.5 29.5t-27.5 74.5t31.5 78t76.5 33q53 0 91 -42t38 -114q0 -90 -46.5 -173t-120.5 -136z" glyph-name="uni037E" horiz-adv-x="471" unicode=";"/><glyph d="M29 1176l39 409h155l-117 -409h-77z" glyph-name="tonos" horiz-adv-x="251" unicode="΄"/><glyph d="M332 1176l39 409h157l-116 -409h-80zM125 1159q-39 0 -67.5 29t-28.5 67.5t28.5 66.5t67.5 28t66.5 -28t27.5 -66.5t-27.5 -67.5t-66.5 -29zM674 1159q-39 0 -66.5 29t-27.5 67.5t27.5 66.5t66.5 28t67.5 -28t28.5 -66.5t-28.5 -67.5t-67.5 -29z" glyph-name="dieresistonos" horiz-adv-x="798" unicode="΅"/><glyph d="M262 1176l39 409h156l-117 -409h-78zM1141 0l-121 303h-692l-121 -303h-189l549 1366h211l551 -1366h-188zM674 1214l-297 -759h592z" glyph-name="Alphatonos" horiz-adv-x="1347" unicode="Ά"/><glyph d="M-76 1176l39 409h156l-117 -409h-78zM160 0v1366h895v-152h-725v-440h710v-151h-710v-471h725v-152h-895z" glyph-name="Epsilontonos" horiz-adv-x="1165" unicode="Έ"/><glyph d="M-37 1176l39 409h156l-117 -409h-78zM1167 0v627h-798v-627h-170v1366h170v-588h798v588h170v-1366h-170z" glyph-name="Etatonos" horiz-adv-x="1497" unicode="Ή"/><glyph d="M-37 1176l39 409h156l-117 -409h-78zM199 0v1366h170v-1366h-170z" glyph-name="Iotatonos" horiz-adv-x="528" unicode="Ί"/><glyph d="M12 1176l39 409h156l-117 -409h-78zM82 682q0 305 189.5 506t488.5 201t489.5 -201t190.5 -506t-190.5 -506t-489.5 -201t-488.5 201t-189.5 506zM1264 682q0 242 -139.5 398.5t-364.5 156.5q-227 0 -364.5 -155.5t-137.5 -399.5q0 -242 137 -398.5t365 -156.5 q225 0 364.5 156.5t139.5 398.5z" glyph-name="Omicrontonos" horiz-adv-x="1544" unicode="Ό"/><glyph d="M-37 1176l39 409h156l-117 -409h-78zM668 0v578l-539 788h199l424 -635l424 635h198l-536 -788v-578h-170z" glyph-name="Upsilontonos" horiz-adv-x="1392" unicode="Ύ"/><glyph d="M35 1176l39 409h155l-116 -409h-78zM418 152q-313 188 -314 561q0 297 188.5 486.5t489.5 189.5q303 0 490.5 -189.5t187.5 -486.5q0 -373 -309 -561h274v-152h-491v152q145 37 247.5 178t102.5 354q0 236 -133 393.5t-368.5 157.5t-368.5 -157.5t-133 -393.5 q0 -213 103 -354.5t249 -177.5v-152h-492v152h277z" glyph-name="Omegatonos" horiz-adv-x="1566" unicode="Ώ"/><glyph d="M190 1176l39 409h158l-117 -409h-80zM-16 1159q-41 0 -69 29t-28 67.5t29 66.5t68 28t66.5 -28t27.5 -66.5t-27.5 -67.5t-66.5 -29zM532 1159q-39 0 -66.5 29t-27.5 67.5t28 66.5t66.5 28t67.5 -28t29 -66.5t-28 -67.5t-69 -29zM154 207v782h153v-758q0 -119 96 -118 q23 0 39 4l13 -133q-45 -8 -82 -9q-109 0 -164 59.5t-55 172.5z" glyph-name="iotadieresistonos" horiz-adv-x="489" unicode="ΐ"/><glyph d="M1141 0l-121 303h-692l-121 -303h-189l549 1366h211l551 -1366h-188zM674 1214l-297 -759h592z" glyph-name="Alpha" horiz-adv-x="1347" unicode="Α"/><glyph d="M160 0v1366h608q176 0 279.5 -96t103.5 -252q0 -123 -69.5 -208t-170.5 -105q109 -16 188 -114.5t79 -221.5q0 -166 -105.5 -267.5t-290.5 -101.5h-622zM330 774h409q113 0 174.5 61.5t61.5 158t-62.5 158.5t-173.5 62h-409v-440zM330 152h418q119 0 186 63.5t67 171.5 q0 100 -66.5 168t-186.5 68h-418v-471z" glyph-name="Beta" horiz-adv-x="1288" unicode="Β"/><glyph d="M160 0v1366h895v-152h-725v-1214h-170z" glyph-name="Gamma" horiz-adv-x="1126" unicode="Γ"/><glyph d="M18 0l549 1366h211l551 -1366h-1311zM674 1190l-412 -1038h823z" glyph-name="Delta" horiz-adv-x="1347" unicode="Δ"/><glyph d="M160 0v1366h895v-152h-725v-440h710v-151h-710v-471h725v-152h-895z" glyph-name="Epsilon" horiz-adv-x="1165" unicode="Ε"/><glyph d="M98 0v141l768 1073h-768v152h985v-141l-768 -1073h783v-152h-1000z" glyph-name="Zeta" horiz-adv-x="1198" unicode="Ζ"/><glyph d="M1128 0v627h-798v-627h-170v1366h170v-588h798v588h170v-1366h-170z" glyph-name="Eta" horiz-adv-x="1458" unicode="Η"/><glyph d="M104 682q0 305 188.5 506t489.5 201q299 0 488.5 -201t189.5 -506t-189.5 -506t-488.5 -201q-301 0 -489.5 201t-188.5 506zM1284 682q0 244 -138 399.5t-364 155.5q-227 0 -364 -155.5t-137 -399.5q0 -242 137 -398.5t364 -156.5q225 0 363.5 156.5t138.5 398.5z M401 623v151h764v-151h-764z" glyph-name="Theta" horiz-adv-x="1566" unicode="Θ"/><glyph d="M160 0v1366h170v-1366h-170z" glyph-name="Iota" horiz-adv-x="489" unicode="Ι"/><glyph d="M985 0l-518 614l-137 -155v-459h-170v1366h170v-707l604 707h213l-569 -649l618 -717h-211z" glyph-name="Kappa" horiz-adv-x="1230" unicode="Κ"/><glyph d="M1135 0l-461 1190l-461 -1190h-195l549 1366h211l551 -1366h-194z" glyph-name="Lambda" horiz-adv-x="1347" unicode="Λ"/><glyph d="M1327 0v1137l-465 -1137h-69l-463 1137v-1137h-170v1366h243l424 -1040l426 1040h244v-1366h-170z" glyph-name="Mu" horiz-adv-x="1656" unicode="Μ"/><glyph d="M1126 0l-796 1102v-1102h-170v1366h174l786 -1079v1079h170v-1366h-164z" glyph-name="Nu" horiz-adv-x="1449" unicode="Ν"/><glyph d="M113 1214v152h1034v-152h-1034zM127 623v151h1008v-151h-1008zM111 0v152h1036v-152h-1036z" glyph-name="Xi" horiz-adv-x="1259" unicode="Ξ"/><glyph d="M104 682q0 305 188.5 506t489.5 201q299 0 488.5 -201t189.5 -506t-189.5 -506t-488.5 -201q-301 0 -489.5 201t-188.5 506zM1284 682q0 244 -138 399.5t-364 155.5q-227 0 -364 -155.5t-137 -399.5q0 -242 137 -398.5t364 -156.5q225 0 363.5 156.5t138.5 398.5z" glyph-name="Omicron" horiz-adv-x="1566" unicode="Ο"/><glyph d="M1128 0v1214h-798v-1214h-170v1366h1138v-1366h-170z" glyph-name="Pi" horiz-adv-x="1458" unicode="Π"/><glyph d="M160 0v1366h549q199 0 313.5 -119t114.5 -293t-116 -292.5t-312 -118.5h-379v-543h-170zM961 954.5q0 114.5 -76 187t-197 72.5h-358v-520h358q121 0 197 73t76 187.5z" glyph-name="Rho" horiz-adv-x="1202" unicode="Ρ"/><glyph d="M315 152h752v-152h-956v152l473 548l-471 514v152h954v-152h-745l469 -512z" glyph-name="Sigma" horiz-adv-x="1177" unicode="Σ"/><glyph d="M498 0v1214h-432v152h1036v-152h-434v-1214h-170z" glyph-name="Tau" horiz-adv-x="1167" unicode="Τ"/><glyph d="M557 0v578l-539 788h199l424 -635l424 635h199l-537 -788v-578h-170z" glyph-name="Upsilon" horiz-adv-x="1282" unicode="Υ"/><glyph d="M1546 682q0 -233 -171 -380.5t-466 -168.5v-133h-170v133q-295 20 -465 169t-170 380t170 379.5t465 169.5v135h170v-135q295 -20 466 -169t171 -380zM281 682q0 -164 121.5 -271.5t336.5 -123.5v790q-217 -16 -337.5 -122.5t-120.5 -272.5zM909 287q215 16 338 123.5 t123 271.5q0 166 -123 272.5t-338 122.5v-790z" glyph-name="Phi" horiz-adv-x="1650" unicode="Φ"/><glyph d="M1104 0l-436 582l-437 -582h-206l532 700l-502 666h207l406 -547l403 547h207l-500 -664l531 -702h-205z" glyph-name="Chi" horiz-adv-x="1335" unicode="Χ"/><glyph d="M1298 1366h172v-555q0 -244 -145 -389.5t-424 -163.5v-258h-170v256q-281 20 -426 165.5t-145 387.5v557h170v-553q0 -176 103.5 -280.5t297.5 -120.5v954h170v-954q195 16 296 120.5t101 280.5v553z" glyph-name="Psi" horiz-adv-x="1630" unicode="Ψ"/><glyph d="M418 152q-313 188 -314 561q0 297 188.5 486.5t489.5 189.5q303 0 490.5 -189.5t187.5 -486.5q0 -373 -309 -561h274v-152h-491v152q145 37 247.5 178t102.5 354q0 236 -133 393.5t-368.5 157.5t-368.5 -157.5t-133 -393.5q0 -213 103 -354.5t249 -177.5v-152h-492v152 h277z" glyph-name="Omega" horiz-adv-x="1566" unicode="Ω"/><glyph d="M33 1501q-39 0 -66.5 29t-27.5 67.5t27.5 66.5t66.5 28t66.5 -28t27.5 -67q0 -41 -27.5 -68.5t-66.5 -27.5zM457 1501q-39 0 -68 27.5t-29 68.5q0 39 29 67t68 28t66.5 -28t27.5 -66.5t-27.5 -67.5t-66.5 -29zM160 0v1366h170v-1366h-170z" glyph-name="Iotadieresis" horiz-adv-x="489" unicode="Ϊ"/><glyph d="M430 1501q-39 0 -66.5 29t-27.5 67.5t27.5 66.5t66.5 28t66.5 -28t27.5 -67q0 -41 -27.5 -68.5t-66.5 -27.5zM854 1501q-39 0 -67.5 27.5t-28.5 68.5q0 39 28.5 67t67.5 28t66.5 -28t27.5 -66.5t-27.5 -67.5t-66.5 -29zM557 0v578l-539 788h199l424 -635l424 635h199 l-537 -788v-578h-170z" glyph-name="Upsilondieresis" horiz-adv-x="1282" unicode="Ϋ"/><glyph d="M553 1176l39 409h156l-117 -409h-78zM1169 -16q-41 -8 -79 -9q-186 0 -213 183q-53 -80 -144.5 -131.5t-195.5 -51.5q-197 0 -319 140.5t-122 378.5q0 236 122 378t319 142q207 0 331 -174v149h156v-758q0 -55 24.5 -86.5t69.5 -31.5q20 0 41 4zM870 268v449 q-43 68 -125.5 114t-171.5 46q-145 0 -231 -107.5t-86 -275.5t86 -274.5t231 -106.5q90 0 172 44.5t125 110.5z" glyph-name="alphatonos" horiz-adv-x="1206" unicode="ά"/><glyph d="M485 1176l39 409h156l-117 -409h-78zM516 -25q-199 0 -310.5 81t-111.5 208q0 111 83 172.5t181 69.5q-94 12 -168.5 75.5t-74.5 166.5q0 125 113.5 195.5t299.5 68.5q238 0 385 -162l-82 -94q-117 131 -309 131q-109 0 -178.5 -44t-69.5 -114q0 -82 71 -124t187 -42h170 v-125h-170q-276 0 -276 -164q0 -78 69.5 -125t190.5 -47q190 0 330 140l86 -107q-154 -160 -416 -160z" glyph-name="epsilontonos" horiz-adv-x="993" unicode="έ"/><glyph d="M526 1176l39 409h156l-117 -409h-78zM821 -377v1024q0 125 -57 177.5t-164 52.5q-86 0 -167 -45.5t-126 -108.5v-723h-153v989h153v-143q57 68 153.5 118t198.5 50q315 0 316 -320v-1071h-154z" glyph-name="etatonos" horiz-adv-x="1128" unicode="ή"/><glyph d="M190 1176l39 409h156l-117 -409h-78zM154 207v782h153v-758q0 -119 96 -118q23 0 39 4l13 -133q-45 -8 -82 -9q-109 0 -164 59.5t-55 172.5z" glyph-name="iotatonos" horiz-adv-x="489" unicode="ί"/><glyph d="M524 1176l39 409h158l-117 -409h-80zM317.5 1159q-38.5 0 -67.5 29t-29 67.5t29 66.5t67.5 28t66.5 -28t28 -66.5t-28 -67.5t-66.5 -29zM866 1159q-39 0 -66.5 29t-27.5 67.5t27.5 66.5t66.5 28t68 -28t29 -66.5t-29 -67.5t-68 -29zM563 -25q-201 0 -305 123t-104 336 v555h153v-553q0 -152 67.5 -237.5t188.5 -85.5q154 0 242 113.5t88 285.5q0 258 -150 432l138 70q174 -219 174 -502q0 -233 -134.5 -385t-357.5 -152z" glyph-name="upsilondieresistonos" horiz-adv-x="1150" unicode="ΰ"/><glyph d="M1169 -16q-41 -8 -79 -9q-186 0 -213 183q-53 -80 -144.5 -131.5t-195.5 -51.5q-197 0 -319 140.5t-122 378.5q0 236 122 378t319 142q207 0 331 -174v149h156v-758q0 -55 24.5 -86.5t69.5 -31.5q20 0 41 4zM870 268v449q-43 68 -125.5 114t-171.5 46q-145 0 -231 -107.5 t-86 -275.5t86 -274.5t231 -106.5q90 0 172 44.5t125 110.5z" glyph-name="alpha" horiz-adv-x="1206" unicode="α"/><glyph d="M307 -377h-153v1309q0 223 137 338.5t330 115.5q188 0 309 -97t121 -267q0 -135 -87 -216t-198 -101q113 -10 214 -100.5t101 -250.5q0 -168 -120.5 -273.5t-303.5 -105.5q-223 0 -350 172v-524zM307 268q45 -68 128 -111.5t177 -43.5q147 0 228.5 71.5t81.5 192.5 q0 125 -90.5 189.5t-231.5 64.5h-72v137h68q129 0 211 61.5t82 178.5q0 111 -77 176t-191 65q-133 0 -223.5 -83t-90.5 -234v-664z" glyph-name="beta" horiz-adv-x="1177" unicode="β"/><glyph d="M426 -377v277q0 309 -124 604t-316 485h180q135 -135 239.5 -366.5t126.5 -432.5q113 158 187 377t74 422h153q0 -238 -100.5 -502t-265.5 -477v-387h-154z" glyph-name="gamma" horiz-adv-x="1003" unicode="γ"/><glyph d="M600 952q61 -18 93 -29.5t90.5 -36t92 -47t76.5 -61.5t66.5 -83t40 -107.5t16.5 -136.5q0 -190 -133 -333t-350 -143q-221 0 -358.5 143.5t-137.5 338.5q0 152 79 261t210 165q-168 78 -168 223q0 121 98.5 203t268.5 82q227 0 366 -144l-71 -106q-104 125 -295 125 q-100 0 -159.5 -44t-59.5 -112q0 -27 13 -47.5t30.5 -34.5t54.5 -29.5t61.5 -23t75.5 -23.5zM588 113q152 0 245 104.5t93 233.5q0 88 -29 151.5t-90.5 105.5t-113.5 64.5t-140 50.5q-143 -43 -220 -139t-77 -227q0 -133 91 -238.5t241 -105.5z" glyph-name="delta" unicode="δ"/><glyph d="M516 -25q-199 0 -310.5 81t-111.5 208q0 111 83 172.5t181 69.5q-94 12 -168.5 75.5t-74.5 166.5q0 125 113.5 195.5t299.5 68.5q238 0 385 -162l-82 -94q-117 131 -309 131q-109 0 -178.5 -44t-69.5 -114q0 -82 71 -124t187 -42h170v-125h-170q-276 0 -276 -164 q0 -78 69.5 -125t190.5 -47q190 0 330 140l86 -107q-154 -160 -416 -160z" glyph-name="epsilon" horiz-adv-x="993" unicode="ε"/><glyph d="M643 0q-250 0 -398.5 112.5t-148.5 319.5q0 465 615 799h-582v135h782v-117q-655 -377 -655 -807q0 -154 107.5 -229.5t298.5 -75.5q260 0 260 -207q0 -94 -91 -252h-165q94 145 94 224q0 98 -117 98z" glyph-name="zeta" horiz-adv-x="1001" unicode="ζ"/><glyph d="M821 -377v1024q0 125 -57 177.5t-164 52.5q-86 0 -167 -45.5t-126 -108.5v-723h-153v989h153v-143q57 68 153.5 118t198.5 50q315 0 316 -320v-1071h-154z" glyph-name="eta" horiz-adv-x="1128" unicode="η"/><glyph d="M585.5 1391q237.5 0 363.5 -199t126 -508t-126 -509t-363.5 -200t-363.5 200t-126 509t126 508t363.5 199zM586 1253q-158 0 -238 -136t-90 -363h655q-22 499 -327 499zM586 113q305 0 327 505h-655q23 -505 328 -505z" glyph-name="theta" unicode="θ"/><glyph d="M154 207v782h153v-758q0 -119 96 -118q23 0 39 4l13 -133q-45 -8 -82 -9q-109 0 -164 59.5t-55 172.5z" glyph-name="iota" horiz-adv-x="489" unicode="ι"/><glyph d="M827 0l-356 444l-164 -161v-283h-153v989h153v-526l520 526h195l-438 -448l440 -541h-197z" glyph-name="kappa" horiz-adv-x="1052" unicode="κ"/><glyph d="M211 1391q209 -4 291 -201l495 -1190h-168l-327 811l-330 -811h-166l414 997l-66 150q-25 59 -59.5 82.5t-87.5 23.5q-47 0 -84 -16l-25 137q45 17 113 17z" glyph-name="lambda" horiz-adv-x="1003" unicode="λ"/><glyph d="M307 -377h-153v1366h153v-651q0 -229 225 -229q84 0 164 45t125 108v727h154v-758q0 -119 96 -118q23 0 39 4l12 -133q-45 -8 -82 -9q-180 0 -213 177q-55 -76 -139 -126.5t-174 -50.5q-154 0 -207 99v-451z" glyph-name="mu" horiz-adv-x="1157" unicode="μ"/><glyph d="M418 0l-412 989h166l336 -833q131 182 208 403t77 430h153q0 -240 -102.5 -508t-272.5 -481h-153z" glyph-name="nu" horiz-adv-x="1003" unicode="ν"/><glyph d="M96 352q0 141 87 225.5t194 104.5q-98 16 -179 84t-81 182q0 90 63.5 169t157.5 114h-205v135h760v-135h-383q-100 -23 -165.5 -93.5t-65.5 -152.5q0 -104 89 -160.5t222 -56.5h293v-133h-293q-150 0 -242 -62.5t-92 -191.5q0 -246 406 -246q260 0 260 -205 q0 -94 -91 -252h-165q94 145 94 240q0 82 -117 82q-266 0 -406.5 89t-140.5 263z" glyph-name="xi" horiz-adv-x="1001" unicode="ξ"/><glyph d="M586 -25q-221 0 -355.5 149.5t-134.5 371t134.5 370t355.5 148.5t355 -148.5t134 -370t-134 -371t-355 -149.5zM585.5 113q151.5 0 239.5 111.5t88 271t-88 270.5t-239.5 111t-240.5 -112t-89 -269q0 -160 89 -271.5t240.5 -111.5z" glyph-name="omicron" unicode="ο"/><glyph d="M854 0v854h-516v-854h-154v854h-164v135h1151v-135h-163v-854h-154z" glyph-name="pi" horiz-adv-x="1191" unicode="π"/><glyph d="M307 150v-527h-153v873q0 221 126 369.5t334 148.5q211 0 339 -148.5t128 -369.5q0 -238 -121.5 -379.5t-318.5 -141.5q-209 1 -334 175zM920 496q0 160 -82 270.5t-226 110.5q-141 0 -223 -111t-82 -270v-224q41 -68 124 -113.5t171 -45.5q145 0 231.5 107.5t86.5 275.5 z" glyph-name="rho" unicode="ρ"/><glyph d="M96 496q0 223 137.5 370.5t356.5 147.5q229 0 362 -172l-102 -94q-94 129 -252 129q-156 0 -249 -106.5t-93 -274.5q0 -184 107.5 -271.5t291.5 -87.5q137 0 202 -43t65 -139q0 -117 -88 -277h-160q37 55 65.5 129t28.5 119q0 74 -121 74q-254 0 -402.5 129t-148.5 367z " glyph-name="sigma1" horiz-adv-x="989" unicode="ς"/><glyph d="M586 -25q-221 0 -355.5 149.5t-134.5 371.5q0 211 139.5 352t376.5 141h508v-137h-235q180 -141 180 -391q0 -205 -130 -345.5t-349 -140.5zM709 852h-97q-168 0 -262 -105.5t-94 -250.5q0 -160 89 -271.5t240.5 -111.5t239.5 109.5t88 260.5q0 127 -56 224.5t-148 144.5 z" glyph-name="sigma" unicode="σ"/><glyph d="M381 207v647h-328v135h832v-135h-350v-614q0 -57 25.5 -92t74.5 -35q68 0 104 41l45 -115q-68 -63 -184 -64q-109 0 -164 59.5t-55 172.5z" glyph-name="tau" horiz-adv-x="937" unicode="τ"/><glyph d="M563 -25q-201 0 -305 123t-104 336v555h153v-553q0 -152 67.5 -237.5t188.5 -85.5q154 0 242 113.5t88 285.5q0 258 -150 432l138 70q174 -219 174 -502q0 -233 -134.5 -385t-357.5 -152z" glyph-name="upsilon" horiz-adv-x="1150" unicode="υ"/><glyph d="M1319 483q0 -227 -139.5 -361t-395.5 -145v-354h-153v354q-254 10 -394.5 153.5t-140.5 383.5q0 172 96.5 299t249.5 193l72 -115q-123 -55 -190.5 -153.5t-67.5 -223.5q0 -184 98.5 -291.5t276.5 -109.5v876h102q287 0 436.5 -136.5t149.5 -369.5zM784 113 q180 2 277.5 101t97.5 269t-97 268.5t-278 100.5v-739z" glyph-name="phi" horiz-adv-x="1415" unicode="φ"/><glyph d="M801 -377l-303 559l-303 -559h-170l378 703l-358 663h172l281 -520l280 520h172l-358 -663l381 -703h-172z" glyph-name="chi" horiz-adv-x="995" unicode="χ"/><glyph d="M1143 989h153v-534q0 -446 -495 -478v-354h-154v354q-494 31 -493 478v534h153v-534q0 -311 340 -340v1251h154v-1251q342 29 342 340v534z" glyph-name="psi" horiz-adv-x="1449" unicode="ψ"/><glyph d="M1114 -25q-240 0 -323 301q-88 -301 -324 -301q-170 0 -270.5 145.5t-100.5 354.5q0 373 201 539l133 -66q-174 -154 -174 -473q0 -147 60.5 -254.5t168.5 -107.5q113 0 170.5 109.5t57.5 273.5v252h153v-252q0 -164 57.5 -273.5t170.5 -109.5q109 0 169 107.5t60 254.5 q0 319 -174 473l135 66q199 -164 199 -539q0 -209 -100.5 -354.5t-268.5 -145.5z" glyph-name="omega" horiz-adv-x="1579" unicode="ω"/><glyph d="M18.5 1159q-38.5 0 -66.5 29t-28 67.5t28 66.5t66.5 28t66.5 -28t28 -67q0 -41 -28 -68.5t-66.5 -27.5zM442 1159q-41 0 -68.5 29t-27.5 67.5t28.5 66.5t67.5 28t67 -28t28 -66.5t-28 -67.5t-67 -29zM154 207v782h153v-758q0 -119 96 -118q23 0 39 4l13 -133 q-45 -8 -82 -9q-109 0 -164 59.5t-55 172.5z" glyph-name="iotadieresis" horiz-adv-x="489" unicode="ϊ"/><glyph d="M352 1159q-39 0 -66.5 29t-27.5 67.5t27.5 66.5t66.5 28t66.5 -28t27.5 -67q0 -41 -27.5 -68.5t-66.5 -27.5zM776 1159q-39 0 -67.5 29t-28.5 67.5t28.5 66.5t67.5 28t66.5 -28t27.5 -66.5t-27.5 -67.5t-66.5 -29zM563 -25q-201 0 -305 123t-104 336v555h153v-553 q0 -152 67.5 -237.5t188.5 -85.5q154 0 242 113.5t88 285.5q0 258 -150 432l138 70q174 -219 174 -502q0 -233 -134.5 -385t-357.5 -152z" glyph-name="upsilondieresis" horiz-adv-x="1150" unicode="ϋ"/><glyph d="M545 1176l39 409h155l-116 -409h-78zM586 -25q-221 0 -355.5 149.5t-134.5 371t134.5 370t355.5 148.5t355 -148.5t134 -370t-134 -371t-355 -149.5zM585.5 113q151.5 0 239.5 111.5t88 271t-88 270.5t-239.5 111t-240.5 -112t-89 -269q0 -160 89 -271.5t240.5 -111.5z " glyph-name="omicrontonos" unicode="ό"/><glyph d="M524 1176l39 409h156l-117 -409h-78zM563 -25q-201 0 -305 123t-104 336v555h153v-553q0 -152 67.5 -237.5t188.5 -85.5q154 0 242 113.5t88 285.5q0 258 -150 432l138 70q174 -219 174 -502q0 -233 -134.5 -385t-357.5 -152z" glyph-name="upsilontonos" horiz-adv-x="1150" unicode="ύ"/><glyph d="M750 1176l38 409h156l-117 -409h-77zM1114 -25q-240 0 -323 301q-88 -301 -324 -301q-170 0 -270.5 145.5t-100.5 354.5q0 373 201 539l133 -66q-174 -154 -174 -473q0 -147 60.5 -254.5t168.5 -107.5q113 0 170.5 109.5t57.5 273.5v252h153v-252q0 -164 57.5 -273.5 t170.5 -109.5q109 0 169 107.5t60 254.5q0 319 -174 473l135 66q199 -164 199 -539q0 -209 -100.5 -354.5t-268.5 -145.5z" glyph-name="omegatonos" horiz-adv-x="1579" unicode="ώ"/><glyph d="M407.5 1501q-38.5 0 -66.5 29t-28 67.5t28 66.5t66.5 28t66.5 -28t28 -67q0 -41 -28 -68.5t-66.5 -27.5zM831 1501q-41 0 -68.5 27.5t-27.5 68.5q0 39 29 67t67.5 28t66.5 -28t28 -66.5t-28 -67.5t-67 -29zM160 0v1366h895v-152h-725v-440h710v-151h-710v-471h725v-152 h-895z" glyph-name="afii10023" horiz-adv-x="1165" unicode="Ё"/><glyph d="M1026 127q274 0 274 260v45q0 133 -69.5 198.5t-229.5 65.5q-197 0 -333 -63v-633h-170v1214h-432v152h1036v-152h-434v-444q180 78 381 78q219 0 320 -102.5t101 -313.5v-45q0 -412 -444 -412v152z" glyph-name="afii10051" horiz-adv-x="1574" unicode="Ђ"/><glyph d="M670 1481h-142l303 295h185zM160 0v1366h895v-152h-725v-1214h-170z" glyph-name="afii10052" horiz-adv-x="1126" unicode="Ѓ"/><glyph d="M807 127q115 0 215 54.5t160 144.5l145 -80q-199 -270 -520 -271q-299 0 -501 198t-202 509t202 509t501 198q328 0 518 -271l-143 -80q-59 88 -159.5 143.5t-215.5 55.5q-203 0 -347.5 -128t-170.5 -335h778v-151h-782q18 -219 165.5 -357.5t356.5 -138.5z" glyph-name="afii10053" horiz-adv-x="1384" unicode="Є"/><glyph d="M78 193l100 129q174 -195 430 -195q166 0 244 70.5t78 164.5q0 47 -20.5 85t-47 61.5t-81 47.5t-90.5 34t-107 31q-90 25 -135.5 38t-120 45.5t-111.5 68.5t-66.5 96.5t-29.5 138.5q0 168 133 273t336 105q305 0 485 -190l-102 -125q-150 164 -395 164q-123 0 -202 -60.5 t-79 -156.5q0 -39 20.5 -72t44 -53.5t78 -41t86 -30.5t103.5 -28q88 -25 137 -39.5t124 -49t114.5 -74.5t70.5 -105.5t31 -147.5q0 -168 -124 -285t-380 -117q-331 1 -524 218z" glyph-name="afii10054" horiz-adv-x="1200" unicode="Ѕ"/><glyph d="M160 0v1366h170v-1366h-170z" glyph-name="afii10055" horiz-adv-x="489" unicode="І"/><glyph d="M33 1501q-39 0 -66.5 29t-27.5 67.5t27.5 66.5t66.5 28t66.5 -28t27.5 -67q0 -41 -27.5 -68.5t-66.5 -27.5zM457 1501q-39 0 -68 27.5t-29 68.5q0 39 29 67t68 28t66.5 -28t27.5 -66.5t-27.5 -67.5t-66.5 -29zM160 0v1366h170v-1366h-170z" glyph-name="afii10056" horiz-adv-x="489" unicode="Ї"/><glyph d="M23 133l88 129q113 -135 258 -135q125 0 199.5 79t74.5 208v952h170v-954q0 -213 -121 -325t-313 -112q-221 0 -356 158z" glyph-name="afii10057" horiz-adv-x="972" unicode="Ј"/><glyph d="M66 141q68 0 116.5 30t99 114t86 255t60.5 433l35 393h835v-543h379q197 0 312.5 -118.5t115.5 -292.5t-114.5 -293t-313.5 -119h-549v1214h-520l-22 -247q-16 -188 -42 -338t-54.5 -253.5t-66.5 -177t-76 -116.5t-87 -67.5t-93 -32t-101 -7.5v166zM1298 672v-520h359 q121 0 196.5 72.5t75.5 187t-75.5 187.5t-196.5 73h-359z" glyph-name="afii10058" horiz-adv-x="2170" unicode="Љ"/><glyph d="M160 1366h170v-588h798v588h170v-588h404q186 0 294.5 -112.5t108.5 -276.5q0 -166 -108.5 -277.5t-294.5 -111.5h-574v627h-798v-627h-170v1366zM1681 152q111 0 179.5 65.5t68.5 171.5q0 104 -68.5 171t-179.5 67h-383v-475h383z" glyph-name="afii10059" horiz-adv-x="2170" unicode="Њ"/><glyph d="M1300 381q0 174 -67.5 244.5t-231.5 70.5q-197 0 -333 -63v-633h-170v1214h-432v152h1036v-152h-434v-444q180 78 381 78q223 0 322 -109.5t99 -359.5v-379h-170v381z" glyph-name="afii10060" horiz-adv-x="1607" unicode="Ћ"/><glyph d="M688 1481h-141l303 295h184zM985 0l-518 614l-137 -155v-459h-170v1366h170v-707l604 707h213l-569 -649l618 -717h-211z" glyph-name="afii10061" horiz-adv-x="1230" unicode="Ќ"/><glyph d="M639 1468q-209 0 -334 168l88 72q94 -127 246 -127q154 0 244 127l88 -72q-121 -168 -332 -168zM1071 1366h193l-547 -1124q-66 -135 -150 -201t-221 -66q-86 0 -153 31l45 146q49 -25 102 -25q78 0 126 42t105 153l23 40l-576 1004h197l467 -846z" glyph-name="afii10062" horiz-adv-x="1282" unicode="Ў"/><glyph d="M1266 1366v-1366h-478v-260h-151v260h-477v1366h170v-1214h766v1214h170z" glyph-name="afii10145" horiz-adv-x="1425" unicode="Џ"/><glyph d="M1141 0l-121 303h-692l-121 -303h-189l549 1366h211l551 -1366h-188zM674 1214l-297 -759h592z" glyph-name="afii10017" horiz-adv-x="1347" unicode="А"/><glyph d="M1047 1366v-152h-717v-391h379q197 0 312.5 -118.5t115.5 -292.5t-115 -293t-313 -119h-549v1366h887zM330 672v-520h358q121 0 197 72.5t76 187t-76 187.5t-197 73h-358z" glyph-name="afii10018" horiz-adv-x="1202" unicode="Б"/><glyph d="M160 0v1366h608q176 0 279.5 -96t103.5 -252q0 -123 -69.5 -208t-170.5 -105q109 -16 188 -114.5t79 -221.5q0 -166 -105.5 -267.5t-290.5 -101.5h-622zM330 774h409q113 0 174.5 61.5t61.5 158t-62.5 158.5t-173.5 62h-409v-440zM330 152h418q119 0 186 63.5t67 171.5 q0 100 -66.5 168t-186.5 68h-418v-471z" glyph-name="afii10019" horiz-adv-x="1288" unicode="В"/><glyph d="M160 0v1366h895v-152h-725v-1214h-170z" glyph-name="afii10020" horiz-adv-x="1126" unicode="Г"/><glyph d="M53 152h107q168 168 246 870l36 344h811v-1214h158v-404h-151v252h-1055v-252h-152v404zM559 1012q-72 -688 -217 -860h741v1062h-503z" glyph-name="afii10021" horiz-adv-x="1468" unicode="Д"/><glyph d="M160 0v1366h895v-152h-725v-440h710v-151h-710v-471h725v-152h-895z" glyph-name="afii10022" horiz-adv-x="1165" unicode="Е"/><glyph d="M1620 0l-520 635h-84v-635h-170v635h-84l-520 -635h-207l592 709l-543 657h207l477 -596h78v596h170v-596h80l477 596h207l-545 -657l594 -709h-209z" glyph-name="afii10024" horiz-adv-x="1861" unicode="Ж"/><glyph d="M59 201l101 108q61 -82 172.5 -132t236.5 -50q160 0 252 68.5t92 187.5q0 123 -95 182.5t-259 59.5h-237v151h237q145 0 238.5 56.5t93.5 168.5q0 111 -93 172.5t-235 61.5q-231 0 -387 -166l-94 107q82 94 210 152t283 58q209 0 349.5 -98t140.5 -266q0 -135 -91 -216 t-204 -101q113 -10 214 -98.5t101 -237.5q0 -172 -141 -283t-371 -111q-172 0 -309 64t-205 162z" glyph-name="afii10025" horiz-adv-x="1196" unicode="З"/><glyph d="M160 1366h170v-1104l786 1104h174v-1366h-170v1124l-796 -1124h-164v1366z" glyph-name="afii10026" horiz-adv-x="1449" unicode="И"/><glyph d="M725 1468q-209 0 -334 168l88 72q94 -127 246 -127q154 0 244 127l88 -72q-121 -168 -332 -168zM160 1366h170v-1104l786 1104h174v-1366h-170v1124l-796 -1124h-164v1366z" glyph-name="afii10027" horiz-adv-x="1449" unicode="Й"/><glyph d="M985 0l-518 614l-137 -155v-459h-170v1366h170v-707l604 707h213l-569 -649l618 -717h-211z" glyph-name="afii10028" horiz-adv-x="1230" unicode="К"/><glyph d="M66 141q68 0 116.5 30t99 114t86 255t60.5 433l35 393h835v-1366h-170v1214h-520l-22 -247q-16 -188 -42 -338t-54.5 -253.5t-66.5 -177t-76 -116.5t-87 -67.5t-93 -32t-101 -7.5v166z" glyph-name="afii10029" horiz-adv-x="1458" unicode="Л"/><glyph d="M1327 0v1137l-465 -1137h-69l-463 1137v-1137h-170v1366h243l424 -1040l426 1040h244v-1366h-170z" glyph-name="afii10030" horiz-adv-x="1656" unicode="М"/><glyph d="M1128 0v627h-798v-627h-170v1366h170v-588h798v588h170v-1366h-170z" glyph-name="afii10031" horiz-adv-x="1458" unicode="Н"/><glyph d="M104 682q0 305 188.5 506t489.5 201q299 0 488.5 -201t189.5 -506t-189.5 -506t-488.5 -201q-301 0 -489.5 201t-188.5 506zM1284 682q0 244 -138 399.5t-364 155.5q-227 0 -364 -155.5t-137 -399.5q0 -242 137 -398.5t364 -156.5q225 0 363.5 156.5t138.5 398.5z" glyph-name="afii10032" horiz-adv-x="1566" unicode="О"/><glyph d="M1128 0v1214h-798v-1214h-170v1366h1138v-1366h-170z" glyph-name="afii10033" horiz-adv-x="1458" unicode="П"/><glyph d="M160 0v1366h549q199 0 313.5 -119t114.5 -293t-116 -292.5t-312 -118.5h-379v-543h-170zM961 954.5q0 114.5 -76 187t-197 72.5h-358v-520h358q121 0 197 73t76 187.5z" glyph-name="afii10034" horiz-adv-x="1202" unicode="Р"/><glyph d="M801 -25q-295 0 -496 199t-201 508t201 508t496 199q334 0 524 -271l-143 -80q-59 88 -160.5 143.5t-220.5 55.5q-221 0 -370.5 -156.5t-149.5 -398.5t149.5 -398.5t370.5 -156.5q119 0 220 54.5t161 144.5l145 -80q-198 -271 -526 -271z" glyph-name="afii10035" horiz-adv-x="1384" unicode="С"/><glyph d="M498 0v1214h-432v152h1036v-152h-434v-1214h-170z" glyph-name="afii10036" horiz-adv-x="1167" unicode="Т"/><glyph d="M1071 1366h193l-547 -1124q-66 -135 -150 -201t-221 -66q-86 0 -153 31l45 146q49 -25 102 -25q78 0 126 42t105 153l23 40l-576 1004h197l467 -846z" glyph-name="afii10037" horiz-adv-x="1282" unicode="У"/><glyph d="M1546 682q0 -233 -171 -380.5t-466 -168.5v-133h-170v133q-295 20 -465 169t-170 380t170 379.5t465 169.5v135h170v-135q295 -20 466 -169t171 -380zM281 682q0 -164 121.5 -271.5t336.5 -123.5v790q-217 -16 -337.5 -122.5t-120.5 -272.5zM909 287q215 16 338 123.5 t123 271.5q0 166 -123 272.5t-338 122.5v-790z" glyph-name="afii10038" horiz-adv-x="1650" unicode="Ф"/><glyph d="M1104 0l-436 582l-437 -582h-206l532 700l-502 666h207l406 -547l403 547h207l-500 -664l531 -702h-205z" glyph-name="afii10039" horiz-adv-x="1335" unicode="Х"/><glyph d="M1272 0h-1112v1366h170v-1214h766v1214h170v-1214h157v-404h-151v252z" glyph-name="afii10040" horiz-adv-x="1480" unicode="Ц"/><glyph d="M289 985q0 -174 67.5 -244.5t231.5 -70.5q197 0 334 63v633h170v-1366h-170v596q-180 -78 -381 -78q-223 0 -322.5 109.5t-99.5 359.5v379h170v-381z" glyph-name="afii10041" horiz-adv-x="1251" unicode="Ч"/><glyph d="M1802 1366v-1366h-1642v1366h170v-1214h567v1214h170v-1214h565v1214h170z" glyph-name="afii10042" horiz-adv-x="1961" unicode="Ш"/><glyph d="M1802 1366v-1214h158v-404h-152v252h-1648v1366h170v-1214h567v1214h170v-1214h565v1214h170z" glyph-name="afii10043" horiz-adv-x="2019" unicode="Щ"/><glyph d="M498 0v1214h-432v152h602v-543h379q197 0 312.5 -118.5t115.5 -292.5t-115 -293t-313 -119h-549zM668 672v-520h358q121 0 196.5 72.5t75.5 187t-75.5 187.5t-196.5 73h-358z" glyph-name="afii10044" horiz-adv-x="1540" unicode="Ъ"/><glyph d="M330 1366v-543h379q197 0 312.5 -118.5t115.5 -292.5t-115 -293t-313 -119h-549v1366h170zM1284 0v1366h170v-1366h-170zM330 672v-520h358q121 0 197 72.5t76 187t-76 187.5t-197 73h-358z" glyph-name="afii10045" horiz-adv-x="1613" unicode="Ы"/><glyph d="M330 1366v-543h379q197 0 312.5 -118.5t115.5 -292.5t-115 -293t-313 -119h-549v1366h170zM330 672v-520h358q121 0 197 72.5t76 187t-76 187.5t-197 73h-358z" glyph-name="afii10046" horiz-adv-x="1202" unicode="Ь"/><glyph d="M578 1389q299 0 500.5 -198t201.5 -509t-201.5 -509t-500.5 -198q-322 0 -521 271l146 80q59 -90 159.5 -144.5t215.5 -54.5q209 0 356 138t166 358h-783v151h779q-27 207 -171.5 335t-346.5 128q-115 0 -215.5 -55.5t-159.5 -143.5l-144 80q191 271 519 271z" glyph-name="afii10047" horiz-adv-x="1384" unicode="Э"/><glyph d="M1247 1389q299 0 489.5 -201t190.5 -506t-190.5 -506t-489.5 -201q-285 0 -471 183.5t-205 468.5h-241v-627h-170v1366h170v-588h245q29 268 213.5 439.5t458.5 171.5zM1247 127q225 0 364.5 156.5t139.5 398.5t-139 398.5t-365 156.5q-227 0 -364.5 -155.5 t-137.5 -399.5q0 -242 137.5 -398.5t364.5 -156.5z" glyph-name="afii10048" horiz-adv-x="2031" unicode="Ю"/><glyph d="M96 0l369 557q-150 12 -253 116.5t-103 280.5q0 186 119.5 299t310.5 113h548v-1366h-169v543h-275l-348 -543h-199zM918 692v522h-361q-121 0 -196.5 -72.5t-75.5 -187t76.5 -188.5t195.5 -74h361z" glyph-name="afii10049" horiz-adv-x="1245" unicode="Я"/><glyph d="M772 0v113q-125 -137 -328 -138q-137 0 -241.5 88.5t-104.5 239.5q0 156 103.5 241t242.5 85q211 0 328 -135v178q0 98 -69.5 153.5t-180.5 55.5q-174 0 -303 -138l-72 107q158 164 396 164q170 0 276.5 -82t106.5 -252v-680h-154zM772 209v186q-88 123 -272 123 q-106 0 -175 -60.5t-69 -156.5q0 -94 68.5 -154.5t175.5 -60.5q184 0 272 123z" glyph-name="afii10065" horiz-adv-x="1079" unicode="а"/><glyph d="M96 573q0 344 145.5 532.5t479.5 242.5l258 41v-138l-254 -43q-242 -43 -357.5 -154.5t-146.5 -287.5q59 100 160.5 161.5t228.5 61.5q205 0 334 -142t129 -349q0 -221 -133 -372t-354 -151q-225 0 -357.5 163t-132.5 435zM913 498q0 158 -88 268.5t-239.5 110.5 t-240.5 -111t-89 -268q0 -162 89 -273.5t240.5 -111.5t239.5 111.5t88 273.5z" glyph-name="afii10066" horiz-adv-x="1175" unicode="б"/><glyph d="M154 0v989h505q152 0 235 -69.5t83 -184.5q0 -84 -47 -144.5t-117 -80.5q78 -18 131 -88t53 -154q0 -123 -86 -195.5t-247 -72.5h-510zM819 713q0 66 -42 103.5t-118 37.5h-352v-279h352q76 0 118 38.5t42 99.5zM838 287q0 63 -46.5 108t-127.5 45h-357v-305h357 q82 0 128 40t46 112z" glyph-name="afii10067" horiz-adv-x="1105" unicode="в"/><glyph d="M846 854h-539v-854h-153v989h692v-135z" glyph-name="afii10068" horiz-adv-x="892" unicode="г"/><glyph d="M37 135h88q106 158 151 627l21 227h680v-854h115v-387h-136v252h-784v-252h-135v387zM412 723q-39 -451 -138 -588h549v719h-399z" glyph-name="afii10069" horiz-adv-x="1148" unicode="д"/><glyph d="M96 496q0 217 139.5 367.5t348.5 150.5q219 0 347 -150.5t128 -380.5v-39h-801q10 -145 106.5 -243.5t249.5 -98.5q184 0 306 125l73 -100q-152 -152 -393 -152q-221 0 -362.5 145t-141.5 376zM582 887q-147 0 -232.5 -100.5t-91.5 -229.5h649q-2 127 -85.5 228.5 t-239.5 101.5z" glyph-name="afii10070" horiz-adv-x="1153" unicode="е"/><glyph d="M1235 0l-369 444h-63v-444h-154v444h-65l-367 -444h-192l421 506l-417 483h186l369 -432h65v432h154v-432h63l369 432h188l-419 -483l421 -506h-190z" glyph-name="afii10072" horiz-adv-x="1449" unicode="ж"/><glyph d="M61 135l89 107q135 -139 327 -140q121 0 190.5 47.5t69.5 124.5q0 164 -276 164h-170v125h170q119 0 188.5 42t69.5 124q0 70 -69.5 114t-178.5 44q-193 0 -309 -131l-82 94q147 162 385 162q186 2 300 -69t114 -195q0 -102 -75 -166t-167 -76q96 -8 179 -69.5t83 -172.5 q0 -127 -111.5 -208t-310.5 -81q-262 0 -416 160z" glyph-name="afii10073" horiz-adv-x="993" unicode="з"/><glyph d="M154 0v989h153v-756l518 756h152v-989h-154v770l-522 -770h-147z" glyph-name="afii10074" horiz-adv-x="1130" unicode="и"/><glyph d="M565 1126q-209 0 -334 168l88 72q94 -127 246 -127q154 0 244 127l88 -72q-121 -168 -332 -168zM154 0v989h153v-756l518 756h152v-989h-154v770l-522 -770h-147z" glyph-name="afii10075" horiz-adv-x="1130" unicode="й"/><glyph d="M827 0l-356 444l-164 -161v-283h-153v989h153v-526l520 526h195l-438 -448l440 -541h-197z" glyph-name="afii10076" horiz-adv-x="1052" unicode="к"/><glyph d="M37 125q41 0 74.5 27.5t64.5 96t54.5 195.5t39.5 312l21 233h686v-989h-154v854h-399l-10 -106q-25 -305 -80 -480.5t-125 -234t-172 -58.5v150z" glyph-name="afii10077" horiz-adv-x="1130" unicode="л"/><glyph d="M1067 0v788l-350 -788h-58l-352 788v-788h-153v989h202l332 -747l328 747h205v-989h-154z" glyph-name="afii10078" horiz-adv-x="1374" unicode="м"/><glyph d="M154 0v989h153v-411h516v411h154v-989h-154v442h-516v-442h-153z" glyph-name="afii10079" horiz-adv-x="1130" unicode="н"/><glyph d="M586 -25q-221 0 -355.5 149.5t-134.5 371t134.5 370t355.5 148.5t355 -148.5t134 -370t-134 -371t-355 -149.5zM585.5 113q151.5 0 239.5 111.5t88 271t-88 270.5t-239.5 111t-240.5 -112t-89 -269q0 -160 89 -271.5t240.5 -111.5z" glyph-name="afii10080" unicode="о"/><glyph d="M823 0v854h-516v-854h-153v989h823v-989h-154z" glyph-name="afii10081" horiz-adv-x="1130" unicode="п"/><glyph d="M307 -377h-153v1366h153v-147q55 78 143.5 125t190.5 47q197 0 318.5 -140.5t121.5 -378t-121.5 -379t-318.5 -141.5q-209 0 -334 175v-527zM920 496q0 168 -86 274.5t-232 106.5q-88 0 -171 -46.5t-124 -111.5v-447q41 -68 124 -113.5t171 -45.5q145 0 231.5 107.5 t86.5 275.5z" glyph-name="afii10082" horiz-adv-x="1175" unicode="р"/><glyph d="M96 495.5q0 223.5 137.5 371t356.5 147.5q229 0 362 -172l-102 -94q-94 129 -252 129q-156 0 -249 -106.5t-93 -274.5t93 -275.5t249 -107.5t252 129l102 -95q-133 -172 -362 -172q-219 0 -356.5 148.5t-137.5 372z" glyph-name="afii10083" horiz-adv-x="1013" unicode="с"/><glyph d="M334 0v854h-287v135h729v-135h-289v-854h-153z" glyph-name="afii10084" horiz-adv-x="823" unicode="т"/><glyph d="M123 -248q37 -16 84 -16q53 0 88 22.5t59 81.5l66 150l-414 999h166l330 -811l327 811h168l-495 -1190q-82 -197 -291 -200q-63 0 -113 14z" glyph-name="afii10085" horiz-adv-x="1003" unicode="у"/><glyph d="M776 1014q250 -12 388.5 -150.5t138.5 -367.5q0 -227 -139.5 -367.5t-387.5 -153.5v-352h-153v352q-248 12 -387.5 152.5t-139.5 368.5q0 229 138.5 367t388.5 151v352h153v-352zM256 496q0 -172 97.5 -276.5t269.5 -106.5v764q-172 -2 -269.5 -105.5t-97.5 -275.5z M776 113q172 2 269.5 106.5t97.5 276.5t-97.5 275t-269.5 106v-764z" glyph-name="afii10086" horiz-adv-x="1398" unicode="ф"/><glyph d="M795 0l-297 406l-297 -406h-176l378 508l-358 481h178l275 -377l274 377h178l-358 -481l381 -508h-178z" glyph-name="afii10087" horiz-adv-x="995" unicode="х"/><glyph d="M938 0h-784v989h153v-854h498v854h153v-854h115v-387h-135v252z" glyph-name="afii10088" horiz-adv-x="1130" unicode="ц"/><glyph d="M287 989v-280q0 -133 61.5 -184.5t190.5 -51.5q156 0 262 55v461h153v-989h-153v403q-131 -66 -301 -65q-193 0 -280 78t-87 248v325h154z" glyph-name="afii10089" horiz-adv-x="1107" unicode="ч"/><glyph d="M1450 989v-989h-1296v989h153v-854h418v854h154v-854h417v854h154z" glyph-name="afii10090" horiz-adv-x="1603" unicode="ш"/><glyph d="M1450 989v-854h127v-387h-135v252h-1288v989h153v-854h418v854h154v-854h417v854h154z" glyph-name="afii10091" horiz-adv-x="1634" unicode="щ"/><glyph d="M334 0v854h-287v135h440v-354h357q158 0 241.5 -94.5t83.5 -223.5t-85 -223t-240 -94h-510zM487 500v-365h344q88 0 134.5 51.5t46.5 131t-45 131t-136 51.5h-344z" glyph-name="afii10092" horiz-adv-x="1249" unicode="ъ"/><glyph d="M307 989v-354h357q158 0 241.5 -94.5t83.5 -223.5t-85 -223t-240 -94h-510v989h153zM1151 0v989h154v-989h-154zM307 500v-365h344q88 0 134 51.5t46 131t-45 131t-135 51.5h-344z" glyph-name="afii10093" horiz-adv-x="1458" unicode="ы"/><glyph d="M307 989v-354h357q158 0 241.5 -94.5t83.5 -223.5t-85 -223t-240 -94h-510v989h153zM307 500v-365h344q88 0 134 51.5t46 131t-45 131t-135 51.5h-344z" glyph-name="afii10094" horiz-adv-x="1069" unicode="ь"/><glyph d="M455 1014q221 0 363.5 -145.5t142.5 -372.5q0 -231 -142.5 -376t-363.5 -145q-238 0 -394 152l74 100q125 -125 307 -125q154 0 249 96.5t104 235.5h-545v133h547q-10 125 -104.5 222.5t-250.5 97.5q-168 0 -288 -125l-74 100q148 152 375 152z" glyph-name="afii10095" horiz-adv-x="1056" unicode="э"/><glyph d="M983 1014q221 0 356.5 -148.5t135.5 -370t-135.5 -371t-356.5 -149.5q-205 0 -337 132.5t-148 334.5h-191v-442h-153v989h153v-411h193q27 193 156.5 314.5t326.5 121.5zM983 113q154 0 242 111.5t88 271t-88 270.5t-242 111q-150 0 -239 -112t-89 -269q0 -160 88 -271.5 t240 -111.5z" glyph-name="afii10096" horiz-adv-x="1570" unicode="ю"/><glyph d="M121 0l264 389q-113 14 -183.5 94t-70.5 203q0 131 84 217t229 86h523v-989h-154v383h-270l-242 -383h-180zM813 518v336h-352q-80 0 -126 -46t-46 -122t45 -122t127 -46h352z" glyph-name="afii10097" horiz-adv-x="1120" unicode="я"/><glyph d="M371 1159q-39 0 -67 29t-28 67.5t28 66.5t67 28t66.5 -28t27.5 -67q0 -41 -27.5 -68.5t-66.5 -27.5zM795 1159q-41 0 -69 29t-28 67.5t29 66.5t68 28t66.5 -28t27.5 -66.5t-27.5 -67.5t-66.5 -29zM96 496q0 217 139.5 367.5t348.5 150.5q219 0 347 -150.5t128 -380.5v-39 h-801q10 -145 106.5 -243.5t249.5 -98.5q184 0 306 125l73 -100q-152 -152 -393 -152q-221 0 -362.5 145t-141.5 376zM582 887q-147 0 -232.5 -100.5t-91.5 -229.5h649q-2 127 -85.5 228.5t-239.5 101.5z" glyph-name="afii10071" horiz-adv-x="1153" unicode="ё"/><glyph d="M578 -387l20 129q25 -10 74 -10q156 0 155 172v743q0 229 -223 230q-86 0 -167 -45.5t-126 -108.5v-723h-153v1096h-140v98h140v172h153v-172h322v-98h-322v-250q57 68 153.5 118t199.5 50q317 0 317 -320v-790q0 -145 -77 -225t-216 -80q-67 0 -110 14z" glyph-name="afii10099" horiz-adv-x="1134" unicode="ђ"/><glyph d="M553 1139h-141l303 295h184zM846 854h-539v-854h-153v989h692v-135z" glyph-name="afii10100" horiz-adv-x="892" unicode="ѓ"/><glyph d="M614 102q184 0 306 125l73 -100q-152 -152 -393 -152q-221 0 -362.5 144.5t-141.5 376.5q0 225 141.5 371.5t362.5 146.5q229 0 375 -152l-74 -100q-119 125 -287 125q-156 0 -251 -97.5t-103 -222.5h547v-133h-545q6 -139 102 -235.5t250 -96.5z" glyph-name="afii10101" horiz-adv-x="1056" unicode="є"/><glyph d="M68 131l79 111q51 -59 140.5 -100.5t185.5 -41.5q111 0 172.5 45t61.5 119q0 39 -19.5 67.5t-60.5 49t-77 33t-97 26.5q-68 16 -104 25.5t-93 33t-86 51.5t-52.5 74t-23.5 105q0 121 99.5 203t269.5 82q223 0 366 -144l-71 -106q-104 125 -295 125q-100 0 -159.5 -41 t-59.5 -109q0 -66 60.5 -97.5t180.5 -59.5q68 -14 107 -25.5t96 -36t89 -54.5t55.5 -79t23.5 -113q0 -131 -102.5 -215t-286.5 -84q-252 0 -399 156z" glyph-name="afii10102" horiz-adv-x="952" unicode="ѕ"/><glyph d="M229 1149q-41 0 -71.5 29.5t-30.5 72.5t30.5 74t71.5 31q43 0 74 -31t31 -74t-31 -72.5t-74 -29.5zM154 0v989h153v-989h-153z" glyph-name="afii10103" horiz-adv-x="460" unicode="і"/><glyph d="M18.5 1159q-38.5 0 -66.5 29t-28 67.5t28 66.5t66.5 28t66.5 -28t28 -67q0 -41 -28 -68.5t-66.5 -27.5zM442 1159q-41 0 -68.5 29t-27.5 67.5t28.5 66.5t67.5 28t67 -28t28 -66.5t-28 -67.5t-67 -29zM154 0v989h153v-989h-153z" glyph-name="afii10104" horiz-adv-x="460" unicode="ї"/><glyph d="M229 1149q-41 0 -71.5 29.5t-30.5 72.5t30.5 74t71.5 31q43 0 74 -31t31 -74t-31 -72.5t-74 -29.5zM307 989v-1085q0 -145 -75.5 -225t-215.5 -80q-66 0 -110 14l20 129q27 -10 74 -10q154 0 154 172v1085h153z" glyph-name="afii10105" horiz-adv-x="460" unicode="ј"/><glyph d="M37 125q41 0 74.5 27.5t64.5 96t54.5 195.5t39.5 312l21 233h686v-354h354q158 0 243 -94.5t85 -223.5t-86 -223t-242 -94h-508v854h-399l-10 -106q-25 -305 -80 -480.5t-125 -234t-172 -58.5v150zM977 500v-365h342q90 0 136 52.5t46 129.5q0 80 -46 131.5t-136 51.5 h-342z" glyph-name="afii10106" horiz-adv-x="1738" unicode="љ"/><glyph d="M154 0v989h153v-411h516v411h154v-371h360q156 0 239 -91t83 -220q0 -125 -84 -216t-238 -91h-514v442h-516v-442h-153zM977 483v-348h348q86 0 131 48t45 124q0 78 -44 127t-132 49h-348z" glyph-name="afii10107" horiz-adv-x="1738" unicode="њ"/><glyph d="M666 1014q315 0 315 -316v-698h-154v651q0 123 -57 174.5t-166 51.5q-84 0 -165 -45.5t-128 -108.5v-723h-153v1096h-140v98h140v172h153v-172h322v-98h-322v-250q57 68 154 118t201 50z" glyph-name="afii10108" horiz-adv-x="1134" unicode="ћ"/><glyph d="M600 1139h-141l303 295h184zM827 0l-356 444l-164 -161v-283h-153v989h153v-526l520 526h195l-438 -448l440 -541h-197z" glyph-name="afii10109" horiz-adv-x="1052" unicode="ќ"/><glyph d="M502 1126q-209 0 -334 168l88 72q94 -127 246 -127q154 0 243 127l89 -72q-121 -168 -332 -168zM123 -248q37 -16 84 -16q53 0 88 22.5t59 81.5l66 150l-414 999h166l330 -811l327 811h168l-495 -1190q-82 -197 -291 -200q-63 0 -113 14z" glyph-name="afii10110" horiz-adv-x="1003" unicode="ў"/><glyph d="M958 989v-989h-333v-258h-136v258h-335v989h153v-854h498v854h153z" glyph-name="afii10193" horiz-adv-x="1114" unicode="џ"/><glyph d="M330 0h-170v1366h743v252h152v-404h-725v-1214z" glyph-name="afii10050" horiz-adv-x="1126" unicode="Ґ"/><glyph d="M307 0h-153v989h557v258h135v-393h-539v-854z" glyph-name="afii10098" horiz-adv-x="892" unicode="ґ"/><glyph d="M1055 1214h-725v-473h405v-131h-405v-610h-170v610h-140v131h140v625h895v-152z" glyph-name="uni0492" horiz-adv-x="1126" unicode="Ғ"/><glyph d="M846 854h-539v-297h277v-108h-277v-449h-153v449h-134v108h134v432h692v-135z" glyph-name="uni0493" horiz-adv-x="892" unicode="ғ"/><glyph d="M1069 152h156v-404h-152v252h-88l-518 614l-137 -155v-459h-170v1366h170v-707l604 707h213l-569 -649z" glyph-name="uni049A" horiz-adv-x="1257" unicode="Қ"/><glyph d="M918 135h153v-387h-135v252h-109l-356 444l-164 -161v-283h-153v989h153v-526l520 526h195l-438 -448z" glyph-name="uni049B" horiz-adv-x="1099" unicode="қ"/><glyph d="M1196 152h156v-404h-152v252h-96l-436 582l-437 -582h-206l532 700l-502 666h207l406 -547l403 547h207l-500 -664z" glyph-name="uni04B2" horiz-adv-x="1380" unicode="Ҳ"/><glyph d="M874 135h152v-387h-135v252h-96l-297 406l-297 -406h-176l378 508l-358 481h178l275 -377l274 377h178l-358 -481z" glyph-name="uni04B3" horiz-adv-x="1054" unicode="ҳ"/><glyph d="M782 1389q299 0 488.5 -201t189.5 -506t-189.5 -506t-488.5 -201q-301 0 -489.5 201t-188.5 506t188.5 506t489.5 201zM782 1237q-205 0 -338 -128t-157 -335h991q-25 207 -159 335t-337 128zM782 127q211 0 347.5 138t152.5 358h-999q16 -219 152 -357.5t347 -138.5z " glyph-name="uni04E8" horiz-adv-x="1566" unicode="Ө"/><glyph d="M586 1014q221 0 355 -148.5t134 -370t-134 -371t-355 -149.5t-355.5 149.5t-134.5 371t134.5 370t355.5 148.5zM586 877q-135 0 -221 -91.5t-103 -228.5h647q-18 137 -103 228.5t-220 91.5zM585.5 113q139.5 0 225.5 94t100 237h-651q14 -143 100 -237t225.5 -94z" glyph-name="uni04E9" unicode="ө"/><glyph d="M541 1593q0 39 28.5 68t67.5 29t66.5 -28t27.5 -69t-27.5 -68.5t-66.5 -27.5t-67.5 28.5t-28.5 67.5zM160 0v1366h608q176 0 279.5 -96t103.5 -252q0 -123 -69.5 -208t-170.5 -105q109 -16 188 -114.5t79 -221.5q0 -166 -105.5 -267.5t-290.5 -101.5h-622zM330 774h409 q113 0 174.5 61.5t61.5 158t-62.5 158.5t-173.5 62h-409v-440zM330 152h418q119 0 186 63.5t67 171.5q0 100 -66.5 168t-186.5 68h-418v-471z" glyph-name="uni1E02" horiz-adv-x="1288" unicode="Ḃ"/><glyph d="M506 1593q0 39 28.5 68t67.5 29t66.5 -28t27.5 -69t-27.5 -68.5t-66.5 -27.5t-67.5 28.5t-28.5 67.5zM154 0v1366h153v-526q129 174 334 174q195 0 317.5 -142.5t122.5 -377.5q0 -238 -121.5 -378.5t-318.5 -140.5q-207 0 -334 172v-147h-153zM307 268q41 -66 124 -110.5 t171 -44.5q147 0 233.5 106.5t86.5 274.5t-86 275.5t-234 107.5q-88 0 -171 -46.5t-124 -113.5v-449z" glyph-name="uni1E03" horiz-adv-x="1177" unicode="ḃ"/><glyph d="M625 1593q0 39 28.5 68t67.5 29t66.5 -28t27.5 -69t-27.5 -68.5t-66.5 -27.5t-67.5 28.5t-28.5 67.5zM160 0v1366h467q313 0 506.5 -194.5t193.5 -489.5q0 -297 -193.5 -489.5t-506.5 -192.5h-467zM330 152h297q242 0 383 151.5t141 378.5q0 229 -139.5 380.5 t-384.5 151.5h-297v-1062z" glyph-name="uni1E0A" horiz-adv-x="1433" unicode="Ḋ"/><glyph d="M498 1593q0 39 28.5 68t67.5 29t66.5 -28t27.5 -69t-27.5 -68.5t-66.5 -27.5t-67.5 28.5t-28.5 67.5zM870 0v147q-127 -172 -333 -172q-197 0 -319 140.5t-122 378.5q0 236 122 378t319 142q205 0 333 -174v526h154v-1366h-154zM870 268v449q-43 68 -125.5 114t-171.5 46 q-145 0 -231 -107.5t-86 -275.5t86 -274.5t231 -106.5q90 0 172 44.5t125 110.5z" glyph-name="uni1E0B" horiz-adv-x="1177" unicode="ḋ"/><glyph d="M520 1593q0 39 29 68t67.5 29t66.5 -28t28 -69t-28 -68.5t-66.5 -27.5t-67.5 28.5t-29 67.5zM160 0v1366h895v-152h-725v-440h710v-151h-710v-623h-170z" glyph-name="uni1E1E" horiz-adv-x="1126" unicode="Ḟ"/><glyph d="M340 1593q0 39 28.5 68t67.5 29t66.5 -28t27.5 -69t-27.5 -68.5t-66.5 -27.5t-67.5 28.5t-28.5 67.5zM197 0v854h-164v135h164v76q0 152 77.5 236.5t208.5 84.5q94 0 150 -34l-39 -115q-39 23 -88 23q-76 0 -116 -50.5t-40 -144.5v-76h201v-135h-201v-854h-153z" glyph-name="uni1E1F" horiz-adv-x="579" unicode="ḟ"/><glyph d="M633 1593q0 39 28.5 68t67.5 29t66.5 -28t27.5 -69t-27.5 -68.5t-66.5 -27.5t-67.5 28.5t-28.5 67.5zM1128 0v627h-798v-627h-170v1366h170v-588h798v588h170v-1366h-170z" glyph-name="uni1E22" horiz-adv-x="1458" unicode="Ḣ"/><glyph d="M469 1593q0 39 28.5 68t67.5 29t66.5 -28t27.5 -69t-27.5 -68.5t-66.5 -27.5t-67.5 28.5t-28.5 67.5zM823 0v651q0 123 -57 174.5t-166 51.5q-84 0 -165 -45.5t-128 -108.5v-723h-153v1366h153v-520q57 68 153.5 118t201.5 50q315 0 315 -316v-698h-154z" glyph-name="uni1E23" horiz-adv-x="1130" unicode="ḣ"/><glyph d="M530 1593q0 39 29 68t68 29t66.5 -28t27.5 -69t-27.5 -68.5t-66.5 -27.5t-68 28.5t-29 67.5zM160 0v1366h549q199 0 313.5 -119t114.5 -293t-116 -292.5t-312 -118.5h-379v-543h-170zM961 954.5q0 114.5 -76 187t-197 72.5h-358v-520h358q121 0 197 73t76 187.5z" glyph-name="uni1E56" horiz-adv-x="1202" unicode="Ṗ"/><glyph d="M532 1251q0 39 29 68t68 29t66.5 -28t27.5 -69t-27.5 -68.5t-66.5 -27.5t-68 28.5t-29 67.5zM307 -377h-153v1366h153v-147q55 78 143.5 125t190.5 47q197 0 318.5 -140.5t121.5 -378t-121.5 -379t-318.5 -141.5q-209 0 -334 175v-527zM920 496q0 168 -86 274.5 t-232 106.5q-88 0 -171 -46.5t-124 -111.5v-447q41 -68 124 -113.5t171 -45.5q145 0 231.5 107.5t86.5 275.5z" glyph-name="uni1E57" horiz-adv-x="1175" unicode="ṗ"/><glyph d="M494 1593q0 39 28.5 68t67.5 29t66.5 -28t27.5 -69t-27.5 -68.5t-66.5 -27.5t-67.5 28.5t-28.5 67.5zM78 193l100 129q174 -195 430 -195q166 0 244 70.5t78 164.5q0 47 -20.5 85t-47 61.5t-81 47.5t-90.5 34t-107 31q-90 25 -135.5 38t-120 45.5t-111.5 68.5t-66.5 96.5 t-29.5 138.5q0 168 133 273t336 105q305 0 485 -190l-102 -125q-150 164 -395 164q-123 0 -202 -60.5t-79 -156.5q0 -39 20.5 -72t44 -53.5t78 -41t86 -30.5t103.5 -28q88 -25 137 -39.5t124 -49t114.5 -74.5t70.5 -105.5t31 -147.5q0 -168 -124 -285t-380 -117 q-331 1 -524 218z" glyph-name="uni1E60" horiz-adv-x="1200" unicode="Ṡ"/><glyph d="M367 1251q0 39 28.5 68t67.5 29t66.5 -28t27.5 -69t-27.5 -68.5t-66.5 -27.5t-67.5 28.5t-28.5 67.5zM68 131l79 111q51 -59 140.5 -100.5t185.5 -41.5q111 0 172.5 45t61.5 119q0 39 -19.5 67.5t-60.5 49t-77 33t-97 26.5q-68 16 -104 25.5t-93 33t-86 51.5t-52.5 74 t-23.5 105q0 121 99.5 203t269.5 82q223 0 366 -144l-71 -106q-104 125 -295 125q-100 0 -159.5 -41t-59.5 -109q0 -66 60.5 -97.5t180.5 -59.5q68 -14 107 -25.5t96 -36t89 -54.5t55.5 -79t23.5 -113q0 -131 -102.5 -215t-286.5 -84q-252 0 -399 156z" glyph-name="uni1E61" horiz-adv-x="952" unicode="ṡ"/><glyph d="M487 1593q0 39 29 68t68 29t66.5 -28t27.5 -69t-27.5 -68.5t-66.5 -27.5t-68 28.5t-29 67.5zM498 0v1214h-432v152h1036v-152h-434v-1214h-170z" glyph-name="uni1E6A" horiz-adv-x="1167" unicode="Ṫ"/><glyph d="M166 1593q0 39 28.5 68t67.5 29t66.5 -28t27.5 -69t-27.5 -68.5t-66.5 -27.5t-67.5 28.5t-28.5 67.5zM403 -25q-109 0 -164 59.5t-55 172.5v647h-164v135h164v271h154v-271h201v-135h-201v-614q0 -57 25.5 -92t74.5 -35q68 0 105 41l45 -115q-68 -64 -185 -64z" glyph-name="uni1E6B" horiz-adv-x="602" unicode="ṫ"/><glyph d="M844 1481l-346 295h159l304 -295h-117zM1204 0l-301 1102l-301 -1102h-184l-389 1366h188l303 -1139l314 1139h141l313 -1139l301 1139h189l-389 -1366h-185z" glyph-name="Wgrave" horiz-adv-x="1808" unicode="Ẁ"/><glyph d="M692 1139l-346 295h160l303 -295h-117zM1010 0l-258 795l-258 -795h-154l-315 989h159l242 -788l260 788h131l260 -788l242 788h160l-316 -989h-153z" glyph-name="wgrave" horiz-adv-x="1503" unicode="ẁ"/><glyph d="M956 1481h-116l303 295h160zM1204 0l-301 1102l-301 -1102h-184l-389 1366h188l303 -1139l314 1139h141l313 -1139l301 1139h189l-389 -1366h-185z" glyph-name="Wacute" horiz-adv-x="1808" unicode="Ẃ"/><glyph d="M805 1139h-117l303 295h160zM1010 0l-258 795l-258 -795h-154l-315 989h159l242 -788l260 788h131l260 -788l242 788h160l-316 -989h-153z" glyph-name="wacute" horiz-adv-x="1503" unicode="ẃ"/><glyph d="M692 1501q-39 0 -66.5 29t-27.5 67.5t27.5 66.5t66.5 28t66.5 -28t27.5 -67q0 -41 -27.5 -68.5t-66.5 -27.5zM1116 1501q-39 0 -67.5 27.5t-28.5 68.5q0 39 28.5 67t67.5 28t66.5 -28t27.5 -66.5t-27.5 -67.5t-66.5 -29zM1204 0l-301 1102l-301 -1102h-184l-389 1366h188 l303 -1139l314 1139h141l313 -1139l301 1139h189l-389 -1366h-185z" glyph-name="Wdieresis" horiz-adv-x="1808" unicode="Ẅ"/><glyph d="M541 1159q-39 0 -67 29t-28 67.5t28 66.5t67 28t66.5 -28t27.5 -67q0 -41 -27.5 -68.5t-66.5 -27.5zM965 1159q-39 0 -68 29t-29 67.5t29 66.5t68 28t66.5 -28t27.5 -66.5t-27.5 -67.5t-66.5 -29zM1010 0l-258 795l-258 -795h-154l-315 989h159l242 -788l260 788h131 l260 -788l242 788h160l-316 -989h-153z" glyph-name="wdieresis" horiz-adv-x="1503" unicode="ẅ"/><glyph d="M827 803q219 -10 351.5 -110.5t132.5 -299.5q0 -184 -132 -301t-333 -117q-250 0 -393 152l104 119q123 -119 289 -119q131 0 210 71.5t79 194.5q0 270 -437 271h-75v145l333 360q-96 68 -239 68q-186 0 -286.5 -108.5t-100.5 -299.5v-829h-170v834q0 258 142 406.5 t415 148.5q319 0 461 -203z" glyph-name="uni1E9E" horiz-adv-x="1376" unicode="ẞ"/><glyph d="M1141 0l-121 303h-692l-121 -303h-189l549 1366h211l551 -1366h-188zM674 1214l-297 -759h592zM578 -264q0 39 28.5 67.5t67.5 28.5t66.5 -27.5t27.5 -68.5t-27.5 -68.5t-66.5 -27.5t-67.5 28.5t-28.5 67.5z" glyph-name="uni1EA0" horiz-adv-x="1347" unicode="Ạ"/><glyph d="M772 0v113q-125 -137 -328 -138q-137 0 -241.5 88.5t-104.5 239.5q0 156 103.5 241t242.5 85q211 0 328 -135v178q0 98 -69.5 153.5t-180.5 55.5q-174 0 -303 -138l-72 107q158 164 396 164q170 0 276.5 -82t106.5 -252v-680h-154zM772 209v186q-88 123 -272 123 q-106 0 -175 -60.5t-69 -156.5q0 -94 68.5 -154.5t175.5 -60.5q184 0 272 123zM449 -264q0 39 28.5 67.5t67.5 28.5t66.5 -27.5t27.5 -68.5t-27.5 -68.5t-66.5 -27.5t-67.5 28.5t-28.5 67.5z" glyph-name="uni1EA1" horiz-adv-x="1079" unicode="ạ"/><glyph d="M467 1665q20 63 71.5 103t123.5 40q80 0 134 -46t54 -138q0 -70 -49 -141h-105q59 66 60 139q0 102 -94 102q-78 0 -109 -86zM1141 0l-121 303h-692l-121 -303h-189l549 1366h211l551 -1366h-188zM674 1214l-297 -759h592z" glyph-name="uni1EA2" horiz-adv-x="1347" unicode="Ả"/><glyph d="M338 1323q20 63 71.5 103t122.5 40q80 0 134.5 -46t54.5 -138q0 -70 -49 -141h-105q59 66 60 139q0 102 -95 102q-78 0 -108 -86zM772 0v113q-125 -137 -328 -138q-137 0 -241.5 88.5t-104.5 239.5q0 156 103.5 241t242.5 85q211 0 328 -135v178q0 98 -69.5 153.5 t-180.5 55.5q-174 0 -303 -138l-72 107q158 164 396 164q170 0 276.5 -82t106.5 -252v-680h-154zM772 209v186q-88 123 -272 123q-106 0 -175 -60.5t-69 -156.5q0 -94 68.5 -154.5t175.5 -60.5q184 0 272 123z" glyph-name="uni1EA3" horiz-adv-x="1079" unicode="ả"/><glyph d="M999 1597h-116l303 222h160zM844 1444l-170 162l-164 -162h-104l194 221h148l200 -221h-104zM1141 0l-121 303h-692l-121 -303h-189l549 1366h211l551 -1366h-188zM674 1214l-297 -759h592z" glyph-name="uni1EA4" horiz-adv-x="1347" unicode="Ấ"/><glyph d="M870 1343h-116l303 295h160zM715 1139l-170 217l-164 -217h-105l195 295h147l201 -295h-104zM772 0v113q-125 -137 -328 -138q-137 0 -241.5 88.5t-104.5 239.5q0 156 103.5 241t242.5 85q211 0 328 -135v178q0 98 -69.5 153.5t-180.5 55.5q-174 0 -303 -138l-72 107 q158 164 396 164q170 0 276.5 -82t106.5 -252v-680h-154zM772 209v186q-88 123 -272 123q-106 0 -175 -60.5t-69 -156.5q0 -94 68.5 -154.5t175.5 -60.5q184 0 272 123z" glyph-name="uni1EA5" horiz-adv-x="1079" unicode="ấ"/><glyph d="M356 1597l-346 222h160l303 -222h-117zM844 1444l-170 162l-164 -162h-104l194 221h148l200 -221h-104zM1141 0l-121 303h-692l-121 -303h-189l549 1366h211l551 -1366h-188zM674 1214l-297 -759h592z" glyph-name="uni1EA6" horiz-adv-x="1347" unicode="Ầ"/><glyph d="M227 1343l-346 295h160l303 -295h-117zM715 1139l-170 217l-164 -217h-105l195 295h147l201 -295h-104zM772 0v113q-125 -137 -328 -138q-137 0 -241.5 88.5t-104.5 239.5q0 156 103.5 241t242.5 85q211 0 328 -135v178q0 98 -69.5 153.5t-180.5 55.5q-174 0 -303 -138 l-72 107q158 164 396 164q170 0 276.5 -82t106.5 -252v-680h-154zM772 209v186q-88 123 -272 123q-106 0 -175 -60.5t-69 -156.5q0 -94 68.5 -154.5t175.5 -60.5q184 0 272 123z" glyph-name="uni1EA7" horiz-adv-x="1079" unicode="ầ"/><glyph d="M653 1733q47 109 195 108q80 0 134 -34.5t54 -102.5q0 -53 -49 -107h-104q59 47 59 105q0 78 -94 78q-80 0 -109 -66zM844 1444l-170 162l-164 -162h-104l194 221h148l200 -221h-104zM1141 0l-121 303h-692l-121 -303h-189l549 1366h211l551 -1366h-188zM674 1214 l-297 -759h592z" glyph-name="uni1EA8" horiz-adv-x="1347" unicode="Ẩ"/><glyph d="M524 1526q20 63 71.5 103t123.5 40q80 0 134 -46t54 -138q0 -72 -49 -142h-104q59 66 59 140q0 102 -94 102q-78 0 -109 -86zM715 1139l-170 217l-164 -217h-105l195 295h147l201 -295h-104zM772 0v113q-125 -137 -328 -138q-137 0 -241.5 88.5t-104.5 239.5 q0 156 103.5 241t242.5 85q211 0 328 -135v178q0 98 -69.5 153.5t-180.5 55.5q-174 0 -303 -138l-72 107q158 164 396 164q170 0 276.5 -82t106.5 -252v-680h-154zM772 209v186q-88 123 -272 123q-106 0 -175 -60.5t-69 -156.5q0 -94 68.5 -154.5t175.5 -60.5q184 0 272 123 z" glyph-name="uni1EA9" horiz-adv-x="1079" unicode="ẩ"/><glyph d="M641 1769q-49 61 -96 62q-43 0 -71 -34t-28 -99h-92q0 92 52.5 149.5t146.5 57.5q39 0 69.5 -14.5t45 -28t39.5 -39.5q51 -59 98 -60q98 0 98 131h92q0 -92 -52 -148t-146 -56q-84 -1 -156 79zM844 1444l-170 162l-164 -162h-104l194 221h148l200 -221h-104zM1141 0 l-121 303h-692l-121 -303h-189l549 1366h211l551 -1366h-188zM674 1214l-297 -759h592z" glyph-name="uni1EAA" horiz-adv-x="1347" unicode="Ẫ"/><glyph d="M512 1575q-51 80 -96 80q-43 0 -71 -44t-28 -132h-92q0 123 52.5 198.5t146.5 75.5q39 0 70.5 -19.5t45 -36t38.5 -52.5q20 -31 29 -42.5t28.5 -24.5t40.5 -13q43 0 70.5 44t27.5 132h92q0 -123 -52 -199t-146 -76q-39 0 -71 18.5t-46 37t-39 53.5zM715 1139l-170 217 l-164 -217h-105l195 295h147l201 -295h-104zM772 0v113q-125 -137 -328 -138q-137 0 -241.5 88.5t-104.5 239.5q0 156 103.5 241t242.5 85q211 0 328 -135v178q0 98 -69.5 153.5t-180.5 55.5q-174 0 -303 -138l-72 107q158 164 396 164q170 0 276.5 -82t106.5 -252v-680 h-154zM772 209v186q-88 123 -272 123q-106 0 -175 -60.5t-69 -156.5q0 -94 68.5 -154.5t175.5 -60.5q184 0 272 123z" glyph-name="uni1EAB" horiz-adv-x="1079" unicode="ẫ"/><glyph d="M844 1481l-170 217l-164 -217h-104l194 295h148l200 -295h-104zM1141 0l-121 303h-692l-121 -303h-189l549 1366h211l551 -1366h-188zM674 1214l-297 -759h592zM578 -264q0 39 28.5 67.5t67.5 28.5t66.5 -27.5t27.5 -68.5t-27.5 -68.5t-66.5 -27.5t-67.5 28.5t-28.5 67.5 z" glyph-name="uni1EAC" horiz-adv-x="1347" unicode="Ậ"/><glyph d="M715 1139l-170 217l-164 -217h-105l195 295h147l201 -295h-104zM772 0v113q-125 -137 -328 -138q-137 0 -241.5 88.5t-104.5 239.5q0 156 103.5 241t242.5 85q211 0 328 -135v178q0 98 -69.5 153.5t-180.5 55.5q-174 0 -303 -138l-72 107q158 164 396 164 q170 0 276.5 -82t106.5 -252v-680h-154zM772 209v186q-88 123 -272 123q-106 0 -175 -60.5t-69 -156.5q0 -94 68.5 -154.5t175.5 -60.5q184 0 272 123zM449 -264q0 39 28.5 67.5t67.5 28.5t66.5 -27.5t27.5 -68.5t-27.5 -68.5t-66.5 -27.5t-67.5 28.5t-28.5 67.5z" glyph-name="uni1EAD" horiz-adv-x="1079" unicode="ậ"/><glyph d="M727 1653h-117l303 221h160zM674 1448q-225 0 -361 151l76 56q109 -125 285 -125q178 0 282 125l76 -56q-131 -151 -358 -151zM1141 0l-121 303h-692l-121 -303h-189l549 1366h211l551 -1366h-188zM674 1214l-297 -759h592z" glyph-name="uni1EAE" horiz-adv-x="1347" unicode="Ắ"/><glyph d="M598 1384h-117l303 295h160zM545 1126q-223 0 -361 181l76 65q106 -147 285 -147q180 0 282 147l76 -65q-133 -181 -358 -181zM772 0v113q-125 -137 -328 -138q-137 0 -241.5 88.5t-104.5 239.5q0 156 103.5 241t242.5 85q211 0 328 -135v178q0 98 -69.5 153.5 t-180.5 55.5q-174 0 -303 -138l-72 107q158 164 396 164q170 0 276.5 -82t106.5 -252v-680h-154zM772 209v186q-88 123 -272 123q-106 0 -175 -60.5t-69 -156.5q0 -94 68.5 -154.5t175.5 -60.5q184 0 272 123z" glyph-name="uni1EAF" horiz-adv-x="1079" unicode="ắ"/><glyph d="M614 1653l-346 221h160l303 -221h-117zM674 1448q-225 0 -361 151l76 56q109 -125 285 -125q178 0 282 125l76 -56q-131 -151 -358 -151zM1141 0l-121 303h-692l-121 -303h-189l549 1366h211l551 -1366h-188zM674 1214l-297 -759h592z" glyph-name="uni1EB0" horiz-adv-x="1347" unicode="Ằ"/><glyph d="M485 1384l-346 295h160l303 -295h-117zM545 1126q-223 0 -361 181l76 65q106 -147 285 -147q180 0 282 147l76 -65q-133 -181 -358 -181zM772 0v113q-125 -137 -328 -138q-137 0 -241.5 88.5t-104.5 239.5q0 156 103.5 241t242.5 85q211 0 328 -135v178q0 98 -69.5 153.5 t-180.5 55.5q-174 0 -303 -138l-72 107q158 164 396 164q170 0 276.5 -82t106.5 -252v-680h-154zM772 209v186q-88 123 -272 123q-106 0 -175 -60.5t-69 -156.5q0 -94 68.5 -154.5t175.5 -60.5q184 0 272 123z" glyph-name="uni1EB1" horiz-adv-x="1079" unicode="ằ"/><glyph d="M467 1790q47 109 195 108q80 0 134 -34.5t54 -102.5q0 -53 -49 -106h-105q59 47 60 104q0 78 -94 78q-80 0 -109 -65zM674 1448q-225 0 -361 151l76 56q109 -125 285 -125q178 0 282 125l76 -56q-131 -151 -358 -151zM1141 0l-121 303h-692l-121 -303h-189l549 1366h211 l551 -1366h-188zM674 1214l-297 -759h592z" glyph-name="uni1EB2" horiz-adv-x="1347" unicode="Ẳ"/><glyph d="M338 1569q20 63 71.5 103t122.5 40q80 0 134.5 -46t54.5 -138q0 -70 -49 -142h-105q59 66 60 140q0 102 -95 102q-78 0 -108 -86zM545 1126q-223 0 -361 181l76 65q106 -147 285 -147q180 0 282 147l76 -65q-133 -181 -358 -181zM772 0v113q-125 -137 -328 -138 q-137 0 -241.5 88.5t-104.5 239.5q0 156 103.5 241t242.5 85q211 0 328 -135v178q0 98 -69.5 153.5t-180.5 55.5q-174 0 -303 -138l-72 107q158 164 396 164q170 0 276.5 -82t106.5 -252v-680h-154zM772 209v186q-88 123 -272 123q-106 0 -175 -60.5t-69 -156.5 q0 -94 68.5 -154.5t175.5 -60.5q184 0 272 123z" glyph-name="uni1EB3" horiz-adv-x="1079" unicode="ẳ"/><glyph d="M641 1706q-49 61 -96 61q-43 0 -71 -33.5t-28 -99.5h-92q0 92 52.5 149.5t146.5 57.5q39 0 69.5 -14.5t45 -27.5t39.5 -40q51 -59 98 -59q98 0 98 131h92q0 -92 -52 -148.5t-146 -56.5q-84 0 -156 80zM674 1436q-225 0 -361 135l76 47q109 -109 285 -109q180 0 282 109 l76 -47q-131 -135 -358 -135zM1141 0l-121 303h-692l-121 -303h-189l549 1366h211l551 -1366h-188zM674 1214l-297 -759h592z" glyph-name="uni1EB4" horiz-adv-x="1347" unicode="Ẵ"/><glyph d="M512 1489q-51 80 -96 80q-43 0 -71 -44t-28 -132h-92q0 123 52.5 198.5t146.5 75.5q39 0 70.5 -19.5t45 -36t38.5 -52.5q20 -31 29 -42.5t28.5 -24.5t40.5 -13q43 0 70.5 44t27.5 132h92q0 -123 -52 -199t-146 -76q-39 0 -71 18.5t-46 37t-39 53.5zM545 1126 q-223 0 -361 181l76 65q106 -147 285 -147q180 0 282 147l76 -65q-133 -181 -358 -181zM772 0v113q-125 -137 -328 -138q-137 0 -241.5 88.5t-104.5 239.5q0 156 103.5 241t242.5 85q211 0 328 -135v178q0 98 -69.5 153.5t-180.5 55.5q-174 0 -303 -138l-72 107 q158 164 396 164q170 0 276.5 -82t106.5 -252v-680h-154zM772 209v186q-88 123 -272 123q-106 0 -175 -60.5t-69 -156.5q0 -94 68.5 -154.5t175.5 -60.5q184 0 272 123z" glyph-name="uni1EB5" horiz-adv-x="1079" unicode="ẵ"/><glyph d="M674 1468q-223 0 -361 181l76 65q106 -147 285 -147q180 0 282 147l76 -65q-133 -181 -358 -181zM1141 0l-121 303h-692l-121 -303h-189l549 1366h211l551 -1366h-188zM674 1214l-297 -759h592zM578 -264q0 39 28.5 67.5t67.5 28.5t66.5 -27.5t27.5 -68.5t-27.5 -68.5 t-66.5 -27.5t-67.5 28.5t-28.5 67.5z" glyph-name="uni1EB6" horiz-adv-x="1347" unicode="Ặ"/><glyph d="M545 1126q-223 0 -361 181l76 65q106 -147 285 -147q180 0 282 147l76 -65q-133 -181 -358 -181zM772 0v113q-125 -137 -328 -138q-137 0 -241.5 88.5t-104.5 239.5q0 156 103.5 241t242.5 85q211 0 328 -135v178q0 98 -69.5 153.5t-180.5 55.5q-174 0 -303 -138l-72 107 q158 164 396 164q170 0 276.5 -82t106.5 -252v-680h-154zM772 209v186q-88 123 -272 123q-106 0 -175 -60.5t-69 -156.5q0 -94 68.5 -154.5t175.5 -60.5q184 0 272 123zM449 -264q0 39 28.5 67.5t67.5 28.5t66.5 -27.5t27.5 -68.5t-27.5 -68.5t-66.5 -27.5t-67.5 28.5 t-28.5 67.5z" glyph-name="uni1EB7" horiz-adv-x="1079" unicode="ặ"/><glyph d="M160 0v1366h895v-152h-725v-440h710v-151h-710v-471h725v-152h-895zM522 -264q0 39 29 67.5t67.5 28.5t66.5 -27.5t28 -68.5t-28 -68.5t-66.5 -27.5t-67.5 28.5t-29 67.5z" glyph-name="uni1EB8" horiz-adv-x="1165" unicode="Ẹ"/><glyph d="M96 496q0 217 139.5 367.5t348.5 150.5q219 0 347 -150.5t128 -380.5v-39h-801q10 -145 106.5 -243.5t249.5 -98.5q184 0 306 125l73 -100q-152 -152 -393 -152q-221 0 -362.5 145t-141.5 376zM582 887q-147 0 -232.5 -100.5t-91.5 -229.5h649q-2 127 -85.5 228.5 t-239.5 101.5zM485 -264q0 39 29 67.5t68 28.5t66.5 -27.5t27.5 -68.5t-27.5 -68.5t-66.5 -27.5t-68 28.5t-29 67.5z" glyph-name="uni1EB9" horiz-adv-x="1153" unicode="ẹ"/><glyph d="M412 1665q20 63 71.5 103t122.5 40q80 0 134.5 -46t54.5 -138q0 -70 -50 -141h-104q59 66 59 139q0 102 -94 102q-78 0 -108 -86zM160 0v1366h895v-152h-725v-440h710v-151h-710v-471h725v-152h-895z" glyph-name="uni1EBA" horiz-adv-x="1165" unicode="Ẻ"/><glyph d="M375 1323q20 63 71.5 103t122.5 40q80 0 134.5 -46t54.5 -138q0 -70 -49 -141h-105q59 66 60 139q0 102 -95 102q-78 0 -108 -86zM96 496q0 217 139.5 367.5t348.5 150.5q219 0 347 -150.5t128 -380.5v-39h-801q10 -145 106.5 -243.5t249.5 -98.5q184 0 306 125l73 -100 q-152 -152 -393 -152q-221 0 -362.5 145t-141.5 376zM582 887q-147 0 -232.5 -100.5t-91.5 -229.5h649q-2 127 -85.5 228.5t-239.5 101.5z" glyph-name="uni1EBB" horiz-adv-x="1153" unicode="ẻ"/><glyph d="M586 1585q-51 80 -97 80q-43 0 -70.5 -44t-27.5 -132h-92q0 123 52 198.5t147 75.5q39 0 70.5 -19.5t45 -35.5t37.5 -53q20 -31 29.5 -42t29 -24.5t40.5 -13.5q43 0 70.5 44t27.5 132h92q0 -123 -52 -198.5t-147 -75.5q-39 0 -70.5 18t-45.5 36.5t-39 53.5zM160 0v1366 h895v-152h-725v-440h710v-151h-710v-471h725v-152h-895z" glyph-name="uni1EBC" horiz-adv-x="1165" unicode="Ẽ"/><glyph d="M549 1243q-51 80 -96 80q-43 0 -71 -44t-28 -132h-92q0 123 52.5 198.5t146.5 75.5q39 0 70.5 -19.5t45 -35.5t37.5 -53q20 -31 29.5 -42t29 -24.5t40.5 -13.5q43 0 70.5 44t27.5 132h92q0 -123 -52 -198.5t-146 -75.5q-39 0 -71 18t-46 36.5t-39 53.5zM96 496 q0 217 139.5 367.5t348.5 150.5q219 0 347 -150.5t128 -380.5v-39h-801q10 -145 106.5 -243.5t249.5 -98.5q184 0 306 125l73 -100q-152 -152 -393 -152q-221 0 -362.5 145t-141.5 376zM582 887q-147 0 -232.5 -100.5t-91.5 -229.5h649q-2 127 -85.5 228.5t-239.5 101.5z " glyph-name="uni1EBD" horiz-adv-x="1153" unicode="ẽ"/><glyph d="M944 1597h-117l303 222h160zM788 1444l-170 162l-163 -162h-105l195 221h147l201 -221h-105zM160 0v1366h895v-152h-725v-440h710v-151h-710v-471h725v-152h-895z" glyph-name="uni1EBE" horiz-adv-x="1165" unicode="Ế"/><glyph d="M907 1343h-116l303 295h159zM752 1139l-170 217l-164 -217h-105l195 295h147l201 -295h-104zM96 496q0 217 139.5 367.5t348.5 150.5q219 0 347 -150.5t128 -380.5v-39h-801q10 -145 106.5 -243.5t249.5 -98.5q184 0 306 125l73 -100q-152 -152 -393 -152 q-221 0 -362.5 145t-141.5 376zM582 887q-147 0 -232.5 -100.5t-91.5 -229.5h649q-2 127 -85.5 228.5t-239.5 101.5z" glyph-name="uni1EBF" horiz-adv-x="1153" unicode="ế"/><glyph d="M301 1597l-346 222h160l303 -222h-117zM788 1444l-170 162l-163 -162h-105l195 221h147l201 -221h-105zM160 0v1366h895v-152h-725v-440h710v-151h-710v-471h725v-152h-895z" glyph-name="uni1EC0" horiz-adv-x="1165" unicode="Ề"/><glyph d="M264 1343l-346 295h160l303 -295h-117zM752 1139l-170 217l-164 -217h-105l195 295h147l201 -295h-104zM96 496q0 217 139.5 367.5t348.5 150.5q219 0 347 -150.5t128 -380.5v-39h-801q10 -145 106.5 -243.5t249.5 -98.5q184 0 306 125l73 -100q-152 -152 -393 -152 q-221 0 -362.5 145t-141.5 376zM582 887q-147 0 -232.5 -100.5t-91.5 -229.5h649q-2 127 -85.5 228.5t-239.5 101.5z" glyph-name="uni1EC1" horiz-adv-x="1153" unicode="ề"/><glyph d="M598 1733q47 109 195 108q80 0 134 -34.5t54 -102.5q0 -53 -49 -107h-105q59 47 60 105q0 78 -94 78q-80 0 -109 -66zM788 1444l-170 162l-163 -162h-105l195 221h147l201 -221h-105zM160 0v1366h895v-152h-725v-440h710v-151h-710v-471h725v-152h-895z" glyph-name="uni1EC2" horiz-adv-x="1165" unicode="Ể"/><glyph d="M561 1526q20 63 71.5 103t123.5 40q80 0 134 -46t54 -138q0 -72 -49 -142h-104q59 66 59 140q0 102 -94 102q-78 0 -109 -86zM752 1139l-170 217l-164 -217h-105l195 295h147l201 -295h-104zM96 496q0 217 139.5 367.5t348.5 150.5q219 0 347 -150.5t128 -380.5v-39h-801 q10 -145 106.5 -243.5t249.5 -98.5q184 0 306 125l73 -100q-152 -152 -393 -152q-221 0 -362.5 145t-141.5 376zM582 887q-147 0 -232.5 -100.5t-91.5 -229.5h649q-2 127 -85.5 228.5t-239.5 101.5z" glyph-name="uni1EC3" horiz-adv-x="1153" unicode="ể"/><glyph d="M586 1769q-49 61 -97 62q-43 0 -70.5 -34t-27.5 -99h-92q0 92 52 149.5t147 57.5q39 0 69.5 -14.5t45 -28t38.5 -39.5q51 -59 99 -60q98 0 98 131h92q0 -92 -52 -148t-147 -56q-83 -1 -155 79zM788 1444l-170 162l-163 -162h-105l195 221h147l201 -221h-105zM160 0v1366 h895v-152h-725v-440h710v-151h-710v-471h725v-152h-895z" glyph-name="uni1EC4" horiz-adv-x="1165" unicode="Ễ"/><glyph d="M549 1575q-51 80 -96 80q-43 0 -71 -44t-28 -132h-92q0 123 52.5 198.5t146.5 75.5q39 0 70.5 -19.5t45 -36t37.5 -52.5q20 -31 29.5 -42.5t29 -24.5t40.5 -13q43 0 70.5 44t27.5 132h92q0 -123 -52 -199t-146 -76q-39 0 -71 18.5t-46 37t-39 53.5zM752 1139l-170 217 l-164 -217h-105l195 295h147l201 -295h-104zM96 496q0 217 139.5 367.5t348.5 150.5q219 0 347 -150.5t128 -380.5v-39h-801q10 -145 106.5 -243.5t249.5 -98.5q184 0 306 125l73 -100q-152 -152 -393 -152q-221 0 -362.5 145t-141.5 376zM582 887q-147 0 -232.5 -100.5 t-91.5 -229.5h649q-2 127 -85.5 228.5t-239.5 101.5z" glyph-name="uni1EC5" horiz-adv-x="1153" unicode="ễ"/><glyph d="M788 1481l-170 217l-163 -217h-105l195 295h147l201 -295h-105zM160 0v1366h895v-152h-725v-440h710v-151h-710v-471h725v-152h-895zM522 -264q0 39 29 67.5t67.5 28.5t66.5 -27.5t28 -68.5t-28 -68.5t-66.5 -27.5t-67.5 28.5t-29 67.5z" glyph-name="uni1EC6" horiz-adv-x="1165" unicode="Ệ"/><glyph d="M752 1139l-170 217l-164 -217h-105l195 295h147l201 -295h-104zM96 496q0 217 139.5 367.5t348.5 150.5q219 0 347 -150.5t128 -380.5v-39h-801q10 -145 106.5 -243.5t249.5 -98.5q184 0 306 125l73 -100q-152 -152 -393 -152q-221 0 -362.5 145t-141.5 376zM582 887 q-147 0 -232.5 -100.5t-91.5 -229.5h649q-2 127 -85.5 228.5t-239.5 101.5zM485 -264q0 39 29 67.5t68 28.5t66.5 -27.5t27.5 -68.5t-27.5 -68.5t-66.5 -27.5t-68 28.5t-29 67.5z" glyph-name="uni1EC7" horiz-adv-x="1153" unicode="ệ"/><glyph d="M39 1665q20 63 71.5 103t122.5 40q80 0 134.5 -46t54.5 -138q0 -70 -49 -141h-105q59 66 60 139q0 102 -95 102q-78 0 -108 -86zM160 0v1366h170v-1366h-170z" glyph-name="uni1EC8" horiz-adv-x="489" unicode="Ỉ"/><glyph d="M23 1323q20 63 71 103t123 40q80 0 134.5 -46t54.5 -138q0 -70 -50 -141h-104q59 66 59 139q0 102 -94 102q-78 0 -108 -86zM154 0v989h153v-989h-153z" glyph-name="uni1EC9" horiz-adv-x="460" unicode="ỉ"/><glyph d="M160 0v1366h170v-1366h-170zM150 -264q0 39 28.5 67.5t67.5 28.5t66.5 -27.5t27.5 -68.5t-27.5 -68.5t-66.5 -27.5t-67.5 28.5t-28.5 67.5z" glyph-name="uni1ECA" horiz-adv-x="489" unicode="Ị"/><glyph d="M229 1149q-41 0 -71.5 29.5t-30.5 72.5t30.5 74t71.5 31q43 0 74 -31t31 -74t-31 -72.5t-74 -29.5zM154 0v989h153v-989h-153zM133 -264q0 39 28.5 67.5t67.5 28.5t67 -27.5t28 -68.5t-28 -68.5t-67 -27.5t-67.5 28.5t-28.5 67.5z" glyph-name="uni1ECB" horiz-adv-x="460" unicode="ị"/><glyph d="M104 682q0 305 188.5 506t489.5 201q299 0 488.5 -201t189.5 -506t-189.5 -506t-488.5 -201q-301 0 -489.5 201t-188.5 506zM1284 682q0 244 -138 399.5t-364 155.5q-227 0 -364 -155.5t-137 -399.5q0 -242 137 -398.5t364 -156.5q225 0 363.5 156.5t138.5 398.5z M684 -264q0 39 28.5 67.5t67.5 28.5t66.5 -27.5t27.5 -68.5t-27.5 -68.5t-66.5 -27.5t-67.5 28.5t-28.5 67.5z" glyph-name="uni1ECC" horiz-adv-x="1566" unicode="Ọ"/><glyph d="M586 -25q-221 0 -355.5 149.5t-134.5 371t134.5 370t355.5 148.5t355 -148.5t134 -370t-134 -371t-355 -149.5zM585.5 113q151.5 0 239.5 111.5t88 271t-88 270.5t-239.5 111t-240.5 -112t-89 -269q0 -160 89 -271.5t240.5 -111.5zM489 -264q0 39 29 67.5t68 28.5 t66.5 -27.5t27.5 -68.5t-27.5 -68.5t-66.5 -27.5t-68 28.5t-29 67.5z" glyph-name="uni1ECD" unicode="ọ"/><glyph d="M573 1665q20 63 71.5 103t123.5 40q80 0 134 -46t54 -138q0 -70 -49 -141h-104q59 66 59 139q0 102 -94 102q-78 0 -109 -86zM104 682q0 305 188.5 506t489.5 201q299 0 488.5 -201t189.5 -506t-189.5 -506t-488.5 -201q-301 0 -489.5 201t-188.5 506zM1284 682 q0 244 -138 399.5t-364 155.5q-227 0 -364 -155.5t-137 -399.5q0 -242 137 -398.5t364 -156.5q225 0 363.5 156.5t138.5 398.5z" glyph-name="uni1ECE" horiz-adv-x="1566" unicode="Ỏ"/><glyph d="M379 1323q20 63 71.5 103t122.5 40q80 0 134.5 -46t54.5 -138q0 -70 -49 -141h-105q59 66 60 139q0 102 -95 102q-78 0 -108 -86zM586 -25q-221 0 -355.5 149.5t-134.5 371t134.5 370t355.5 148.5t355 -148.5t134 -370t-134 -371t-355 -149.5zM585.5 113 q151.5 0 239.5 111.5t88 271t-88 270.5t-239.5 111t-240.5 -112t-89 -269q0 -160 89 -271.5t240.5 -111.5z" glyph-name="uni1ECF" unicode="ỏ"/><glyph d="M1106 1597h-117l303 222h160zM950 1444l-170 162l-164 -162h-104l195 221h147l201 -221h-105zM104 682q0 305 188.5 506t489.5 201q299 0 488.5 -201t189.5 -506t-189.5 -506t-488.5 -201q-301 0 -489.5 201t-188.5 506zM1284 682q0 244 -138 399.5t-364 155.5 q-227 0 -364 -155.5t-137 -399.5q0 -242 137 -398.5t364 -156.5q225 0 363.5 156.5t138.5 398.5z" glyph-name="uni1ED0" horiz-adv-x="1566" unicode="Ố"/><glyph d="M909 1343h-116l303 295h159zM756 1139l-170 217l-164 -217h-105l195 295h147l201 -295h-104zM586 -25q-221 0 -355.5 149.5t-134.5 371t134.5 370t355.5 148.5t355 -148.5t134 -370t-134 -371t-355 -149.5zM585.5 113q151.5 0 239.5 111.5t88 271t-88 270.5t-239.5 111 t-240.5 -112t-89 -269q0 -160 89 -271.5t240.5 -111.5z" glyph-name="uni1ED1" unicode="ố"/><glyph d="M463 1597l-346 222h159l304 -222h-117zM950 1444l-170 162l-164 -162h-104l195 221h147l201 -221h-105zM104 682q0 305 188.5 506t489.5 201q299 0 488.5 -201t189.5 -506t-189.5 -506t-488.5 -201q-301 0 -489.5 201t-188.5 506zM1284 682q0 244 -138 399.5t-364 155.5 q-227 0 -364 -155.5t-137 -399.5q0 -242 137 -398.5t364 -156.5q225 0 363.5 156.5t138.5 398.5z" glyph-name="uni1ED2" horiz-adv-x="1566" unicode="Ồ"/><glyph d="M268 1343l-346 295h160l303 -295h-117zM756 1139l-170 217l-164 -217h-105l195 295h147l201 -295h-104zM586 -25q-221 0 -355.5 149.5t-134.5 371t134.5 370t355.5 148.5t355 -148.5t134 -370t-134 -371t-355 -149.5zM585.5 113q151.5 0 239.5 111.5t88 271t-88 270.5 t-239.5 111t-240.5 -112t-89 -269q0 -160 89 -271.5t240.5 -111.5z" glyph-name="uni1ED3" unicode="ồ"/><glyph d="M762 1733q47 109 194 108q80 0 134.5 -34.5t54.5 -102.5q0 -53 -49 -107h-105q59 47 60 105q0 78 -95 78q-80 0 -108 -66zM950 1444l-170 162l-164 -162h-104l195 221h147l201 -221h-105zM104 682q0 305 188.5 506t489.5 201q299 0 488.5 -201t189.5 -506t-189.5 -506 t-488.5 -201q-301 0 -489.5 201t-188.5 506zM1284 682q0 244 -138 399.5t-364 155.5q-227 0 -364 -155.5t-137 -399.5q0 -242 137 -398.5t364 -156.5q225 0 363.5 156.5t138.5 398.5z" glyph-name="uni1ED4" horiz-adv-x="1566" unicode="Ổ"/><glyph d="M565 1526q20 63 71.5 103t123.5 40q80 0 134 -46t54 -138q0 -72 -49 -142h-104q59 66 59 140q0 102 -94 102q-78 0 -109 -86zM756 1139l-170 217l-164 -217h-105l195 295h147l201 -295h-104zM586 -25q-221 0 -355.5 149.5t-134.5 371t134.5 370t355.5 148.5t355 -148.5 t134 -370t-134 -371t-355 -149.5zM585.5 113q151.5 0 239.5 111.5t88 271t-88 270.5t-239.5 111t-240.5 -112t-89 -269q0 -160 89 -271.5t240.5 -111.5z" glyph-name="uni1ED5" unicode="ổ"/><glyph d="M748 1769q-49 61 -97 62q-43 0 -70.5 -34t-27.5 -99h-92q0 92 52 149.5t146 57.5q39 0 70 -14.5t45 -28t39 -39.5q51 -59 98 -60q98 0 99 131h92q0 -92 -52.5 -148t-146.5 -56q-83 -1 -155 79zM950 1444l-170 162l-164 -162h-104l195 221h147l201 -221h-105zM104 682 q0 305 188.5 506t489.5 201q299 0 488.5 -201t189.5 -506t-189.5 -506t-488.5 -201q-301 0 -489.5 201t-188.5 506zM1284 682q0 244 -138 399.5t-364 155.5q-227 0 -364 -155.5t-137 -399.5q0 -242 137 -398.5t364 -156.5q225 0 363.5 156.5t138.5 398.5z" glyph-name="uni1ED6" horiz-adv-x="1566" unicode="Ỗ"/><glyph d="M553 1575q-51 80 -96 80q-43 0 -71 -44t-28 -132h-92q0 123 52.5 198.5t146.5 75.5q39 0 70.5 -19.5t45 -36t37.5 -52.5q20 -31 29.5 -42.5t29 -24.5t40.5 -13q43 0 70.5 44t27.5 132h92q0 -123 -52 -199t-146 -76q-39 0 -71 18.5t-46 37t-39 53.5zM756 1139l-170 217 l-164 -217h-105l195 295h147l201 -295h-104zM586 -25q-221 0 -355.5 149.5t-134.5 371t134.5 370t355.5 148.5t355 -148.5t134 -370t-134 -371t-355 -149.5zM585.5 113q151.5 0 239.5 111.5t88 271t-88 270.5t-239.5 111t-240.5 -112t-89 -269q0 -160 89 -271.5 t240.5 -111.5z" glyph-name="uni1ED7" unicode="ỗ"/><glyph d="M950 1481l-170 217l-164 -217h-104l195 295h147l201 -295h-105zM104 682q0 305 188.5 506t489.5 201q299 0 488.5 -201t189.5 -506t-189.5 -506t-488.5 -201q-301 0 -489.5 201t-188.5 506zM1284 682q0 244 -138 399.5t-364 155.5q-227 0 -364 -155.5t-137 -399.5 q0 -242 137 -398.5t364 -156.5q225 0 363.5 156.5t138.5 398.5zM684 -264q0 39 28.5 67.5t67.5 28.5t66.5 -27.5t27.5 -68.5t-27.5 -68.5t-66.5 -27.5t-67.5 28.5t-28.5 67.5z" glyph-name="uni1ED8" horiz-adv-x="1566" unicode="Ộ"/><glyph d="M756 1139l-170 217l-164 -217h-105l195 295h147l201 -295h-104zM586 -25q-221 0 -355.5 149.5t-134.5 371t134.5 370t355.5 148.5t355 -148.5t134 -370t-134 -371t-355 -149.5zM585.5 113q151.5 0 239.5 111.5t88 271t-88 270.5t-239.5 111t-240.5 -112t-89 -269 q0 -160 89 -271.5t240.5 -111.5zM489 -264q0 39 29 67.5t68 28.5t66.5 -27.5t27.5 -68.5t-27.5 -68.5t-66.5 -27.5t-68 28.5t-29 67.5z" glyph-name="uni1ED9" unicode="ộ"/><glyph d="M1180 1776l-346 -295h-117l303 295h160zM1473 1360q0 -76 -37 -144.5t-97 -113.5q121 -178 121 -420q0 -305 -189.5 -506t-488.5 -201q-301 0 -489.5 201t-188.5 506t188.5 506t489.5 201q317 0 512 -226q82 68 92 156q-4 -4 -22 -4q-35 0 -57.5 24.5t-22.5 59.5 q0 37 24.5 63.5t61.5 26.5q43 0 73 -35t30 -94zM782 127q225 0 363.5 156.5t138.5 398.5q0 244 -138 399.5t-364 155.5q-227 0 -364 -155.5t-137 -399.5q0 -242 137 -398.5t364 -156.5z" glyph-name="uni1EDA" horiz-adv-x="1566" unicode="Ớ"/><glyph d="M985 1434l-346 -295h-117l303 295h160zM1079 1085q0 -70 -32.5 -135t-85.5 -108q115 -143 114 -346q0 -221 -134 -371t-355 -150t-355.5 149.5t-134.5 371t134.5 370t355.5 148.5q193 0 321 -117q76 66 86 147l-22 -2q-35 0 -58.5 24t-23.5 60q0 35 25.5 61.5t62.5 26.5 q43 0 72.5 -35t29.5 -94zM585.5 113q151.5 0 239.5 111.5t88 271t-88 270.5t-239.5 111t-240.5 -112t-89 -269q0 -160 89 -271.5t240.5 -111.5z" glyph-name="uni1EDB" unicode="ớ"/><glyph d="M840 1481h-117l-346 295h160zM1473 1360q0 -76 -37 -144.5t-97 -113.5q121 -178 121 -420q0 -305 -189.5 -506t-488.5 -201q-301 0 -489.5 201t-188.5 506t188.5 506t489.5 201q317 0 512 -226q82 68 92 156q-4 -4 -22 -4q-35 0 -57.5 24.5t-22.5 59.5q0 37 24.5 63.5 t61.5 26.5q43 0 73 -35t30 -94zM782 127q225 0 363.5 156.5t138.5 398.5q0 244 -138 399.5t-364 155.5q-227 0 -364 -155.5t-137 -399.5q0 -242 137 -398.5t364 -156.5z" glyph-name="uni1EDC" horiz-adv-x="1566" unicode="Ờ"/><glyph d="M643 1139h-117l-346 295h160zM1079 1085q0 -70 -32.5 -135t-85.5 -108q115 -143 114 -346q0 -221 -134 -371t-355 -150t-355.5 149.5t-134.5 371t134.5 370t355.5 148.5q193 0 321 -117q76 66 86 147l-22 -2q-35 0 -58.5 24t-23.5 60q0 35 25.5 61.5t62.5 26.5 q43 0 72.5 -35t29.5 -94zM585.5 113q151.5 0 239.5 111.5t88 271t-88 270.5t-239.5 111t-240.5 -112t-89 -269q0 -160 89 -271.5t240.5 -111.5z" glyph-name="uni1EDD" unicode="ờ"/><glyph d="M768 1724q-78 0 -109 -86l-86 27q20 63 71.5 103t123.5 40q80 0 134 -46t54 -138q0 -70 -49 -141h-104q59 66 59 139q0 102 -94 102zM1473 1360q0 -76 -37 -144.5t-97 -113.5q121 -178 121 -420q0 -305 -189.5 -506t-488.5 -201q-301 0 -489.5 201t-188.5 506t188.5 506 t489.5 201q317 0 512 -226q82 68 92 156q-4 -4 -22 -4q-35 0 -57.5 24.5t-22.5 59.5q0 37 24.5 63.5t61.5 26.5q43 0 73 -35t30 -94zM782 127q225 0 363.5 156.5t138.5 398.5q0 244 -138 399.5t-364 155.5q-227 0 -364 -155.5t-137 -399.5q0 -242 137 -398.5t364 -156.5z " glyph-name="uni1EDE" horiz-adv-x="1566" unicode="Ở"/><glyph d="M573 1382q-78 0 -108 -86l-86 27q20 63 71.5 103t122.5 40q80 0 134.5 -46t54.5 -138q0 -70 -49 -141h-105q59 66 60 139q-1 102 -95 102zM1079 1085q0 -70 -32.5 -135t-85.5 -108q115 -143 114 -346q0 -221 -134 -371t-355 -150t-355.5 149.5t-134.5 371t134.5 370 t355.5 148.5q193 0 321 -117q76 66 86 147l-22 -2q-35 0 -58.5 24t-23.5 60q0 35 25.5 61.5t62.5 26.5q43 0 72.5 -35t29.5 -94zM585.5 113q151.5 0 239.5 111.5t88 271t-88 270.5t-239.5 111t-240.5 -112t-89 -269q0 -160 89 -271.5t240.5 -111.5z" glyph-name="uni1EDF" unicode="ở"/><glyph d="M651 1665q-43 0 -70.5 -44t-27.5 -132h-92q0 123 52 198.5t146 75.5q39 0 71 -19.5t45 -35.5t38 -53q20 -31 29.5 -42t29 -24.5t39.5 -13.5q43 0 71 44t28 132h92q0 -123 -52.5 -198.5t-146.5 -75.5q-39 0 -70.5 18t-46 36.5t-38.5 53.5q-52 80 -97 80zM1473 1360 q0 -76 -37 -144.5t-97 -113.5q121 -178 121 -420q0 -305 -189.5 -506t-488.5 -201q-301 0 -489.5 201t-188.5 506t188.5 506t489.5 201q317 0 512 -226q82 68 92 156q-4 -4 -22 -4q-35 0 -57.5 24.5t-22.5 59.5q0 37 24.5 63.5t61.5 26.5q43 0 73 -35t30 -94zM782 127 q225 0 363.5 156.5t138.5 398.5q0 244 -138 399.5t-364 155.5q-227 0 -364 -155.5t-137 -399.5q0 -242 137 -398.5t364 -156.5z" glyph-name="uni1EE0" horiz-adv-x="1566" unicode="Ỡ"/><glyph d="M457 1323q-43 0 -71 -44t-28 -132h-92q0 123 52.5 198.5t146.5 75.5q39 0 70.5 -19.5t45 -35.5t37.5 -53q20 -31 29.5 -42t29 -24.5t40.5 -13.5q43 0 70.5 44t27.5 132h92q0 -123 -52 -198.5t-146 -75.5q-39 0 -71 18t-46 36.5t-39 53.5q-51 80 -96 80zM1079 1085 q0 -70 -32.5 -135t-85.5 -108q115 -143 114 -346q0 -221 -134 -371t-355 -150t-355.5 149.5t-134.5 371t134.5 370t355.5 148.5q193 0 321 -117q76 66 86 147l-22 -2q-35 0 -58.5 24t-23.5 60q0 35 25.5 61.5t62.5 26.5q43 0 72.5 -35t29.5 -94zM585.5 113 q151.5 0 239.5 111.5t88 271t-88 270.5t-239.5 111t-240.5 -112t-89 -269q0 -160 89 -271.5t240.5 -111.5z" glyph-name="uni1EE1" unicode="ỡ"/><glyph d="M1473 1360q0 -76 -37 -144.5t-97 -113.5q121 -178 121 -420q0 -305 -189.5 -506t-488.5 -201q-301 0 -489.5 201t-188.5 506t188.5 506t489.5 201q317 0 512 -226q82 68 92 156q-4 -4 -22 -4q-35 0 -57.5 24.5t-22.5 59.5q0 37 24.5 63.5t61.5 26.5q43 0 73 -35t30 -94z M782 127q225 0 363.5 156.5t138.5 398.5q0 244 -138 399.5t-364 155.5q-227 0 -364 -155.5t-137 -399.5q0 -242 137 -398.5t364 -156.5zM780 -168q39 0 66.5 -27.5t27.5 -68.5t-27.5 -68.5t-66.5 -27.5t-67.5 28.5t-28.5 67.5t28.5 67.5t67.5 28.5z" glyph-name="uni1EE2" horiz-adv-x="1566" unicode="Ợ"/><glyph d="M1079 1085q0 -70 -32.5 -135t-85.5 -108q115 -143 114 -346q0 -221 -134 -371t-355 -150t-355.5 149.5t-134.5 371t134.5 370t355.5 148.5q193 0 321 -117q76 66 86 147l-22 -2q-35 0 -58.5 24t-23.5 60q0 35 25.5 61.5t62.5 26.5q43 0 72.5 -35t29.5 -94zM585.5 113 q151.5 0 239.5 111.5t88 271t-88 270.5t-239.5 111t-240.5 -112t-89 -269q0 -160 89 -271.5t240.5 -111.5zM586 -168q39 0 66.5 -27.5t27.5 -68.5t-27.5 -68.5t-66.5 -27.5t-68 28.5t-29 67.5t29 67.5t68 28.5z" glyph-name="uni1EE3" unicode="ợ"/><glyph d="M160 530v836h170v-831q0 -190 100 -299t286.5 -109t287 108.5t100.5 299.5v831h170v-834q0 -260 -142.5 -408.5t-415 -148.5t-414.5 148.5t-142 406.5zM621 -264q0 39 28.5 67.5t67.5 28.5t66.5 -27.5t27.5 -68.5t-27.5 -68.5t-66.5 -27.5t-67.5 28.5t-28.5 67.5z" glyph-name="uni1EE4" horiz-adv-x="1433" unicode="Ụ"/><glyph d="M821 0v139q-61 -70 -154.5 -117t-197.5 -47q-315 0 -315 316v698h153v-651q0 -123 56.5 -174t164.5 -51q86 0 167 43t126 106v727h154v-989h-154zM467 -264q0 39 28.5 67.5t67.5 28.5t66.5 -27.5t27.5 -68.5t-27.5 -68.5t-66.5 -27.5t-67.5 28.5t-28.5 67.5z" glyph-name="uni1EE5" horiz-adv-x="1128" unicode="ụ"/><glyph d="M510 1665q20 63 71.5 103t123.5 40q80 0 134 -46t54 -138q0 -70 -49 -141h-105q59 66 60 139q0 102 -94 102q-78 0 -109 -86zM160 530v836h170v-831q0 -190 100 -299t286.5 -109t287 108.5t100.5 299.5v831h170v-834q0 -260 -142.5 -408.5t-415 -148.5t-414.5 148.5 t-142 406.5z" glyph-name="uni1EE6" horiz-adv-x="1433" unicode="Ủ"/><glyph d="M356 1323q20 63 71.5 103t123.5 40q80 0 134 -46t54 -138q0 -70 -49 -141h-104q59 66 59 139q0 102 -94 102q-78 0 -109 -86zM821 0v139q-61 -70 -154.5 -117t-197.5 -47q-315 0 -315 316v698h153v-651q0 -123 56.5 -174t164.5 -51q86 0 167 43t126 106v727h154v-989 h-154z" glyph-name="uni1EE7" horiz-adv-x="1128" unicode="ủ"/><glyph d="M1116 1776l-346 -295h-117l303 295h160zM1511 1491q0 -98 -64.5 -184t-172.5 -129v-646q0 -260 -142.5 -408.5t-415 -148.5t-414.5 148.5t-142 406.5v836h170v-831q0 -190 100 -299t286.5 -109t287 108.5t100.5 299.5v831h170v-109q61 31 104 84.5t45 108.5h-10 q-8 -2 -12 -2q-35 0 -57.5 23.5t-22.5 60.5t25.5 62.5t62.5 25.5q43 0 72.5 -35t29.5 -94z" glyph-name="uni1EE8" horiz-adv-x="1433" unicode="Ứ"/><glyph d="M963 1434l-347 -295h-116l303 295h160zM1167 1098q0 -88 -52 -167t-140 -126v-805h-154v139q-61 -70 -154.5 -117t-197.5 -47q-315 0 -315 316v698h153v-651q0 -123 56.5 -174t164.5 -51q86 0 167 43t126 106v727h154v-98q98 74 104 166l-22 -2q-35 0 -58.5 23.5 t-23.5 60.5q0 35 25.5 61.5t62.5 26.5q43 0 73.5 -35t30.5 -94z" glyph-name="uni1EE9" horiz-adv-x="1128" unicode="ứ"/><glyph d="M776 1481h-117l-346 295h160zM1511 1491q0 -98 -64.5 -184t-172.5 -129v-646q0 -260 -142.5 -408.5t-415 -148.5t-414.5 148.5t-142 406.5v836h170v-831q0 -190 100 -299t286.5 -109t287 108.5t100.5 299.5v831h170v-109q61 31 104 84.5t45 108.5h-10q-8 -2 -12 -2 q-35 0 -57.5 23.5t-22.5 60.5t25.5 62.5t62.5 25.5q43 0 72.5 -35t29.5 -94z" glyph-name="uni1EEA" horiz-adv-x="1433" unicode="Ừ"/><glyph d="M623 1139h-117l-346 295h159zM1167 1098q0 -88 -52 -167t-140 -126v-805h-154v139q-61 -70 -154.5 -117t-197.5 -47q-315 0 -315 316v698h153v-651q0 -123 56.5 -174t164.5 -51q86 0 167 43t126 106v727h154v-98q98 74 104 166l-22 -2q-35 0 -58.5 23.5t-23.5 60.5 q0 35 25.5 61.5t62.5 26.5q43 0 73.5 -35t30.5 -94z" glyph-name="uni1EEB" horiz-adv-x="1128" unicode="ừ"/><glyph d="M705 1724q-78 0 -109 -86l-86 27q20 63 71.5 103t123.5 40q80 0 134 -46t54 -138q0 -70 -49 -141h-105q59 66 60 139q0 102 -94 102zM1511 1491q0 -98 -64.5 -184t-172.5 -129v-646q0 -260 -142.5 -408.5t-415 -148.5t-414.5 148.5t-142 406.5v836h170v-831 q0 -190 100 -299t286.5 -109t287 108.5t100.5 299.5v831h170v-109q61 31 104 84.5t45 108.5h-10q-8 -2 -12 -2q-35 0 -57.5 23.5t-22.5 60.5t25.5 62.5t62.5 25.5q43 0 72.5 -35t29.5 -94z" glyph-name="uni1EEC" horiz-adv-x="1433" unicode="Ử"/><glyph d="M551 1382q-78 0 -109 -86l-86 27q20 63 71.5 103t123.5 40q80 0 134 -46t54 -138q0 -70 -49 -141h-104q59 66 59 139q0 102 -94 102zM1167 1098q0 -88 -52 -167t-140 -126v-805h-154v139q-61 -70 -154.5 -117t-197.5 -47q-315 0 -315 316v698h153v-651q0 -123 56.5 -174 t164.5 -51q86 0 167 43t126 106v727h154v-98q98 74 104 166l-22 -2q-35 0 -58.5 23.5t-23.5 60.5q0 35 25.5 61.5t62.5 26.5q43 0 73.5 -35t30.5 -94z" glyph-name="uni1EED" horiz-adv-x="1128" unicode="ử"/><glyph d="M588 1665q-43 0 -71 -44t-28 -132h-92q0 123 52.5 198.5t146.5 75.5q39 0 70.5 -19.5t45 -35.5t38.5 -53q20 -31 29 -42t28.5 -24.5t40.5 -13.5q43 0 70.5 44t27.5 132h92q0 -123 -52 -198.5t-146 -75.5q-39 0 -71 18t-46 36.5t-39 53.5q-51 80 -96 80zM1511 1491 q0 -98 -64.5 -184t-172.5 -129v-646q0 -260 -142.5 -408.5t-415 -148.5t-414.5 148.5t-142 406.5v836h170v-831q0 -190 100 -299t286.5 -109t287 108.5t100.5 299.5v831h170v-109q61 31 104 84.5t45 108.5h-10q-8 -2 -12 -2q-35 0 -57.5 23.5t-22.5 60.5t25.5 62.5 t62.5 25.5q43 0 72.5 -35t29.5 -94z" glyph-name="uni1EEE" horiz-adv-x="1433" unicode="Ữ"/><glyph d="M434 1323q-43 0 -70.5 -44t-27.5 -132h-92q0 123 52 198.5t146 75.5q39 0 71 -19.5t45 -35.5t38 -53q20 -31 29.5 -42t29 -24.5t39.5 -13.5q43 0 71 44t28 132h92q0 -123 -52.5 -198.5t-146.5 -75.5q-39 0 -70.5 18t-46 36.5t-39.5 53.5q-51 80 -96 80zM1167 1098 q0 -88 -52 -167t-140 -126v-805h-154v139q-61 -70 -154.5 -117t-197.5 -47q-315 0 -315 316v698h153v-651q0 -123 56.5 -174t164.5 -51q86 0 167 43t126 106v727h154v-98q98 74 104 166l-22 -2q-35 0 -58.5 23.5t-23.5 60.5q0 35 25.5 61.5t62.5 26.5q43 0 73.5 -35 t30.5 -94z" glyph-name="uni1EEF" horiz-adv-x="1128" unicode="ữ"/><glyph d="M1511 1491q0 -98 -64.5 -184t-172.5 -129v-646q0 -260 -142.5 -408.5t-415 -148.5t-414.5 148.5t-142 406.5v836h170v-831q0 -190 100 -299t286.5 -109t287 108.5t100.5 299.5v831h170v-109q61 31 104 84.5t45 108.5h-10q-8 -2 -12 -2q-35 0 -57.5 23.5t-22.5 60.5 t25.5 62.5t62.5 25.5q43 0 72.5 -35t29.5 -94zM717 -168q39 0 66.5 -27.5t27.5 -68.5t-27.5 -68.5t-66.5 -27.5t-67.5 28.5t-28.5 67.5t28.5 67.5t67.5 28.5z" glyph-name="uni1EF0" horiz-adv-x="1433" unicode="Ự"/><glyph d="M1167 1098q0 -88 -52 -167t-140 -126v-805h-154v139q-61 -70 -154.5 -117t-197.5 -47q-315 0 -315 316v698h153v-651q0 -123 56.5 -174t164.5 -51q86 0 167 43t126 106v727h154v-98q98 74 104 166l-22 -2q-35 0 -58.5 23.5t-23.5 60.5q0 35 25.5 61.5t62.5 26.5 q43 0 73.5 -35t30.5 -94zM563 -168q39 0 66.5 -27.5t27.5 -68.5t-27.5 -68.5t-66.5 -27.5t-67.5 28.5t-28.5 67.5t28.5 67.5t67.5 28.5z" glyph-name="uni1EF1" horiz-adv-x="1128" unicode="ự"/><glyph d="M584 1481l-346 295h159l303 -295h-116zM557 0v578l-539 788h199l424 -635l424 635h199l-537 -788v-578h-170z" glyph-name="Ygrave" horiz-adv-x="1282" unicode="Ỳ"/><glyph d="M442 1139l-346 295h160l303 -295h-117zM123 -248q37 -16 84 -16q53 0 88 22.5t59 81.5l66 150l-414 999h166l330 -811l327 811h168l-495 -1190q-82 -197 -291 -200q-63 0 -113 14z" glyph-name="ygrave" horiz-adv-x="1003" unicode="ỳ"/><glyph d="M557 0v578l-539 788h199l424 -635l424 635h199l-537 -788v-578h-170zM545 -264q0 39 28.5 67.5t67.5 28.5t66.5 -27.5t27.5 -68.5t-27.5 -68.5t-66.5 -27.5t-67.5 28.5t-28.5 67.5z" glyph-name="uni1EF4" horiz-adv-x="1282" unicode="Ỵ"/><glyph d="M123 -248q37 -16 84 -16q53 0 88 22.5t59 81.5l66 150l-414 999h166l330 -811l327 811h168l-495 -1190q-82 -197 -291 -200q-63 0 -113 14zM406 -518q0 39 28.5 67.5t67.5 28.5t66.5 -27.5t27.5 -68.5t-27.5 -68.5t-66.5 -27.5t-67.5 28.5t-28.5 67.5z" glyph-name="uni1EF5" horiz-adv-x="1003" unicode="ỵ"/><glyph d="M434 1665q20 63 71.5 103t123.5 40q80 0 134 -46t54 -138q0 -70 -49 -141h-104q59 66 59 139q0 102 -94 102q-78 0 -109 -86zM557 0v578l-539 788h199l424 -635l424 635h199l-537 -788v-578h-170z" glyph-name="uni1EF6" horiz-adv-x="1282" unicode="Ỷ"/><glyph d="M295 1323q20 63 71.5 103t122.5 40q80 0 134.5 -46t54.5 -138q0 -70 -49 -141h-105q59 66 60 139q0 102 -95 102q-78 0 -108 -86zM123 -248q37 -16 84 -16q53 0 88 22.5t59 81.5l66 150l-414 999h166l330 -811l327 811h168l-495 -1190q-82 -197 -291 -200q-63 0 -113 14z " glyph-name="uni1EF7" horiz-adv-x="1003" unicode="ỷ"/><glyph d="M608 1585q-51 80 -96 80q-43 0 -70.5 -44t-27.5 -132h-92q0 123 52 198.5t146 75.5q39 0 71 -19.5t45 -35.5t38 -53q20 -31 29.5 -42t29 -24.5t39.5 -13.5q43 0 70.5 44t27.5 132h93q0 -123 -52.5 -198.5t-146.5 -75.5q-39 0 -70.5 18t-46 36.5t-39.5 53.5zM557 0v578 l-539 788h199l424 -635l424 635h199l-537 -788v-578h-170z" glyph-name="uni1EF8" horiz-adv-x="1282" unicode="Ỹ"/><glyph d="M469 1243q-51 80 -96 80q-43 0 -71 -44t-28 -132h-92q0 123 52.5 198.5t146.5 75.5q39 0 70.5 -19.5t45 -35.5t38.5 -53q20 -31 29 -42t28.5 -24.5t40.5 -13.5q43 0 70.5 44t27.5 132h92q0 -123 -52 -198.5t-146 -75.5q-39 0 -71 18t-46 36.5t-39 53.5zM123 -248 q37 -16 84 -16q53 0 88 22.5t59 81.5l66 150l-414 999h166l330 -811l327 811h168l-495 -1190q-82 -197 -291 -200q-63 0 -113 14z" glyph-name="uni1EF9" horiz-adv-x="1003" unicode="ỹ"/><glyph glyph-name="uni2000" horiz-adv-x="1024" unicode=" "/><glyph glyph-name="uni2001" horiz-adv-x="2048" unicode=" "/><glyph glyph-name="uni2002" horiz-adv-x="1024" unicode=" "/><glyph glyph-name="uni2003" horiz-adv-x="2048" unicode=" "/><glyph glyph-name="uni2004" horiz-adv-x="681" unicode=" "/><glyph glyph-name="uni2005" horiz-adv-x="512" unicode=" "/><glyph glyph-name="uni2006" horiz-adv-x="342" unicode=" "/><glyph glyph-name="uni2007" horiz-adv-x="1224" unicode=" "/><glyph glyph-name="uni2008" horiz-adv-x="471" unicode=" "/><glyph glyph-name="uni2009" horiz-adv-x="256" unicode=" "/><glyph glyph-name="uni200A" horiz-adv-x="114" unicode=" "/><glyph d="M61 428v135h1092v-135h-1092z" glyph-name="endash" horiz-adv-x="1214" unicode="–"/><glyph d="M61 428v135h1584v-135h-1584z" glyph-name="emdash" horiz-adv-x="1705" unicode="—"/><glyph d="M61 428v135h1092v-135h-1092z" glyph-name="afii00208" horiz-adv-x="1214" unicode="―"/><glyph d="M262 1386l76 -61q-49 -33 -87 -87t-44 -103q2 0 12 1t14 1q43 0 72 -30t29 -75t-32 -76.5t-77 -31.5q-53 0 -91 42t-38 113q0 90 46 172t120 135z" glyph-name="quoteleft" horiz-adv-x="471" unicode="‘"/><glyph d="M193 922l-76 63q49 33 88 87t45 104q-8 -4 -29 -5q-43 0 -70.5 30t-27.5 75t31.5 77.5t76.5 32.5q53 0 91 -41.5t38 -113.5q0 -90 -46.5 -173t-120.5 -136z" glyph-name="quoteright" horiz-adv-x="471" unicode="’"/><glyph d="M193 -260l-76 63q51 33 89 87.5t44 103.5q-8 -4 -29 -4q-43 0 -70.5 29.5t-27.5 74.5t31.5 78t76.5 33q53 0 91 -42t38 -114q0 -90 -46.5 -173t-120.5 -136z" glyph-name="quotesinglbase" horiz-adv-x="471" unicode="‚"/><glyph d="M238 1386q45 0 77.5 -32.5t32.5 -77.5t-28.5 -75t-71.5 -30q-18 0 -27 5q6 -49 44 -103.5t87 -87.5l-76 -63q-74 53 -119.5 136t-45.5 173q0 72 37 113.5t90 41.5z" glyph-name="quotereversed" horiz-adv-x="471" unicode="‛"/><glyph d="M276 1386l76 -61q-49 -33 -88 -87t-43 -103h10q10 2 17 2q43 0 70.5 -30t27.5 -75t-31.5 -76.5t-76.5 -31.5q-53 0 -90 42t-37 113q0 90 45.5 172t119.5 135zM604 1386l76 -61q-49 -33 -87 -87t-44 -103h10q10 2 16 2q43 0 72 -30t29 -75t-33 -76.5t-78 -31.5 q-53 0 -90 42t-37 113q0 90 46 172t120 135z" glyph-name="quotedblleft" horiz-adv-x="798" unicode="“"/><glyph d="M193 922l-76 63q49 33 88 87t45 104q-8 -4 -29 -5q-43 0 -70.5 30t-27.5 75t31.5 77.5t76.5 32.5q53 0 91 -41.5t38 -113.5q0 -90 -46.5 -173t-120.5 -136zM522 922l-76 63q49 33 87 87t45 104q-8 -4 -27 -5q-43 0 -71.5 30t-28.5 75t31.5 77.5t76.5 32.5q53 0 91 -41.5 t38 -113.5q0 -90 -47 -173t-119 -136z" glyph-name="quotedblright" horiz-adv-x="798" unicode="”"/><glyph d="M193 -260l-76 63q51 33 89 87.5t44 103.5q-8 -4 -29 -4q-43 0 -70.5 29.5t-27.5 74.5t31.5 78t76.5 33q53 0 91 -42t38 -114q0 -90 -46.5 -173t-120.5 -136zM522 -260l-76 63q49 33 87 87.5t45 103.5q-8 -4 -27 -4q-43 0 -71.5 29.5t-28.5 74.5t31.5 78t76.5 33 q53 0 91 -42t38 -114q0 -90 -47 -173t-119 -136z" glyph-name="quotedblbase" horiz-adv-x="798" unicode="„"/><glyph d="M309 1096l8 -426h-98l10 426l-182 -9v89l182 -7l-10 217h98l-8 -217l183 7v-89z" glyph-name="dagger" horiz-adv-x="538" unicode="†"/><glyph d="M492 1087l-183 9v-437l183 9v-88l-183 6l8 -217h-98l8 217l-180 -6v88l180 -9v437l-180 -9v89l180 -7l-8 217h98l-8 -217l183 7v-89z" glyph-name="daggerdbl" horiz-adv-x="538" unicode="‡"/><glyph d="M369 276q-90 0 -156 65t-66 155t66 155.5t156 65.5t155.5 -65.5t65.5 -155.5t-65.5 -155t-155.5 -65z" glyph-name="bullet" horiz-adv-x="733" unicode="•"/><glyph d="M233.5 -20q-45.5 0 -78 33.5t-32.5 78.5q0 47 32.5 80t78 33t79 -33t33.5 -80q0 -45 -33.5 -78.5t-79 -33.5zM704.5 -20q-45.5 0 -78 33.5t-32.5 78.5q0 47 32.5 80t78.5 33q47 0 80.5 -34t33.5 -79t-34.5 -78.5t-80 -33.5zM1178 -20q-45 0 -79 33.5t-34 78.5 q0 47 32.5 80t80 33t80 -33t32.5 -80q0 -45 -33.5 -78.5t-78.5 -33.5z" glyph-name="ellipsis" horiz-adv-x="1413" unicode="…"/><glyph d="M391.5 713q-145.5 0 -237 95t-91.5 239q0 145 92.5 242t235.5 97q145 0 238.5 -97t93.5 -242q0 -143 -93 -238.5t-238.5 -95.5zM373 0h-111l873 1366h112zM391 1290q-90 0 -147.5 -69.5t-57.5 -173.5q0 -102 57.5 -170t147.5 -68q92 0 150.5 67.5t58.5 170.5 q0 104 -58.5 173.5t-150.5 69.5zM1103.5 -25q-145.5 0 -236.5 95.5t-91 238.5q0 145 92.5 242.5t235.5 97.5q145 0 237.5 -97t92.5 -243q0 -143 -92.5 -238.5t-238 -95.5zM1824.5 -25q-145.5 0 -236.5 95.5t-91 238.5q0 145 92 242.5t236 97.5q145 0 237 -97t92 -243 q0 -143 -92 -238.5t-237.5 -95.5zM1104 553q-92 0 -149.5 -69.5t-57.5 -174.5q0 -102 57.5 -169.5t149.5 -67.5t150.5 67.5t58.5 169.5q0 104 -58.5 174t-150.5 70zM1825 553q-92 0 -148.5 -68.5t-56.5 -175.5q0 -102 57.5 -169.5t147.5 -67.5q92 0 150.5 67.5t58.5 169.5 q0 104 -58.5 174t-150.5 70z" glyph-name="perthousand" horiz-adv-x="2217" unicode="‰"/><glyph d="M70 858q119 440 131 471q25 57 86 57q41 0 67.5 -27.5t26.5 -66.5q0 -18 -6 -35l-234 -428z" glyph-name="minute" horiz-adv-x="415" unicode="′"/><glyph d="M70 858q119 440 131 471q25 57 86 57q41 0 67.5 -27.5t26.5 -66.5q0 -18 -6 -35l-234 -428zM389 858q117 440 129 471q25 57 88 57q39 0 66.5 -27.5t27.5 -66.5q0 -20 -8 -35l-233 -428z" glyph-name="second" horiz-adv-x="733" unicode="″"/><glyph d="M389 129l-328 369l328 362h154l-328 -362l328 -369h-154z" glyph-name="guilsinglleft" horiz-adv-x="604" unicode="‹"/><glyph d="M215 129h-154l328 369l-328 362h154l328 -362z" glyph-name="guilsinglright" horiz-adv-x="604" unicode="›"/><glyph d="M481 1386q188 0 304 -102t116 -272q0 -156 -107.5 -262.5t-261.5 -169.5l-10 -197h-129l-33 690h193l-14 -338q203 90 202 277q0 104 -69.5 163.5t-188.5 59.5q-217 0 -344 -168l-102 111q161 208 444 208zM459 205q45 0 78.5 -33t33.5 -80t-33.5 -79.5t-78.5 -32.5 t-79 32.5t-34 79.5t34 80t79 33z" glyph-name="uni203D" horiz-adv-x="964" unicode="‽"/><glyph d="M57 1171v99h629v-99h-629z" glyph-name="uni203E" horiz-adv-x="743" unicode="‾"/><glyph d="M-240 0h-112l872 1366h115z" glyph-name="fraction" horiz-adv-x="282" unicode="⁄"/><glyph d="M397 848q-164 0 -246.5 126t-82.5 298t82.5 297t246.5 125q162 0 246 -126t84 -296t-84 -297t-246 -127zM397 1593q-106 0 -155 -91t-49 -230t49 -231.5t155 -92.5q104 0 153.5 92.5t49.5 231.5t-49.5 230t-153.5 91z" glyph-name="uni2070" horiz-adv-x="794" unicode="⁰"/><glyph d="M602 1067v-205h-121v205h-401v90l352 524h170v-514h119v-100h-119zM481 1573l-278 -406h278v406z" glyph-name="uni2074" horiz-adv-x="794" unicode="⁴"/></font>
</defs>
</svg>
