<?xml version="1.0" standalone="no"?>
<!DOCTYPE svg PUBLIC "-//W3C//DTD SVG 1.1//EN" "http://www.w3.org/Graphics/SVG/1.1/DTD/svg11.dtd">
<svg xmlns="http://www.w3.org/2000/svg"><metadata>This SVG WebFont was generated by YouWorkForThem.
Copyright (c) Mark Simonson, 2005. All rights reserved.</metadata><defs><font horiz-adv-x="1161" id="ywftsvg"><font-face ascent="1618" bbox="-764 -727 2396 2210" cap-height="1366" descent="-430" font-family="" font-stretch="normal" font-weight="600" panose-1="2 0 5 6 3 0 0 2 0 4" underline-position="0" underline-thickness="0" unicode-range="U+000D-FB04" units-per-em="2048" x-height="989"/><missing-glyph d="M145 -184v1724h719v-1724h-719zM799 1479h-590v-1602h590v1602z" horiz-adv-x="1009"/><glyph d="M1507 1141q-53 0 -93 39t-40 94t40 94t93 39q55 0 94 -39t39 -94t-39 -94t-94 -39zM190 0v801h-163v188h163v55q0 162 86 252t228 90q104 0 172 -38l-47 -158q-35 20 -86 20q-63 0 -100 -42t-37 -124v-55h200v-188h-200v-801h-216zM821 0v801h-164v188h164v55 q0 162 86 252t228 90q104 0 172 -38l-47 -160q-33 23 -86 22q-63 0 -100.5 -42t-37.5 -124v-55h201v-188h-201v-801h-215zM1616 989v-1046q0 -162 -84 -253t-244 -91q-59 0 -110 10l22 178q25 -6 62 -6q63 0 101 39t38 123v1046h215z" glyph-name="uniE004" horiz-adv-x="1755" unicode="ffj"/><glyph d="M877 1141q-53 0 -93.5 39t-40.5 94t40 94t94 39q55 0 94 -39t39 -94t-39 -94t-94 -39zM190 0v801h-163v188h163v55q0 162 86 252t228 90q104 0 172 -38l-47 -160q-33 23 -86 22q-63 0 -100 -42t-37 -124v-55h200v-188h-200v-801h-216zM985 989v-1046q0 -162 -84 -253 t-244 -91q-59 0 -110 10l22 178q25 -6 62 -6q63 0 101 39t38 123v1046h215z" glyph-name="uniE005" horiz-adv-x="1124" unicode="fj"/><glyph d="M190 0v801h-163v188h163v55q0 162 86 252t228 90q104 0 172 -38l-47 -158q-35 20 -86 20q-63 0 -100 -42t-37 -124v-55h200v-188h-200v-801h-216zM821 0v801h-164v188h164v55q0 162 86 252t228 90q104 0 172 -38l-47 -158q-35 20 -86 20q-63 0 -100.5 -42t-37.5 -124v-55 h201v-188h-201v-801h-215z" glyph-name="uniFB00" horiz-adv-x="1261" unicode="ff"/><glyph d="M877 1141q-53 0 -93.5 39t-40.5 94t40 94t94 39q55 0 94 -39t39 -94t-39 -94t-94 -39zM190 0v801h-163v188h163v55q0 162 86 252t228 90q104 0 172 -38l-47 -160q-33 23 -86 22q-63 0 -100 -42t-37 -124v-55h200v-188h-200v-801h-216zM770 0v989h215v-989h-215z" glyph-name="uniFB01" horiz-adv-x="1124" unicode="fi"/><glyph d="M190 0v801h-163v188h163v55q0 162 86 252t228 90q104 0 172 -38l-47 -160q-33 23 -86 22q-63 0 -100 -42t-37 -124v-55h200v-188h-200v-801h-216zM770 0v1366h215v-1366h-215z" glyph-name="uniFB02" horiz-adv-x="1124" unicode="fl"/><glyph d="M1507 1141q-53 0 -93 39t-40 94t40 94t93 39q55 0 94 -39t39 -94t-39 -94t-94 -39zM190 0v801h-163v188h163v55q0 162 86 252t228 90q104 0 172 -38l-47 -158q-35 20 -86 20q-63 0 -100 -42t-37 -124v-55h200v-188h-200v-801h-216zM821 0v801h-164v188h164v55 q0 162 86 252t228 90q104 0 172 -38l-47 -160q-33 23 -86 22q-63 0 -100.5 -42t-37.5 -124v-55h201v-188h-201v-801h-215zM1401 0v989h215v-989h-215z" glyph-name="uniFB03" horiz-adv-x="1755" unicode="ffi"/><glyph d="M190 0v801h-163v188h163v55q0 162 86 252t228 90q104 0 172 -38l-47 -158q-35 20 -86 20q-63 0 -100 -42t-37 -124v-55h200v-188h-200v-801h-216zM821 0v801h-164v188h164v55q0 162 86 252t228 90q104 0 172 -38l-47 -160q-33 23 -86 22q-63 0 -100.5 -42t-37.5 -124v-55 h201v-188h-201v-801h-215zM1401 0v1366h215v-1366h-215z" glyph-name="uniFB04" horiz-adv-x="1755" unicode="ffl"/><glyph d="M190 0v801h-163v188h163v55q0 162 86 252t228 90q104 0 172 -38l-47 -160q-33 23 -86 22q-63 0 -100 -42t-37 -124v-55h200v-188h-200v-801h-216zM770 0v1366h215v-514q121 162 318 162q193 0 315.5 -142.5t122.5 -377.5q0 -240 -123 -379.5t-315 -139.5q-195 0 -318 160 v-135h-215zM985 297q35 -55 107.5 -93t146.5 -38q127 0 204 91t77 236.5t-77 237.5t-204 92q-74 0 -145.5 -39t-108.5 -96v-391z" glyph-name="f_b.liga" horiz-adv-x="1820" unicode="fb"/><glyph d="M190 0v801h-163v188h163v55q0 162 86 252t228 90q104 0 172 -38l-47 -160q-33 23 -86 22q-63 0 -100 -42t-37 -124v-55h200v-188h-200v-801h-216zM1440 0v623q0 109 -52.5 154.5t-148.5 45.5q-76 0 -143.5 -39t-110.5 -94v-690h-215v1366h215v-512q55 66 148.5 113 t201.5 47q319 0 320 -314v-700h-215z" glyph-name="f_h.liga" horiz-adv-x="1794" unicode="fh"/><glyph d="M190 0v801h-163v188h163v55q0 162 86 252t228 90q104 0 172 -38l-47 -160q-33 23 -86 22q-63 0 -100 -42t-37 -124v-55h200v-188h-200v-801h-216zM1425 0l-303 408l-137 -142v-266h-215v1366h215v-854l436 477h267l-412 -448l420 -541h-271z" glyph-name="f_k.liga" horiz-adv-x="1708" unicode="fk"/><glyph d="M145 -184v1724h719v-1724h-719zM799 1479h-590v-1602h590v1602z" glyph-name=".notdef" horiz-adv-x="1009"/><glyph glyph-name="glyph1" horiz-adv-x="0"/><glyph glyph-name="glyph2" horiz-adv-x="681"/><glyph glyph-name="glyph3" horiz-adv-x="0"/><glyph glyph-name="glyph3" horiz-adv-x="0"/><glyph glyph-name="space" horiz-adv-x="526" unicode=" "/><glyph d="M158 418l-39 948h262l-37 -948h-186zM109 121q0 59 42 101t99 42t100 -42t43 -101q0 -57 -43 -99t-100 -42t-99 42t-42 99z" glyph-name="exclam" horiz-adv-x="501" unicode="!"/><glyph d="M170 801q-72 430 -72 465q0 49 35 84.5t86 35.5q49 0 85 -35.5t36 -84.5l-72 -465h-98zM510 801q-72 430 -72 465q0 49 35 84.5t86 35.5q49 0 84 -35.5t35 -84.5l-72 -465h-96z" glyph-name="quotedbl" horiz-adv-x="776" unicode="&quot;"/><glyph d="M496 0l120 356h-208l-119 -356h-164l119 356h-205l45 142h209l121 368h-209l43 140h215l119 360h163l-118 -360h207l118 360h164l-121 -360h207l-41 -140h-213l-123 -368h215l-43 -142h-219l-119 -356h-163zM784 866h-206l-121 -368h205z" glyph-name="numbersign" horiz-adv-x="1241" unicode="#"/><glyph d="M1155 397q0 -166 -111.5 -281.5t-330.5 -135.5v-185h-164v182q-295 23 -477 216l133 184q143 -152 344 -182v395q-96 25 -159.5 49.5t-133.5 68.5t-105.5 114.5t-35.5 164.5q0 158 118.5 269.5t315.5 127.5v189h164v-193q246 -25 411 -184l-137 -178q-111 111 -274 143 v-352q76 -20 129 -38.5t117.5 -52.5t103.5 -74t65.5 -103.5t26.5 -143.5zM360 1004q0 -98 189 -152v319q-88 -10 -138.5 -53.5t-50.5 -113.5zM713 195q100 14 149 65t49 115q0 66 -50 104.5t-148 67.5v-352z" glyph-name="dollar" horiz-adv-x="1239" unicode="$"/><glyph d="M57 1044q0 147 94.5 244.5t243.5 97.5q152 0 247 -97t95 -245q0 -145 -95 -240t-247 -95q-150 0 -244 95t-94 240zM264 0l873 1366h137l-875 -1366h-135zM578 1044q0 92 -51.5 148.5t-131.5 56.5t-130 -56t-50 -149q0 -88 51 -144t129 -56q80 0 131.5 56t51.5 144z M793 311q0 147 94 244.5t243.5 97.5t244.5 -98t95 -243.5t-95 -241t-244.5 -95.5t-243.5 95.5t-94 240.5zM1313 311q0 92 -51.5 148.5t-131 56.5t-130 -56.5t-50.5 -148.5q0 -88 50.5 -144t130 -56t131 56t51.5 144z" glyph-name="percent" horiz-adv-x="1527" unicode="%"/><glyph d="M1020 268q137 -143 264 -268h-280q-33 31 -121 119q-170 -143 -383 -144q-193 0 -317 101.5t-124 288.5q0 143 79 234t218 165q-96 172 -96 299q0 139 105.5 231t265.5 92q145 0 241.5 -75.5t96.5 -204.5q0 -74 -27 -132.5t-83 -105.5t-102 -73.5t-128 -67.5 q55 -78 133 -168q45 -55 135 -158q86 129 135 285l176 -80q-86 -199 -188 -338zM477 1059q0 -80 68 -205q115 53 174 108.5t59 133.5q0 61 -39 96t-98 35q-70 0 -117 -47t-47 -121zM526 147q123 0 236 97q-98 109 -168 188q-86 104 -152 197q-154 -104 -153 -246 q0 -109 69.5 -172.5t167.5 -63.5z" glyph-name="ampersand" horiz-adv-x="1318" unicode="&amp;"/><glyph d="M170 801q-72 430 -72 465q0 49 35 84.5t86 35.5q49 0 85 -35.5t36 -84.5l-72 -465h-98z" glyph-name="quotesingle" horiz-adv-x="438" unicode="'"/><glyph d="M395 -408q-145 176 -227 417t-82 489q0 246 82 486.5t227 418.5l133 -100q-106 -201 -157.5 -387.5t-51.5 -418t51.5 -417.5t157.5 -385z" glyph-name="parenleft" horiz-adv-x="565" unicode="("/><glyph d="M246 497.5q0 231.5 -51.5 418t-159.5 387.5l133 100q145 -178 228 -418t83 -487.5t-83 -488t-228 -417.5l-133 103q109 199 160 385t51 417.5z" glyph-name="parenright" horiz-adv-x="565" unicode=")"/><glyph d="M297 770l10 229l-192 -125l-56 99l203 104l-203 105l56 98l192 -123l-10 229h115l-13 -229l193 123l57 -98l-203 -105l203 -104l-57 -99l-193 125l13 -229h-115z" glyph-name="asterisk" horiz-adv-x="708" unicode="*"/><glyph d="M590 621v-424h-152v424h-379v139h379v409h152v-409h379v-139h-379z" glyph-name="plus" horiz-adv-x="1028" unicode="+"/><glyph d="M213 -272l-96 79q51 31 94 86.5t53 106.5q-18 -6 -35 -6q-53 0 -88 36t-35 93t41 99t99 42q66 0 113 -50t47 -136q0 -102 -52.5 -195.5t-140.5 -154.5z" glyph-name="comma" horiz-adv-x="501" unicode=","/><glyph d="M61 403v185h492v-185h-492z" glyph-name="hyphen" horiz-adv-x="614" unicode="-"/><glyph d="M106 120.5q0 59.5 43.5 101.5t100.5 42t100 -42t43 -101.5t-43 -101.5t-100 -42t-100.5 42t-43.5 101.5z" glyph-name="period" horiz-adv-x="501" unicode="."/><glyph d="M0 -41l485 1448h160l-485 -1448h-160z" glyph-name="slash" horiz-adv-x="645" unicode="/"/><glyph d="M84 682q0 133 33 256t96 224.5t172 162.5t246 61t245.5 -61t172 -162.5t96.5 -224.5t33 -256t-33 -256t-96.5 -225.5t-172 -164t-245.5 -61.5t-246 61.5t-172 164t-96 225.5t-33 256zM934 682q0 137 -27.5 243.5t-98.5 177.5t-177.5 71t-177 -71t-98 -177.5t-27.5 -243.5 q0 -215 73.5 -354.5t229 -139.5t229.5 139.5t74 354.5z" glyph-name="zero" horiz-adv-x="1261" unicode="0"/><glyph d="M393 0v1055l-223 -232l-139 146l393 397h209v-1366h-240z" glyph-name="one" horiz-adv-x="778" unicode="1"/><glyph d="M102 0v188q428 324 583 480.5t155 296.5q0 100 -73 154.5t-175 54.5q-225 0 -369 -164l-139 157q88 106 222 162.5t282 56.5q209 0 352 -112.5t143 -308.5q0 -176 -147.5 -350.5t-450.5 -403.5h607v-211h-990z" glyph-name="two" horiz-adv-x="1218" unicode="2"/><glyph d="M49 197l129 157q66 -76 168.5 -121t210.5 -45q133 0 209 56.5t76 152.5q0 193 -303 193q-137 0 -158 -2v215q25 -2 158 -2q127 0 203.5 45t76.5 135q0 92 -77.5 142.5t-198.5 50.5q-201 0 -353 -152l-122 149q182 215 497 215q223 0 358.5 -99t135.5 -269 q0 -127 -89 -210t-208 -103q117 -10 217 -98.5t100 -233.5q0 -176 -140 -287t-374 -111q-174 0 -308 62t-208 160z" glyph-name="three" horiz-adv-x="1175" unicode="3"/><glyph d="M709 0v309h-652v193l561 864h330v-846h182v-211h-182v-309h-239zM709 1151l-416 -631h416v631z" glyph-name="four" horiz-adv-x="1187" unicode="4"/><glyph d="M115 186l137 164q143 -162 369 -162q127 0 203.5 69t76.5 171q0 111 -74.5 177.5t-199.5 66.5q-174 0 -299 -119l-170 49v764h895v-211h-656v-395q119 119 310 119q180 0 308 -120t128 -321q0 -211 -144.5 -337t-375.5 -126q-330 0 -508 211z" glyph-name="five" horiz-adv-x="1228" unicode="5"/><glyph d="M84 680q0 309 157.5 507.5t444.5 198.5q238 0 393 -151l-112 -182q-115 121 -281 121q-164 0 -262 -131.5t-98 -319.5q0 -27 2 -39q51 76 151.5 133t214.5 57q195 0 326 -115.5t131 -324.5q0 -195 -139.5 -327t-364.5 -132q-145 0 -255.5 56.5t-176 155t-98.5 222.5 t-33 271zM909 426q0 119 -79.5 181.5t-200.5 62.5q-86 0 -166 -44t-133 -118q12 -131 85.5 -225.5t219.5 -94.5q127 0 200.5 73t73.5 165z" glyph-name="six" horiz-adv-x="1230" unicode="6"/><glyph d="M248 0l516 1155h-709v211h985v-166l-530 -1200h-262z" glyph-name="seven" horiz-adv-x="1089" unicode="7"/><glyph d="M86 350q0 125 87 217t220 138q-127 41 -205.5 120.5t-78.5 202.5q0 90 44 162t116.5 112.5t159.5 62t181.5 21.5t180.5 -21.5t159.5 -62t117.5 -112.5t44 -162q0 -231 -287 -323q133 -45 220.5 -137.5t87.5 -217.5q0 -176 -151 -275.5t-372 -99.5t-372.5 99.5 t-151.5 275.5zM868 991q0 84 -72.5 133.5t-185.5 49.5q-115 0 -187.5 -49.5t-72.5 -133.5t83 -130t177 -62q55 10 106.5 27.5t101.5 61.5t50 103zM891 381q0 92 -95.5 148.5t-185.5 66.5q-53 -6 -112.5 -27.5t-114.5 -72t-55 -115.5q0 -86 80.5 -139.5t201.5 -53.5 q117 0 199 53.5t82 139.5z" glyph-name="eight" horiz-adv-x="1218" unicode="8"/><glyph d="M152 129l110 180q115 -119 281 -119q174 0 267 132.5t93 316.5v41q-53 -76 -153.5 -134.5t-212.5 -58.5q-195 0 -327 117t-132 326q0 195 140 327t364 132q193 0 322.5 -99.5t185 -254t55.5 -353.5q0 -307 -158 -506t-444 -199q-239 0 -391 152zM899 854 q-10 129 -85 225.5t-220 96.5q-125 0 -198.5 -74t-73.5 -164q0 -119 79.5 -181.5t198.5 -62.5q88 0 168 43t131 117z" glyph-name="nine" horiz-adv-x="1230" unicode="9"/><glyph d="M106 860.5q0 57.5 43.5 100.5t100.5 43t100 -43t43 -100.5t-43 -100.5t-100 -43t-100.5 43t-43.5 100.5zM106 120.5q0 59.5 43.5 101.5t100.5 42t100 -42t43 -101.5t-43 -101.5t-100 -42t-100.5 42t-43.5 101.5z" glyph-name="colon" horiz-adv-x="501" unicode=":"/><glyph d="M250 717q-57 0 -100.5 43t-43.5 100.5t43.5 100.5t100.5 43t100 -43t43 -100.5t-43 -100.5t-100 -43zM213 -272l-96 79q51 31 94 86.5t53 106.5q-18 -6 -35 -6q-53 0 -88 36t-35 93t41 99t99 42q66 0 113 -50t47 -136q0 -102 -52.5 -195.5t-140.5 -154.5z" glyph-name="semicolon" horiz-adv-x="501" unicode=";"/><glyph d="M59 608v154l910 426v-166l-748 -338l748 -336v-164z" glyph-name="less" horiz-adv-x="1028" unicode="&lt;"/><glyph d="M59 809v139h910v-139h-910zM59 420v137h910v-137h-910z" glyph-name="equal" horiz-adv-x="1028" unicode="="/><glyph d="M59 184v164l746 336l-746 338v166l910 -426v-154z" glyph-name="greater" horiz-adv-x="1028" unicode=">"/><glyph d="M313 575q0 49 14.5 89.5t47.5 76t56.5 54t68.5 51.5q49 35 72.5 54.5t47 54t23.5 71.5q0 63 -50 105.5t-144 42.5q-168 0 -285 -144l-137 154q166 203 446 202q190 0 303 -90t113 -231q0 -80 -37 -145.5t-74 -98.5t-106 -80q-55 -41 -77 -58t-47.5 -54t-25.5 -76 q0 -53 45 -92l-180 -60q-74 70 -74 174zM317 120.5q0 59.5 42 101.5t101.5 42t101.5 -42t42 -101.5t-42 -101.5t-101.5 -42t-101.5 42t-42 101.5z" glyph-name="question" horiz-adv-x="937" unicode="?"/><glyph d="M72 500q0 326 245.5 566.5t567.5 240.5q285 0 465 -184.5t180 -452.5q0 -233 -119 -364.5t-264 -131.5q-86 0 -136 45t-59 113l-2 12q-55 -76 -137 -123t-170 -47q-143 0 -229 94t-86 246q0 205 144 355.5t327 150.5q184 0 258 -146l24 115h193l-111 -522q-4 -25 -4 -47 q0 -47 23.5 -72.5t60.5 -25.5q74 0 139.5 88t65.5 260q0 250 -156.5 405.5t-414.5 155.5q-293 0 -511.5 -219t-218.5 -508q0 -246 165 -410t417 -164q199 0 377 113l41 -57q-201 -129 -426 -129q-279 0 -464 185.5t-185 457.5zM973 483l55 258q-20 49 -67.5 87t-118.5 38 q-131 0 -223.5 -103.5t-92.5 -234.5q0 -90 50.5 -145t136.5 -55q149 -1 260 155z" glyph-name="at" horiz-adv-x="1603" unicode="@"/><glyph d="M1112 0l-100 262h-647l-101 -262h-262l537 1366h299l536 -1366h-262zM688 1163l-256 -690h512z" glyph-name="A" horiz-adv-x="1378" unicode="A"/><glyph d="M145 0v1366h672q182 0 285.5 -99.5t103.5 -248.5q0 -123 -68.5 -208t-168.5 -105q111 -16 187.5 -113.5t76.5 -222.5q0 -164 -105.5 -266.5t-291.5 -102.5h-691zM385 801h383q90 0 141.5 49t51.5 127q0 80 -51.5 129t-141.5 49h-383v-354zM385 211h393q98 0 153.5 50 t55.5 140q0 80 -55 134.5t-154 54.5h-393v-379z" glyph-name="B" horiz-adv-x="1327" unicode="B"/><glyph d="M791 -25q-299 0 -503 199t-204 508t204 508t503 199q367 0 559 -308l-205 -104q-51 88 -145.5 143.5t-208.5 55.5q-197 0 -329 -140.5t-132 -353.5t132 -353.5t329 -140.5q115 0 209 55.5t145 143.5l205 -104q-197 -308 -559 -308z" glyph-name="C" horiz-adv-x="1396" unicode="C"/><glyph d="M145 0v1366h508q317 0 516 -190.5t199 -493.5q0 -301 -197.5 -491.5t-517.5 -190.5h-508zM385 211h268q215 0 342 135t127 336q0 207 -124 340t-345 133h-268v-944z" glyph-name="D" horiz-adv-x="1454" unicode="D"/><glyph d="M145 0v1366h936v-211h-696v-354h682v-211h-682v-379h696v-211h-936z" glyph-name="E" horiz-adv-x="1181" unicode="E"/><glyph d="M145 0v1366h936v-211h-696v-354h682v-211h-682v-590h-240z" glyph-name="F" horiz-adv-x="1150" unicode="F"/><glyph d="M84 682q0 315 207 511t510 196q352 0 551 -285l-197 -111q-57 80 -150.5 131.5t-203.5 51.5q-203 0 -337 -139.5t-134 -354.5t134 -355.5t337 -140.5q96 0 183 37t140 86v213h-407v211h647v-512q-223 -248 -563 -248q-303 0 -510 197t-207 512z" glyph-name="G" horiz-adv-x="1468" unicode="G"/><glyph d="M1096 0v596h-711v-596h-240v1366h240v-559h711v559h239v-1366h-239z" glyph-name="H" horiz-adv-x="1480" unicode="H"/><glyph d="M145 0v1366h240v-1366h-240z" glyph-name="I" horiz-adv-x="530" unicode="I"/><glyph d="M16 119l111 182q104 -113 233 -113q111 0 175.5 68t64.5 180v930h240v-934q0 -225 -127 -341t-334 -116q-228 1 -363 144z" glyph-name="J" horiz-adv-x="985" unicode="J"/><glyph d="M963 0l-459 575l-119 -139v-436h-240v1366h240v-651l535 651h297l-555 -645l595 -721h-294z" glyph-name="K" horiz-adv-x="1271" unicode="K"/><glyph d="M145 0v1366h240v-1155h602v-211h-842z" glyph-name="L" horiz-adv-x="1058" unicode="L"/><glyph d="M1325 0v1034l-420 -1034h-102l-418 1034v-1034h-240v1366h338l371 -920l373 920h338v-1366h-240z" glyph-name="M" horiz-adv-x="1710" unicode="M"/><glyph d="M1098 0l-713 995v-995h-240v1366h246l699 -969v969h239v-1366h-231z" glyph-name="N" horiz-adv-x="1474" unicode="N"/><glyph d="M84 682q0 307 196.5 507t501.5 200t502 -200t197 -507t-197 -507t-502 -200t-501.5 200t-196.5 507zM1235 682q0 215 -125 354.5t-328 139.5q-205 0 -328.5 -139.5t-123.5 -354.5t124 -354.5t328 -139.5q203 0 328 140.5t125 353.5z" glyph-name="O" horiz-adv-x="1566" unicode="O"/><glyph d="M145 0v1366h600q207 0 327 -123t120 -305q0 -180 -120 -304t-327 -124h-360v-510h-240zM946 938q0 98 -65.5 157.5t-167.5 59.5h-328v-434h328q102 0 167.5 59.5t65.5 157.5z" glyph-name="P" horiz-adv-x="1245" unicode="P"/><glyph d="M1481 682q0 -293 -183 -492l113 -127l-166 -139l-119 133q-152 -82 -344 -82q-305 0 -501.5 200t-196.5 507t196.5 507t501.5 200t502 -200t197 -507zM782 188q106 0 195 41l-170 193l166 137l170 -190q92 131 92 313q0 215 -125 354.5t-328 139.5q-205 0 -328.5 -139.5 t-123.5 -354.5t123.5 -354.5t328.5 -139.5z" glyph-name="Q" horiz-adv-x="1566" unicode="Q"/><glyph d="M926 0l-303 510h-238v-510h-240v1366h600q201 0 324 -119t123 -309q0 -172 -94 -275.5t-230 -125.5l334 -537h-276zM946 938q0 98 -65.5 157.5t-167.5 59.5h-328v-434h328q102 0 167.5 59.5t65.5 157.5z" glyph-name="R" horiz-adv-x="1286" unicode="R"/><glyph d="M57 193l133 184q176 -188 433 -189q137 0 205.5 55.5t68.5 131.5q0 35 -18.5 64.5t-41 47t-72.5 37t-81 28.5t-98 26q-90 23 -139.5 37t-126 47.5t-116.5 71.5t-72 103.5t-32 149.5q0 172 138.5 285.5t359.5 113.5q315 0 512 -190l-137 -178q-156 156 -395 156 q-106 0 -169 -46.5t-63 -123.5q0 -39 21.5 -67t71.5 -50.5t89 -33.5t119 -32q90 -23 140.5 -38t128 -50t118.5 -75t74 -107.5t33 -153.5q0 -184 -133.5 -303t-395.5 -119q-352 1 -555 218z" glyph-name="S" horiz-adv-x="1216" unicode="S"/><glyph d="M471 0v1155h-414v211h1067v-211h-413v-1155h-240z" glyph-name="T" horiz-adv-x="1181" unicode="T"/><glyph d="M145 539v827h242v-819q0 -166 91 -262.5t259 -96.5t258 96.5t90 262.5v819h242v-825q0 -262 -150.5 -414t-439.5 -152q-291 0 -441.5 152t-150.5 412z" glyph-name="U" horiz-adv-x="1472" unicode="U"/><glyph d="M539 0l-537 1366h272l414 -1106l414 1106h272l-536 -1366h-299z" glyph-name="V" horiz-adv-x="1378" unicode="V"/><glyph d="M1190 0l-266 1008l-265 -1008h-256l-391 1366h269l266 -1053l282 1053h191l283 -1053l264 1053h268l-389 -1366h-256z" glyph-name="W" horiz-adv-x="1849" unicode="W"/><glyph d="M1059 0l-383 535l-383 -535h-287l512 700l-481 666h287l352 -502l350 502h289l-479 -664l510 -702h-287z" glyph-name="X" horiz-adv-x="1353" unicode="X"/><glyph d="M532 0v567l-530 799h274l377 -586l373 586h274l-528 -799v-567h-240z" glyph-name="Y" horiz-adv-x="1304" unicode="Y"/><glyph d="M90 0v195l698 960h-698v211h1010v-195l-699 -960h713v-211h-1024z" glyph-name="Z" horiz-adv-x="1206" unicode="Z"/><glyph d="M90 -389v1778h416v-148h-258v-1483h258v-147h-416z" glyph-name="bracketleft" horiz-adv-x="540" unicode="["/><glyph d="M0 1407h160l485 -1448h-160z" glyph-name="backslash" horiz-adv-x="645" unicode="\"/><glyph d="M35 -389v147h258v1483h-258v148h416v-1778h-416z" glyph-name="bracketright" horiz-adv-x="540" unicode="]"/><glyph d="M692 682l-246 535l-243 -535h-164l330 684h159l328 -684h-164z" glyph-name="asciicircum" horiz-adv-x="894" unicode="^"/><glyph d="M-6 -229v147h1167v-147h-1167z" glyph-name="underscore" horiz-adv-x="1155" unicode="_"/><glyph d="M338 1139l-338 295h205l287 -295h-154z" glyph-name="grave" horiz-adv-x="491" unicode="`"/><glyph d="M743 0v106q-115 -131 -319 -131q-135 0 -239.5 87.5t-104.5 240.5q0 158 103.5 240t240.5 82q211 0 319 -127v147q0 86 -63.5 135t-167.5 49q-166 0 -293 -124l-88 149q168 160 416 160q182 0 296.5 -86t114.5 -273v-655h-215zM743 225v150q-74 102 -235 102 q-92 0 -151.5 -49t-59.5 -129t59.5 -128t151.5 -48q161 0 235 102z" glyph-name="a" horiz-adv-x="1097" unicode="a"/><glyph d="M139 0v1366h215v-514q121 162 318 162q193 0 315.5 -142.5t122.5 -377.5q0 -240 -123 -379.5t-315 -139.5q-195 0 -318 160v-135h-215zM354 297q35 -55 108 -93t146 -38q127 0 204 91t77 236.5t-77 237.5t-204 92q-74 0 -145.5 -39t-108.5 -96v-391z" glyph-name="b" horiz-adv-x="1189" unicode="b"/><glyph d="M78 496q0 225 143.5 371.5t368.5 146.5q248 0 379 -176l-142 -131q-82 117 -227 116q-135 0 -217 -91t-82 -236.5t82 -237.5t217 -92q141 0 227 117l142 -131q-131 -176 -379 -177q-225 0 -368.5 147t-143.5 374z" glyph-name="c" horiz-adv-x="1017" unicode="c"/><glyph d="M836 0v135q-123 -160 -317.5 -160t-317.5 139.5t-123 379.5q0 238 123 379t317.5 141t317.5 -162v514h215v-1366h-215zM836 297v393q-37 57 -109 95t-147 38q-127 0 -203 -92t-76 -237.5t76 -236.5t203 -91q76 0 147.5 37t108.5 94z" glyph-name="d" horiz-adv-x="1189" unicode="d"/><glyph d="M78 496q0 217 142 367.5t360 150.5q219 0 353 -151.5t134 -387.5v-51h-764q12 -117 96 -194.5t219 -77.5q76 0 153 28.5t128 79.5l98 -141q-150 -143 -401 -144q-225 0 -371.5 145t-146.5 376zM580 838q-127 0 -199 -79t-80 -184h557q-4 102 -74.5 182.5t-203.5 80.5z " glyph-name="e" horiz-adv-x="1140" unicode="e"/><glyph d="M190 0v801h-163v188h163v55q0 162 86 252t228 90q104 0 172 -38l-47 -158q-35 20 -86 20q-63 0 -100 -42t-37 -124v-55h200v-188h-200v-801h-216z" glyph-name="f" horiz-adv-x="630" unicode="f"/><glyph d="M127 -254l100 156q111 -127 314 -127q123 0 208 64.5t85 203.5v119q-127 -164 -318 -164q-195 0 -316.5 135t-121.5 373q0 236 122 372t316.5 136t317.5 -162v137h215v-938q0 -127 -44 -220t-120 -141t-161 -69.5t-183 -21.5q-252 0 -414 147zM834 322v368 q-37 55 -109 94t-145 39q-127 0 -203 -87t-76 -230.5t76 -230.5t203 -87q74 0 145.5 39.5t108.5 94.5z" glyph-name="g" horiz-adv-x="1187" unicode="g"/><glyph d="M809 0v623q0 109 -52 154.5t-149 45.5q-76 0 -143.5 -39t-110.5 -94v-690h-215v1366h215v-512q55 66 148.5 113t202.5 47q319 0 319 -314v-700h-215z" glyph-name="h" horiz-adv-x="1163" unicode="h"/><glyph d="M246 1141q-53 0 -93 39t-40 94t40 94t93 39q55 0 94 -39t39 -94t-39 -94t-94 -39zM139 0v989h215v-989h-215z" glyph-name="i" horiz-adv-x="493" unicode="i"/><glyph d="M246 1141q-53 0 -93 39t-40 94t40 94t93 39q55 0 94 -39t39 -94t-39 -94t-94 -39zM354 989v-1046q0 -162 -84 -253t-243 -91q-59 0 -111 10l23 178q25 -6 61 -6q63 0 101 39t38 123v1046h215z" glyph-name="j" horiz-adv-x="493" unicode="j"/><glyph d="M795 0l-303 408l-138 -142v-266h-215v1366h215v-854l437 477h266l-412 -448l420 -541h-270z" glyph-name="k" horiz-adv-x="1077" unicode="k"/><glyph d="M139 0v1366h215v-1366h-215z" glyph-name="l" horiz-adv-x="493" unicode="l"/><glyph d="M1352 0v645q0 178 -162 178q-68 0 -131.5 -39t-97.5 -92v-692h-216v645q0 178 -163 178q-66 0 -128.5 -39t-99.5 -94v-690h-215v989h215v-135q37 55 128 107.5t194 52.5q215 0 270 -183q47 74 139.5 128.5t196.5 54.5q285 0 285 -299v-715h-215z" glyph-name="m" horiz-adv-x="1705" unicode="m"/><glyph d="M807 0v618q0 205 -199 205q-78 0 -145.5 -39t-108.5 -94v-690h-215v989h215v-135q55 66 147.5 113t200.5 47q158 0 239 -82t81 -236v-696h-215z" glyph-name="n" unicode="n"/><glyph d="M586 -25q-229 0 -368.5 150.5t-139.5 370t139 369t369 149.5q231 0 370.5 -149.5t139.5 -368.5q0 -221 -139.5 -371t-370.5 -150zM586 166q133 0 209.5 95t76.5 235q0 137 -76.5 232t-209.5 95q-131 0 -208 -95t-77 -232q0 -139 77 -234.5t208 -95.5z" glyph-name="o" horiz-adv-x="1173" unicode="o"/><glyph d="M354 -377h-215v1366h215v-135q121 160 318 160q195 0 316.5 -139.5t121.5 -379t-122 -380t-316 -140.5q-197 0 -318 162v-514zM887 495.5q0 145.5 -76 236.5t-203 91q-74 0 -145.5 -39t-108.5 -94v-391q37 -55 109 -94t145 -39q127 0 203 92t76 237.5z" glyph-name="p" horiz-adv-x="1187" unicode="p"/><glyph d="M1049 -377h-215v514q-121 -162 -318 -162q-195 0 -316.5 140.5t-121.5 380t122 379t316 139.5q197 0 318 -160v135h215v-1366zM834 299v391q-37 55 -109 94t-145 39q-127 0 -203 -91t-76 -236.5t76 -237.5t203 -92q74 0 145.5 39t108.5 94z" glyph-name="q" horiz-adv-x="1187" unicode="q"/><glyph d="M139 0v989h215v-145q57 74 143.5 121t178.5 47v-213q-29 6 -68 6q-68 0 -144.5 -40t-109.5 -91v-674h-215z" glyph-name="r" horiz-adv-x="710" unicode="r"/><glyph d="M53 129l99 156q55 -57 149 -98.5t186 -41.5q94 0 144.5 32t50.5 89q0 59 -57.5 89t-167.5 55q-68 14 -106 24t-97 34t-90 53.5t-55.5 78.5t-24.5 113q0 127 104.5 214t284.5 87q227 0 385 -140l-90 -151q-47 53 -125 86t-168 33q-86 0 -135 -30t-49 -81t53 -77.5 t162 -51.5q68 -14 107.5 -24.5t99 -36t92.5 -56t58.5 -83t25.5 -119.5q0 -135 -108.5 -221.5t-303.5 -86.5q-266 0 -424 154z" glyph-name="s" horiz-adv-x="966" unicode="s"/><glyph d="M436 -25q-125 0 -189.5 65.5t-64.5 188.5v572h-164v188h164v271h215v-271h201v-188h-201v-518q0 -53 24.5 -85t70.5 -32q66 0 96 35l51 -162q-68 -64 -203 -64z" glyph-name="t" horiz-adv-x="653" unicode="t"/><glyph d="M807 0v131q-139 -156 -350 -156q-317 0 -318 314v700h215v-622q0 -109 51.5 -155t147.5 -46q78 0 145.5 37t108.5 92v694h215v-989h-215z" glyph-name="u" unicode="u"/><glyph d="M399 0l-403 989h229l289 -741l289 741h231l-403 -989h-232z" glyph-name="v" horiz-adv-x="1030" unicode="v"/><glyph d="M1001 0l-229 725l-229 -725h-226l-307 989h223l209 -719l236 719h188l236 -719l209 719h223l-307 -989h-226z" glyph-name="w" horiz-adv-x="1544" unicode="w"/><glyph d="M764 0l-256 365l-258 -365h-240l363 508l-342 481h241l236 -336l233 336h242l-342 -481l365 -508h-242z" glyph-name="x" horiz-adv-x="1015" unicode="x"/><glyph d="M129 -195q37 -16 82 -16q104 0 141 86l49 113l-405 1001h229l289 -741l289 741h231l-477 -1167q-88 -219 -340 -223q-68 0 -121 14z" glyph-name="y" horiz-adv-x="1030" unicode="y"/><glyph d="M94 0v162l490 639h-490v188h776v-158l-493 -645h502v-186h-785z" glyph-name="z" horiz-adv-x="974" unicode="z"/><glyph d="M406 -389q-119 0 -205 84t-86 219v383q0 59 -28 99t-79 40v127q51 0 79 40t28 99v381q0 135 87 220.5t204 85.5h124v-148h-124q-55 0 -93.5 -44t-38.5 -114v-401q0 -141 -94 -182q94 -41 94 -183v-401q0 -68 38 -113t94 -45h124v-147h-124z" glyph-name="braceleft" horiz-adv-x="565" unicode="{"/><glyph d="M145 -41v1448h148v-1448h-148z" glyph-name="bar" horiz-adv-x="438" unicode="|"/><glyph d="M35 -242h125q55 0 93 45t38 113v401q0 141 94 183q-94 41 -94 182v401q0 70 -38 114t-93 44h-125v148h125q117 0 204 -85t87 -221v-381q0 -59 27.5 -99t78.5 -40v-127q-51 0 -78.5 -40t-27.5 -99v-383q0 -135 -86 -219t-205 -84h-125v147z" glyph-name="braceright" horiz-adv-x="565" unicode="}"/><glyph d="M983 1348q-8 -104 -24.5 -183.5t-48 -154t-88 -115.5t-134.5 -41q-53 0 -93 18.5t-66.5 60.5t-40 69.5t-31.5 82.5q-18 49 -27.5 73t-31 46.5t-48.5 22.5q-111 0 -145 -375l-152 18q10 104 26.5 183.5t48.5 154t88 115.5t134 41q53 0 93 -18.5t67 -59.5t40 -69.5 t32 -83.5q16 -51 26 -75t32 -46.5t48 -22.5q115 0 146 377z" glyph-name="asciitilde" horiz-adv-x="1038" unicode="~"/><glyph glyph-name="uni00A0" horiz-adv-x="526" unicode=" "/><glyph d="M250 1010q57 0 100 -42t43 -99.5t-43 -100.5t-100 -43t-99 42t-42 101q0 57 42 99.5t99 42.5zM158 569h186l39 -946h-262z" glyph-name="exclamdown" horiz-adv-x="501" unicode="¡"/><glyph d="M664 172q96 20 163 111l142 -131q-106 -147 -305 -172v-185h-160v187q-190 29 -308 169t-118 345q0 203 117.5 343t308.5 169v149h160v-147q199 -25 305 -172l-142 -131q-66 90 -163 110v-645zM301 495.5q0 -116.5 54.5 -200.5t148.5 -115v629q-94 -29 -148.5 -113 t-54.5 -200.5z" glyph-name="cent" horiz-adv-x="1017" unicode="¢"/><glyph d="M979 264l96 -190q-96 -100 -291 -101q-96 0 -211 52q-98 41 -157 41q-90 0 -240 -80l-82 168q244 113 244 280q0 57 -27 115h-268v143h170q-39 49 -59.5 82t-40 87t-19.5 110q0 178 145.5 296.5t335.5 118.5q324 0 449 -239l-190 -113q-27 68 -90.5 112t-141.5 44 q-104 0 -176 -61.5t-72 -161.5q0 -68 24.5 -118t72.5 -114l30 -43h301v-143h-237q6 -29 6 -60q0 -154 -143 -245q49 16 104 16q61 0 152 -39q74 -35 131 -35q123 0 184 78z" glyph-name="sterling" horiz-adv-x="1097" unicode="£"/><glyph d="M1135 682q0 -168 -88 -293l153 -151l-129 -127l-153 151q-125 -80 -291 -80t-293 82l-152 -153l-129 127l152 151q-86 131 -86 293q0 168 88 293l-156 155l129 127l158 -157q121 80 289 80t288 -80l156 157l129 -129l-153 -153q88 -125 88 -293zM627 375q135 0 213 89 t78 218q0 127 -78 215t-213 88t-213 -88t-78 -215q0 -129 78 -218t213 -89z" glyph-name="currency" horiz-adv-x="1253" unicode="¤"/><glyph d="M1300 1366l-438 -661h398v-138h-488v-188h488v-137h-488v-242h-240v242h-485v137h485v188h-485v138h395l-440 661h274l377 -586l373 586h274z" glyph-name="yen" horiz-adv-x="1304" unicode="¥"/><glyph d="M145 760v647h148v-647h-148zM145 -41v647h148v-647h-148z" glyph-name="brokenbar" horiz-adv-x="438" unicode="¦"/><glyph d="M711 395q178 -74 178 -250q0 -145 -113.5 -228t-298.5 -83q-248 0 -420 160l95 137q55 -59 142 -102t183 -43q92 0 148.5 37.5t56.5 105.5q0 45 -38 76t-79 44t-123 34q-70 18 -103.5 27t-92 35t-87 54.5t-52 75.5t-23.5 109q0 98 62.5 163.5t152.5 94.5 q-215 76 -215 256q0 123 107.5 205.5t281.5 82.5q246 0 383 -141l-88 -129q-106 117 -287 117q-86 0 -138 -36t-52 -97q0 -20 7 -36.5t25.5 -30t33 -21.5t49 -18.5t52 -14.5t60.5 -14q68 -14 107 -24.5t96 -35t88 -54.5t55.5 -80t24.5 -114q0 -178 -178 -262zM481 786 q-104 -27 -147 -68.5t-43 -105.5q0 -39 18.5 -65.5t60.5 -46t73.5 -28.5t93.5 -23q141 59 141 172q0 70 -53.5 106t-143.5 59z" glyph-name="section" horiz-adv-x="976" unicode="§"/><glyph d="M215 1155q-51 0 -86 35t-35 86q0 49 35 84t86 35q49 0 84 -35t35 -84q0 -51 -35 -86t-84 -35zM643 1155q-49 0 -85 35t-36 86q0 49 36 84t85 35t85 -35t36 -84q0 -51 -36 -86t-85 -35z" glyph-name="dieresis" horiz-adv-x="858" unicode="¨"/><glyph d="M797 -25q-293 0 -500 207t-207 500t207 500t500 207t499.5 -207t206.5 -500t-206.5 -500t-499.5 -207zM797 1319q-262 0 -449.5 -187.5t-187.5 -449.5t187.5 -449.5t449.5 -187.5t449.5 187.5t187.5 449.5t-187.5 449.5t-449.5 187.5zM1108 385q-117 -137 -303 -137 q-178 0 -302 125t-124 311t124 309t302 123q186 0 301 -135l-59 -57q-86 117 -242 116q-141 0 -240.5 -100t-99.5 -256q0 -154 100.5 -257t239.5 -103q156 0 244 118z" glyph-name="copyright" horiz-adv-x="1593" unicode="©"/><glyph d="M512 668v67q-76 -84 -213 -84q-90 0 -158.5 56.5t-68.5 157t68.5 154.5t158.5 54q139 0 213 -82v94q0 55 -42 88t-108 33q-113 0 -194 -88l-64 103q115 106 283 106q125 0 204 -57.5t79 -186.5v-415h-158zM512 819v90q-49 66 -150 66q-57 0 -95 -31t-38 -80 q0 -51 38 -81.5t95 -30.5q101 -1 150 67z" glyph-name="ordfeminine" horiz-adv-x="782" unicode="ª"/><glyph d="M389 129l-328 369l328 362h203l-328 -362l328 -369h-203zM737 129l-327 369l327 362h203l-328 -362l328 -369h-203z" glyph-name="guillemotleft" horiz-adv-x="1001" unicode="«"/><glyph d="M969 420h-144v389h-766v139h910v-528z" glyph-name="logicalnot" horiz-adv-x="1044" unicode="¬"/><glyph d="M61 403v185h492v-185h-492z" glyph-name="uni00AD" horiz-adv-x="614" unicode="­"/><glyph d="M506 518q-180 0 -307 127t-127 307.5t127 307t307 126.5q182 0 308 -125.5t126 -308.5q0 -180 -127 -307t-307 -127zM506 1323q-156 0 -264.5 -107.5t-108.5 -263.5q0 -154 108.5 -263t264.5 -109q154 0 262.5 109.5t108.5 262.5q0 156 -108.5 263.5t-262.5 107.5z M625 702l-129 197h-88v-197h-68v498h203q66 0 112.5 -42t46.5 -109q0 -72 -46 -110t-81 -38l134 -199h-84zM543 1141h-135v-180h135q35 0 62.5 25.5t27.5 62.5q0 39 -27.5 65.5t-62.5 26.5z" glyph-name="registered" horiz-adv-x="1011" unicode="®"/><glyph d="M41 1159v127h661v-127h-661z" glyph-name="macron" horiz-adv-x="743" unicode="¯"/><glyph d="M307 856q-109 0 -186.5 77t-77.5 187q0 109 78 187.5t186 78.5q111 0 188.5 -78.5t77.5 -187.5q0 -111 -77.5 -187.5t-188.5 -76.5zM307.5 1264q-57.5 0 -98.5 -42t-41 -101.5t41 -100.5t98 -41q59 0 101.5 42t42.5 99q0 59 -43 101.5t-100.5 42.5z" glyph-name="degree" horiz-adv-x="618" unicode="°"/><glyph d="M590 666v-426h-152v426h-379v137h379v411h152v-411h379v-137h-379zM59 0v137h910v-137h-910z" glyph-name="plusminus" horiz-adv-x="1028" unicode="±"/><glyph d="M98 862v121q262 186 357.5 278.5t95.5 170.5q0 63 -44 96t-110 33q-70 0 -131 -31t-94 -74l-88 105q113 133 317 133q135 0 224.5 -65.5t89.5 -184.5q0 -104 -91.5 -207.5t-285.5 -241.5h383v-133h-623z" glyph-name="uni00B2" horiz-adv-x="804" unicode="²"/><glyph d="M399 848q-219 0 -325 131l84 106q92 -104 235 -104q80 0 124 31.5t44 85.5q0 117 -194 116q-76 0 -88 -2v134q16 -2 86 -3q182 0 182 109q0 51 -46 80t-118 29q-127 0 -219 -95l-80 99q119 129 315 129q143 0 227.5 -60.5t84.5 -160.5q0 -76 -54.5 -126.5t-128.5 -62.5 q72 -6 134.5 -57t62.5 -140q0 -106 -89.5 -172.5t-236.5 -66.5z" glyph-name="uni00B3" horiz-adv-x="804" unicode="³"/><glyph d="M154 1139h-154l287 295h205z" glyph-name="acute" horiz-adv-x="491" unicode="´"/><glyph d="M354 -377h-215v1366h215v-622q0 -203 201 -203q76 0 143.5 38t108.5 93v694h215v-721q0 -47 23.5 -74.5t64.5 -27.5q18 0 39 4l14 -182q-41 -12 -102 -13q-199 0 -244 177q-51 -78 -128 -127.5t-165 -49.5q-123 0 -170 74v-426z" glyph-name="uni00B5" horiz-adv-x="1189" unicode="µ"/><glyph d="M690 -205v1458h-170v-1458h-112v867q-145 0 -249 103t-104 248.5t103.5 249t249.5 103.5h395v-1571h-113z" glyph-name="paragraph" horiz-adv-x="919" unicode="¶"/><glyph d="M250 358q-57 0 -100.5 42t-43.5 99.5t43.5 100.5t100.5 43t100 -43t43 -100.5t-43 -99.5t-100 -42z" glyph-name="periodcentered" horiz-adv-x="501" unicode="·"/><glyph d="M0 -334l45 94q74 -59 166 -59q49 0 82 20.5t33 57.5q0 57 -68 57q-43 0 -70 -31l-84 48l64 170h113l-54 -132q33 23 74 23q59 0 98 -39t39 -98q0 -80 -63.5 -127t-157.5 -47q-137 0 -217 63z" glyph-name="cedilla" horiz-adv-x="438" unicode="¸"/><glyph d="M252 862v606l-137 -141l-95 100l254 254h144v-819h-166z" glyph-name="uni00B9" horiz-adv-x="540" unicode="¹"/><glyph d="M70 989.5q0 143.5 95 240.5t249 97q158 0 252 -97t94 -240.5t-94.5 -241t-251.5 -97.5q-154 0 -249 97.5t-95 241zM596 989q0 92 -49 148.5t-133 56.5t-132.5 -56.5t-48.5 -148.5q0 -94 48.5 -151.5t132.5 -57.5t133 57.5t49 151.5z" glyph-name="ordmasculine" horiz-adv-x="829" unicode="º"/><glyph d="M264 129h-203l328 369l-328 362h203l328 -362zM612 129h-202l327 369l-327 362h202l328 -362z" glyph-name="guillemotright" horiz-adv-x="1001" unicode="»"/><glyph d="M252 547v606l-137 -141l-95 100l254 254h144v-819h-166zM377 0h-137l872 1366h139zM1430 188v-188h-164v188h-402v115l336 516h230v-500h112v-131h-112zM1266 678l-238 -359h238v359z" glyph-name="onequarter" horiz-adv-x="1601" unicode="¼"/><glyph d="M252 547v606l-137 -141l-95 100l254 254h144v-819h-166zM377 0h-137l872 1366h139zM997 0v121q262 186 357.5 278.5t95.5 169.5q0 63 -44 96t-110 33q-70 0 -131 -30.5t-94 -73.5l-88 104q113 133 317 133q135 0 224.5 -65.5t89.5 -183.5q0 -104 -91 -208t-286 -241h383 v-133h-623z" glyph-name="onehalf" horiz-adv-x="1703" unicode="½"/><glyph d="M399 532q-219 0 -325 132l84 106q92 -104 235 -104q80 0 124 31.5t44 84.5q0 117 -194 117q-76 0 -88 -2v133q16 -2 86 -2q182 0 182 109q0 51 -46 79.5t-118 28.5q-127 0 -219 -94l-80 98q119 129 315 129q143 0 227.5 -60.5t84.5 -160.5q0 -76 -54.5 -126t-128.5 -62 q72 -6 134.5 -57.5t62.5 -139.5q0 -106 -89.5 -173t-236.5 -67zM590 0h-137l872 1366h139zM1642 188v-188h-163v188h-402v115l336 516h229v-500h113v-131h-113zM1479 678l-238 -359h238v359z" glyph-name="threequarters" horiz-adv-x="1814" unicode="¾"/><glyph d="M621 866q0 -57 -43 -99t-100.5 -42t-100.5 42t-43 99q0 59 42 101.5t101.5 42.5t101.5 -42.5t42 -101.5zM625 410q0 -49 -14.5 -89t-47.5 -75t-57.5 -54.5t-69.5 -52.5q-49 -35 -72.5 -54t-46 -54t-22.5 -72q0 -63 50 -105t144 -42q168 0 285 143l137 -154 q-166 -203 -446 -202q-190 0 -303 90t-113 231q0 80 37 145.5t74 98.5t106 80q51 37 77 58.5t49.5 57t23.5 72.5q0 53 -45 92l180 60q74 -72 74 -174z" glyph-name="questiondown" horiz-adv-x="811" unicode="¿"/><glyph d="M610 1481l-338 295h205l287 -295h-154zM1112 0l-100 262h-647l-101 -262h-262l537 1366h299l536 -1366h-262zM688 1163l-256 -690h512z" glyph-name="Agrave" horiz-adv-x="1378" unicode="À"/><glyph d="M758 1481h-154l287 295h205zM1112 0l-100 262h-647l-101 -262h-262l537 1366h299l536 -1366h-262zM688 1163l-256 -690h512z" glyph-name="Aacute" horiz-adv-x="1378" unicode="Á"/><glyph d="M846 1481l-158 196l-153 -196h-136l191 295h196l197 -295h-137zM1112 0l-100 262h-647l-101 -262h-262l537 1366h299l536 -1366h-262zM688 1163l-256 -690h512z" glyph-name="Acircumflex" horiz-adv-x="1378" unicode="Â"/><glyph d="M651 1571q-49 66 -88 65q-37 0 -61.5 -36.5t-24.5 -110.5h-117q0 127 54.5 200.5t156.5 73.5q37 0 69 -16t47 -31.5t38 -46.5q53 -66 90 -65q84 0 84 147h119q0 -127 -54.5 -200.5t-156.5 -73.5q-37 0 -68.5 15t-48 32.5t-39.5 46.5zM1112 0l-100 262h-647l-101 -262 h-262l537 1366h299l536 -1366h-262zM688 1163l-256 -690h512z" glyph-name="Atilde" horiz-adv-x="1378" unicode="Ã"/><glyph d="M475 1497q-51 0 -86 35t-35 86q0 49 35 84t86 35q49 0 84 -35t35 -84q0 -51 -35 -86t-84 -35zM903 1497q-49 0 -85 35t-36 86q0 49 36 84t85 35t85 -35t36 -84q0 -51 -36 -86t-85 -35zM1112 0l-100 262h-647l-101 -262h-262l537 1366h299l536 -1366h-262zM688 1163 l-256 -690h512z" glyph-name="Adieresis" horiz-adv-x="1378" unicode="Ä"/><glyph d="M481 1649q0 86 61.5 148.5t147.5 62.5t146.5 -62.5t60.5 -148.5t-60.5 -147.5t-146.5 -61.5t-147.5 61.5t-61.5 147.5zM795 1649q0 45 -30 75.5t-75 30.5q-43 0 -74.5 -30.5t-31.5 -75.5q0 -43 31.5 -75t74.5 -32t74 32t31 75zM1112 0l-100 262h-647l-101 -262h-262 l537 1366h299l536 -1366h-262zM688 1163l-256 -690h512z" glyph-name="Aring" horiz-adv-x="1378" unicode="Å"/><glyph d="M932 0v262h-516l-158 -262h-262l840 1366h1032v-211h-697v-354h682v-211h-682v-379h697v-211h-936zM932 1165l-402 -692h402v692z" glyph-name="AE" horiz-adv-x="1964" unicode="Æ"/><glyph d="M791 188q115 0 209 55.5t145 143.5l205 -104q-182 -289 -516 -306l-35 -86q33 23 73 23q59 0 98.5 -39t39.5 -98q0 -80 -63.5 -127t-158.5 -47q-137 0 -217 63l45 94q74 -59 166 -59q49 0 82 20.5t33 57.5q0 57 -68 57q-43 0 -69 -31l-84 48l47 124q-274 23 -456.5 218.5 t-182.5 486.5q0 309 204 508t503 199q367 0 559 -308l-205 -104q-51 88 -145.5 143.5t-208.5 55.5q-197 0 -329 -140.5t-132 -353.5t132 -353.5t329 -140.5z" glyph-name="Ccedilla" horiz-adv-x="1396" unicode="Ç"/><glyph d="M549 1481l-338 295h205l286 -295h-153zM145 0v1366h936v-211h-696v-354h682v-211h-682v-379h696v-211h-936z" glyph-name="Egrave" horiz-adv-x="1181" unicode="È"/><glyph d="M696 1481h-153l286 295h205zM145 0v1366h936v-211h-696v-354h682v-211h-682v-379h696v-211h-936z" glyph-name="Eacute" horiz-adv-x="1181" unicode="É"/><glyph d="M784 1481l-157 196l-154 -196h-135l190 295h197l197 -295h-138zM145 0v1366h936v-211h-696v-354h682v-211h-682v-379h696v-211h-936z" glyph-name="Ecircumflex" horiz-adv-x="1181" unicode="Ê"/><glyph d="M414 1497q-51 0 -86 35t-35 86q0 49 34.5 84t86.5 35q49 0 83.5 -35t34.5 -84q0 -51 -34.5 -86t-83.5 -35zM842 1497q-49 0 -85 35t-36 86q0 49 36 84t85 35t85 -35t36 -84q0 -51 -36 -86t-85 -35zM145 0v1366h936v-211h-696v-354h682v-211h-682v-379h696v-211h-936z" glyph-name="Edieresis" horiz-adv-x="1181" unicode="Ë"/><glyph d="M188 1481l-338 295h205l287 -295h-154zM145 0v1366h240v-1366h-240z" glyph-name="Igrave" horiz-adv-x="530" unicode="Ì"/><glyph d="M336 1481h-154l287 295h205zM145 0v1366h240v-1366h-240z" glyph-name="Iacute" horiz-adv-x="530" unicode="Í"/><glyph d="M424 1481l-158 196l-153 -196h-136l191 295h197l196 -295h-137zM145 0v1366h240v-1366h-240z" glyph-name="Icircumflex" horiz-adv-x="530" unicode="Î"/><glyph d="M53 1497q-51 0 -86 35t-35 86q0 49 35 84t86 35q49 0 84 -35t35 -84q0 -51 -35 -86t-84 -35zM481 1497q-49 0 -85 35t-36 86q0 49 36 84t85 35t85 -35t36 -84q0 -51 -36 -86t-85 -35zM145 0v1366h240v-1366h-240z" glyph-name="Idieresis" horiz-adv-x="530" unicode="Ï"/><glyph d="M707 1366q317 0 515.5 -190.5t198.5 -493.5q0 -301 -197.5 -491.5t-516.5 -190.5h-508v584h-181v176h181v606h508zM707 211q215 0 342 135t127 336q0 207 -124 340t-345 133h-269v-395h324v-176h-324v-373h269z" glyph-name="Eth" horiz-adv-x="1507" unicode="Ð"/><glyph d="M700 1571q-49 66 -88 65q-37 0 -61.5 -36.5t-24.5 -110.5h-116q0 127 54 200.5t157 73.5q37 0 68.5 -16t47 -31.5t37.5 -46.5q53 -66 90 -65q84 0 84 147h119q0 -127 -54.5 -200.5t-156.5 -73.5q-37 0 -68.5 15t-48 32.5t-39.5 46.5zM1098 0l-713 995v-995h-240v1366h246 l699 -969v969h239v-1366h-231z" glyph-name="Ntilde" horiz-adv-x="1474" unicode="Ñ"/><glyph d="M702 1481l-337 295h204l287 -295h-154zM84 682q0 307 196.5 507t501.5 200t502 -200t197 -507t-197 -507t-502 -200t-501.5 200t-196.5 507zM1235 682q0 215 -125 354.5t-328 139.5q-205 0 -328.5 -139.5t-123.5 -354.5t124 -354.5t328 -139.5q203 0 328 140.5t125 353.5 z" glyph-name="Ograve" horiz-adv-x="1566" unicode="Ò"/><glyph d="M850 1481h-154l287 295h205zM84 682q0 307 196.5 507t501.5 200t502 -200t197 -507t-197 -507t-502 -200t-501.5 200t-196.5 507zM1235 682q0 215 -125 354.5t-328 139.5q-205 0 -328.5 -139.5t-123.5 -354.5t124 -354.5t328 -139.5q203 0 328 140.5t125 353.5z" glyph-name="Oacute" horiz-adv-x="1566" unicode="Ó"/><glyph d="M938 1481l-158 196l-153 -196h-135l190 295h197l196 -295h-137zM84 682q0 307 196.5 507t501.5 200t502 -200t197 -507t-197 -507t-502 -200t-501.5 200t-196.5 507zM1235 682q0 215 -125 354.5t-328 139.5q-205 0 -328.5 -139.5t-123.5 -354.5t124 -354.5t328 -139.5 q203 0 328 140.5t125 353.5z" glyph-name="Ocircumflex" horiz-adv-x="1566" unicode="Ô"/><glyph d="M743 1571q-49 66 -88 65q-37 0 -61.5 -36.5t-24.5 -110.5h-116q0 127 54 200.5t157 73.5q37 0 68.5 -16t47 -31.5t37.5 -46.5q53 -66 90 -65q84 0 84 147h119q0 -127 -54.5 -200.5t-156.5 -73.5q-37 0 -68.5 15t-48 32.5t-39.5 46.5zM84 682q0 307 196.5 507t501.5 200 t502 -200t197 -507t-197 -507t-502 -200t-501.5 200t-196.5 507zM1235 682q0 215 -125 354.5t-328 139.5q-205 0 -328.5 -139.5t-123.5 -354.5t124 -354.5t328 -139.5q203 0 328 140.5t125 353.5z" glyph-name="Otilde" horiz-adv-x="1566" unicode="Õ"/><glyph d="M567 1497q-51 0 -86 35t-35 86q0 49 35 84t86 35q49 0 84 -35t35 -84q0 -51 -35 -86t-84 -35zM995 1497q-49 0 -85 35t-36 86q0 49 36 84t85 35t85 -35t36 -84q0 -51 -36 -86t-85 -35zM84 682q0 307 196.5 507t501.5 200t502 -200t197 -507t-197 -507t-502 -200 t-501.5 200t-196.5 507zM1235 682q0 215 -125 354.5t-328 139.5q-205 0 -328.5 -139.5t-123.5 -354.5t124 -354.5t328 -139.5q203 0 328 140.5t125 353.5z" glyph-name="Odieresis" horiz-adv-x="1566" unicode="Ö"/><glyph d="M514 586l-295 -295l-98 96l295 297l-295 295l98 98l295 -297l295 297l98 -98l-295 -295l295 -297l-98 -96z" glyph-name="multiply" horiz-adv-x="1028" unicode="×"/><glyph d="M1249 1223q231 -203 232 -541q0 -307 -197 -507t-502 -200q-201 0 -366 95l-51 -70h-179l113 156q-215 203 -215 526q0 307 196.5 507t501.5 200q190 0 348 -84l46 61h178zM330 682q0 -201 108 -334l561 774q-94 53 -217 54q-205 0 -328.5 -139.5t-123.5 -354.5zM782 188 q203 0 328 140.5t125 353.5t-123 352l-565 -782q102 -64 235 -64z" glyph-name="Oslash" horiz-adv-x="1566" unicode="Ø"/><glyph d="M659 1481l-337 295h204l287 -295h-154zM145 539v827h242v-819q0 -166 91 -262.5t259 -96.5t258 96.5t90 262.5v819h242v-825q0 -262 -150.5 -414t-439.5 -152q-291 0 -441.5 152t-150.5 412z" glyph-name="Ugrave" horiz-adv-x="1472" unicode="Ù"/><glyph d="M807 1481h-154l287 295h205zM145 539v827h242v-819q0 -166 91 -262.5t259 -96.5t258 96.5t90 262.5v819h242v-825q0 -262 -150.5 -414t-439.5 -152q-291 0 -441.5 152t-150.5 412z" glyph-name="Uacute" horiz-adv-x="1472" unicode="Ú"/><glyph d="M895 1481l-158 196l-153 -196h-135l190 295h197l196 -295h-137zM145 539v827h242v-819q0 -166 91 -262.5t259 -96.5t258 96.5t90 262.5v819h242v-825q0 -262 -150.5 -414t-439.5 -152q-291 0 -441.5 152t-150.5 412z" glyph-name="Ucircumflex" horiz-adv-x="1472" unicode="Û"/><glyph d="M524 1497q-51 0 -86 35t-35 86q0 49 35 84t86 35q49 0 84 -35t35 -84q0 -51 -35 -86t-84 -35zM952 1497q-49 0 -85 35t-36 86q0 49 36 84t85 35t85 -35t36 -84q0 -51 -36 -86t-85 -35zM145 539v827h242v-819q0 -166 91 -262.5t259 -96.5t258 96.5t90 262.5v819h242v-825 q0 -262 -150.5 -414t-439.5 -152q-291 0 -441.5 152t-150.5 412z" glyph-name="Udieresis" horiz-adv-x="1472" unicode="Ü"/><glyph d="M723 1481h-154l287 295h205zM532 0v567l-530 799h274l377 -586l373 586h274l-528 -799v-567h-240z" glyph-name="Yacute" horiz-adv-x="1304" unicode="Ý"/><glyph d="M145 0v1366h240v-231h360q207 0 327 -124t120 -306q0 -180 -120 -302t-327 -122h-360v-281h-240zM946 706.5q0 96.5 -65.5 157t-167.5 60.5h-328v-432h328q102 0 167.5 59t65.5 155.5z" glyph-name="Thorn" horiz-adv-x="1245" unicode="Þ"/><glyph d="M842 -25q-137 0 -224.5 41t-168.5 119l96 150q45 -59 126 -98.5t171 -39.5q92 0 142 39t50 95q0 37 -32.5 64.5t-69.5 39.5t-109 31q-63 16 -98 26.5t-90 34t-84 52t-51.5 76.5t-22.5 110q0 59 30 109t59.5 76t80.5 61q37 25 53.5 38t33 35.5t16.5 42.5q0 55 -54.5 87 t-124.5 32q-94 0 -155.5 -55.5t-61.5 -147.5v-993h-215v993q0 166 119 279.5t317 113.5q160 0 277 -77.5t117 -202.5q0 -59 -30 -109.5t-57.5 -73t-80.5 -59.5q-41 -29 -60.5 -44t-38 -42.5t-18.5 -56.5q0 -33 30.5 -56.5t63.5 -32.5t103 -26q45 -10 70.5 -16t69.5 -21.5 t69.5 -30t58.5 -39t50.5 -53t29.5 -69.5t12 -90q0 -135 -107.5 -223.5t-291.5 -88.5z" glyph-name="germandbls" horiz-adv-x="1275" unicode="ß"/><glyph d="M471 1139l-338 295h205l287 -295h-154zM743 0v106q-115 -131 -319 -131q-135 0 -239.5 87.5t-104.5 240.5q0 158 103.5 240t240.5 82q211 0 319 -127v147q0 86 -63.5 135t-167.5 49q-166 0 -293 -124l-88 149q168 160 416 160q182 0 296.5 -86t114.5 -273v-655h-215z M743 225v150q-74 102 -235 102q-92 0 -151.5 -49t-59.5 -129t59.5 -128t151.5 -48q161 0 235 102z" glyph-name="agrave" horiz-adv-x="1097" unicode="à"/><glyph d="M618 1139h-153l287 295h204zM743 0v106q-115 -131 -319 -131q-135 0 -239.5 87.5t-104.5 240.5q0 158 103.5 240t240.5 82q211 0 319 -127v147q0 86 -63.5 135t-167.5 49q-166 0 -293 -124l-88 149q168 160 416 160q182 0 296.5 -86t114.5 -273v-655h-215zM743 225v150 q-74 102 -235 102q-92 0 -151.5 -49t-59.5 -129t59.5 -128t151.5 -48q161 0 235 102z" glyph-name="aacute" horiz-adv-x="1097" unicode="á"/><glyph d="M707 1139l-158 196l-154 -196h-135l191 295h196l197 -295h-137zM743 0v106q-115 -131 -319 -131q-135 0 -239.5 87.5t-104.5 240.5q0 158 103.5 240t240.5 82q211 0 319 -127v147q0 86 -63.5 135t-167.5 49q-166 0 -293 -124l-88 149q168 160 416 160q182 0 296.5 -86 t114.5 -273v-655h-215zM743 225v150q-74 102 -235 102q-92 0 -151.5 -49t-59.5 -129t59.5 -128t151.5 -48q161 0 235 102z" glyph-name="acircumflex" horiz-adv-x="1097" unicode="â"/><glyph d="M512 1229q-49 66 -88 65q-37 0 -61.5 -36.5t-24.5 -110.5h-117q0 127 54.5 200.5t156.5 73.5q37 0 68.5 -16t47 -31.5t38.5 -46.5q53 -66 90 -65q84 0 84 147h119q0 -127 -54.5 -200.5t-156.5 -73.5q-37 0 -69 15t-48 32.5t-39 46.5zM743 0v106q-115 -131 -319 -131 q-135 0 -239.5 87.5t-104.5 240.5q0 158 103.5 240t240.5 82q211 0 319 -127v147q0 86 -63.5 135t-167.5 49q-166 0 -293 -124l-88 149q168 160 416 160q182 0 296.5 -86t114.5 -273v-655h-215zM743 225v150q-74 102 -235 102q-92 0 -151.5 -49t-59.5 -129t59.5 -128 t151.5 -48q161 0 235 102z" glyph-name="atilde" horiz-adv-x="1097" unicode="ã"/><glyph d="M336 1155q-51 0 -86 35t-35 86q0 49 35 84t86 35q49 0 84 -35t35 -84q0 -51 -35 -86t-84 -35zM764 1155q-49 0 -85 35t-36 86q0 49 36 84t85 35t85 -35t36 -84q0 -51 -36 -86t-85 -35zM743 0v106q-115 -131 -319 -131q-135 0 -239.5 87.5t-104.5 240.5q0 158 103.5 240 t240.5 82q211 0 319 -127v147q0 86 -63.5 135t-167.5 49q-166 0 -293 -124l-88 149q168 160 416 160q182 0 296.5 -86t114.5 -273v-655h-215zM743 225v150q-74 102 -235 102q-92 0 -151.5 -49t-59.5 -129t59.5 -128t151.5 -48q161 0 235 102z" glyph-name="adieresis" horiz-adv-x="1097" unicode="ä"/><glyph d="M342 1307q0 86 61.5 148.5t147.5 62.5t146.5 -62.5t60.5 -148.5t-60.5 -147.5t-146.5 -61.5t-147.5 61.5t-61.5 147.5zM655 1307q0 45 -29.5 75.5t-74.5 30.5q-43 0 -75 -30.5t-32 -75.5q0 -43 32 -75t75 -32t73.5 32t30.5 75zM743 0v106q-115 -131 -319 -131 q-135 0 -239.5 87.5t-104.5 240.5q0 158 103.5 240t240.5 82q211 0 319 -127v147q0 86 -63.5 135t-167.5 49q-166 0 -293 -124l-88 149q168 160 416 160q182 0 296.5 -86t114.5 -273v-655h-215zM743 225v150q-74 102 -235 102q-92 0 -151.5 -49t-59.5 -129t59.5 -128 t151.5 -48q161 0 235 102z" glyph-name="aring" horiz-adv-x="1097" unicode="å"/><glyph d="M1006 424q12 -117 88.5 -192.5t201.5 -75.5q70 0 141.5 28.5t118.5 79.5l99 -145q-72 -68 -172.5 -106t-196.5 -38q-270 0 -389 201q-59 -90 -171 -145.5t-245 -55.5q-168 0 -284.5 85t-116.5 241q0 154 104.5 239t257.5 85q225 0 349 -123v145q0 84 -70 133t-182 49 q-182 0 -320 -124l-88 149q172 160 426 160q281 0 356 -191q131 190 363 191q205 0 326.5 -150.5t121.5 -388.5v-51h-718zM1516 575q-4 102 -69 182.5t-187 80.5q-117 0 -183.5 -80t-72.5 -183h512zM791 373q-92 104 -263 104q-102 0 -166.5 -42t-64.5 -119.5t63.5 -118.5 t168 -41t183.5 64.5t79 137.5v15z" glyph-name="ae" horiz-adv-x="1798" unicode="æ"/><glyph d="M600 166q141 0 227 117l142 -131q-117 -158 -330 -175l-35 -86q33 23 74 23q59 0 98 -39t39 -98q0 -80 -63.5 -127t-157.5 -47q-137 0 -217 63l45 94q74 -59 166 -59q49 0 81.5 20.5t32.5 57.5q0 57 -67 57q-43 0 -70 -31l-84 48l47 127q-201 20 -325.5 162.5 t-124.5 353.5q0 225 143.5 371.5t368.5 146.5q248 0 379 -176l-142 -131q-82 117 -227 116q-135 0 -217 -91t-82 -236.5t82 -237.5t217 -92z" glyph-name="ccedilla" horiz-adv-x="1017" unicode="ç"/><glyph d="M502 1139l-338 295h205l286 -295h-153zM78 496q0 217 142 367.5t360 150.5q219 0 353 -151.5t134 -387.5v-51h-764q12 -117 96 -194.5t219 -77.5q76 0 153 28.5t128 79.5l98 -141q-150 -143 -401 -144q-225 0 -371.5 145t-146.5 376zM580 838q-127 0 -199 -79t-80 -184 h557q-4 102 -74.5 182.5t-203.5 80.5z" glyph-name="egrave" horiz-adv-x="1140" unicode="è"/><glyph d="M649 1139h-153l286 295h205zM78 496q0 217 142 367.5t360 150.5q219 0 353 -151.5t134 -387.5v-51h-764q12 -117 96 -194.5t219 -77.5q76 0 153 28.5t128 79.5l98 -141q-150 -143 -401 -144q-225 0 -371.5 145t-146.5 376zM580 838q-127 0 -199 -79t-80 -184h557 q-4 102 -74.5 182.5t-203.5 80.5z" glyph-name="eacute" horiz-adv-x="1140" unicode="é"/><glyph d="M737 1139l-157 196l-154 -196h-135l190 295h197l196 -295h-137zM78 496q0 217 142 367.5t360 150.5q219 0 353 -151.5t134 -387.5v-51h-764q12 -117 96 -194.5t219 -77.5q76 0 153 28.5t128 79.5l98 -141q-150 -143 -401 -144q-225 0 -371.5 145t-146.5 376zM580 838 q-127 0 -199 -79t-80 -184h557q-4 102 -74.5 182.5t-203.5 80.5z" glyph-name="ecircumflex" horiz-adv-x="1140" unicode="ê"/><glyph d="M367 1155q-51 0 -86 35t-35 86q0 49 34.5 84t86.5 35q49 0 83.5 -35t34.5 -84q0 -51 -34.5 -86t-83.5 -35zM794.5 1155q-49.5 0 -85 35t-35.5 86q0 49 35.5 84t85 35t85 -35t35.5 -84q0 -51 -35.5 -86t-85 -35zM78 496q0 217 142 367.5t360 150.5q219 0 353 -151.5 t134 -387.5v-51h-764q12 -117 96 -194.5t219 -77.5q76 0 153 28.5t128 79.5l98 -141q-150 -143 -401 -144q-225 0 -371.5 145t-146.5 376zM580 838q-127 0 -199 -79t-80 -184h557q-4 102 -74.5 182.5t-203.5 80.5z" glyph-name="edieresis" horiz-adv-x="1140" unicode="ë"/><glyph d="M168 1139l-338 295h205l287 -295h-154zM139 0v989h215v-989h-215z" glyph-name="igrave" horiz-adv-x="493" unicode="ì"/><glyph d="M315 1139h-153l287 295h204zM139 0v989h215v-989h-215z" glyph-name="iacute" horiz-adv-x="493" unicode="í"/><glyph d="M403 1139l-157 196l-154 -196h-135l190 295h197l197 -295h-138zM139 0v989h215v-989h-215z" glyph-name="icircumflex" horiz-adv-x="493" unicode="î"/><glyph d="M33 1155q-51 0 -86 35t-35 86q0 49 35 84t86 35q49 0 84 -35t35 -84q0 -51 -35 -86t-84 -35zM461 1155q-49 0 -85 35t-36 86q0 49 36 84t85 35t85 -35t36 -84q0 -51 -36 -86t-85 -35zM139 0v989h215v-989h-215z" glyph-name="idieresis" horiz-adv-x="493" unicode="ï"/><glyph d="M733 1208q362 -315 363 -696q0 -240 -137.5 -388.5t-372.5 -148.5q-227 0 -367.5 138.5t-140.5 353.5q0 213 126 352t318 139q203 0 326 -186q-84 172 -324 344l-297 -131l-45 107l230 100q-53 37 -138 86l117 174q143 -86 242 -162l215 94l45 -104zM586 166 q133 0 209.5 87t76.5 214t-76.5 214t-209.5 87q-131 0 -208 -87t-77 -214t77 -214t208 -87z" glyph-name="eth" horiz-adv-x="1173" unicode="ð"/><glyph d="M545 1229q-49 66 -88 65q-37 0 -61.5 -36.5t-24.5 -110.5h-117q0 127 54 200.5t157 73.5q37 0 68.5 -16t47 -31.5t37.5 -46.5q53 -66 91 -65q84 0 84 147h118q0 -127 -54 -200.5t-157 -73.5q-37 0 -68.5 15t-47.5 32.5t-39 46.5zM807 0v618q0 205 -199 205 q-78 0 -145.5 -39t-108.5 -94v-690h-215v989h215v-135q55 66 147.5 113t200.5 47q158 0 239 -82t81 -236v-696h-215z" glyph-name="ntilde" unicode="ñ"/><glyph d="M508 1139l-338 295h205l287 -295h-154zM586 -25q-229 0 -368.5 150.5t-139.5 370t139 369t369 149.5q231 0 370.5 -149.5t139.5 -368.5q0 -221 -139.5 -371t-370.5 -150zM586 166q133 0 209.5 95t76.5 235q0 137 -76.5 232t-209.5 95q-131 0 -208 -95t-77 -232 q0 -139 77 -234.5t208 -95.5z" glyph-name="ograve" horiz-adv-x="1173" unicode="ò"/><glyph d="M655 1139h-153l286 295h205zM586 -25q-229 0 -368.5 150.5t-139.5 370t139 369t369 149.5q231 0 370.5 -149.5t139.5 -368.5q0 -221 -139.5 -371t-370.5 -150zM586 166q133 0 209.5 95t76.5 235q0 137 -76.5 232t-209.5 95q-131 0 -208 -95t-77 -232q0 -139 77 -234.5 t208 -95.5z" glyph-name="oacute" horiz-adv-x="1173" unicode="ó"/><glyph d="M743 1139l-157 196l-154 -196h-135l190 295h197l197 -295h-138zM586 -25q-229 0 -368.5 150.5t-139.5 370t139 369t369 149.5q231 0 370.5 -149.5t139.5 -368.5q0 -221 -139.5 -371t-370.5 -150zM586 166q133 0 209.5 95t76.5 235q0 137 -76.5 232t-209.5 95 q-131 0 -208 -95t-77 -232q0 -139 77 -234.5t208 -95.5z" glyph-name="ocircumflex" horiz-adv-x="1173" unicode="ô"/><glyph d="M549 1229q-49 66 -88 65q-37 0 -61.5 -36.5t-24.5 -110.5h-117q0 127 54.5 200.5t156.5 73.5q37 0 68.5 -16t47 -31.5t38.5 -46.5q53 -66 90 -65q84 0 84 147h118q0 -127 -54 -200.5t-156 -73.5q-37 0 -69 15t-48 32.5t-39 46.5zM586 -25q-229 0 -368.5 150.5t-139.5 370 t139 369t369 149.5q231 0 370.5 -149.5t139.5 -368.5q0 -221 -139.5 -371t-370.5 -150zM586 166q133 0 209.5 95t76.5 235q0 137 -76.5 232t-209.5 95q-131 0 -208 -95t-77 -232q0 -139 77 -234.5t208 -95.5z" glyph-name="otilde" horiz-adv-x="1173" unicode="õ"/><glyph d="M373 1155q-51 0 -86 35t-35 86q0 49 35 84t86 35q49 0 84 -35t35 -84q0 -51 -35 -86t-84 -35zM801 1155q-49 0 -85 35t-36 86q0 49 36 84t85 35t85 -35t36 -84q0 -51 -36 -86t-85 -35zM586 -25q-229 0 -368.5 150.5t-139.5 370t139 369t369 149.5q231 0 370.5 -149.5 t139.5 -368.5q0 -221 -139.5 -371t-370.5 -150zM586 166q133 0 209.5 95t76.5 235q0 137 -76.5 232t-209.5 95q-131 0 -208 -95t-77 -232q0 -139 77 -234.5t208 -95.5z" glyph-name="odieresis" horiz-adv-x="1173" unicode="ö"/><glyph d="M522 952q-45 0 -77.5 33t-32.5 80q0 45 31.5 78t78.5 33t80 -33t33 -78t-33 -79t-80 -34zM59 621v139h928v-139h-928zM522 199q-47 0 -78.5 31.5t-31.5 78.5t32.5 80t77.5 33q47 0 80 -33t33 -80q0 -45 -33 -77.5t-80 -32.5z" glyph-name="divide" horiz-adv-x="1046" unicode="÷"/><glyph d="M956 864q139 -145 140 -368q0 -221 -139.5 -371t-370.5 -150q-172 0 -293 86l-51 -61h-140l109 131q-133 145 -133 364.5t139 369t369 149.5q166 0 286 -80l46 55h141zM301 496q0 -111 49 -195l393 475q-66 47 -157 47q-131 0 -208 -95t-77 -232zM586 166q133 0 209.5 95 t76.5 235q0 117 -55 202l-395 -479q70 -53 164 -53z" glyph-name="oslash" horiz-adv-x="1173" unicode="ø"/><glyph d="M502 1139l-338 295h205l286 -295h-153zM807 0v131q-139 -156 -350 -156q-317 0 -318 314v700h215v-622q0 -109 51.5 -155t147.5 -46q78 0 145.5 37t108.5 92v694h215v-989h-215z" glyph-name="ugrave" unicode="ù"/><glyph d="M649 1139h-153l286 295h205zM807 0v131q-139 -156 -350 -156q-317 0 -318 314v700h215v-622q0 -109 51.5 -155t147.5 -46q78 0 145.5 37t108.5 92v694h215v-989h-215z" glyph-name="uacute" unicode="ú"/><glyph d="M737 1139l-157 196l-154 -196h-135l190 295h197l196 -295h-137zM807 0v131q-139 -156 -350 -156q-317 0 -318 314v700h215v-622q0 -109 51.5 -155t147.5 -46q78 0 145.5 37t108.5 92v694h215v-989h-215z" glyph-name="ucircumflex" unicode="û"/><glyph d="M367 1155q-51 0 -86 35t-35 86q0 49 34.5 84t86.5 35q49 0 83.5 -35t34.5 -84q0 -51 -34.5 -86t-83.5 -35zM794.5 1155q-49.5 0 -85 35t-35.5 86q0 49 35.5 84t85 35t85 -35t35.5 -84q0 -51 -35.5 -86t-85 -35zM807 0v131q-139 -156 -350 -156q-317 0 -318 314v700h215 v-622q0 -109 51.5 -155t147.5 -46q78 0 145.5 37t108.5 92v694h215v-989h-215z" glyph-name="udieresis" unicode="ü"/><glyph d="M584 1139h-154l287 295h205zM129 -195q37 -16 82 -16q104 0 141 86l49 113l-405 1001h229l289 -741l289 741h231l-477 -1167q-88 -219 -340 -223q-68 0 -121 14z" glyph-name="yacute" horiz-adv-x="1030" unicode="ý"/><glyph d="M354 137v-514h-215v1743h215v-512q121 160 318 160q195 0 316.5 -139.5t121.5 -379t-122 -380t-316 -140.5q-197 0 -318 162zM887 495.5q0 145.5 -76 236.5t-203 91q-74 0 -145.5 -39t-108.5 -94v-391q37 -55 109 -94t145 -39q127 0 203 92t76 237.5z" glyph-name="thorn" horiz-adv-x="1187" unicode="þ"/><glyph d="M301 1155q-51 0 -86 35t-35 86q0 49 35 84t86 35q49 0 84 -35t35 -84q0 -51 -35 -86t-84 -35zM729 1155q-49 0 -85 35t-36 86q0 49 36 84t85 35t85 -35t36 -84q0 -51 -36 -86t-85 -35zM129 -195q37 -16 82 -16q104 0 141 86l49 113l-405 1001h229l289 -741l289 741h231 l-477 -1167q-88 -219 -340 -223q-68 0 -121 14z" glyph-name="ydieresis" horiz-adv-x="1030" unicode="ÿ"/><glyph d="M356 1501v127h662v-127h-662zM1112 0l-100 262h-647l-101 -262h-262l537 1366h299l536 -1366h-262zM688 1163l-256 -690h512z" glyph-name="Amacron" horiz-adv-x="1378" unicode="Ā"/><glyph d="M217 1159v127h662v-127h-662zM743 0v106q-115 -131 -319 -131q-135 0 -239.5 87.5t-104.5 240.5q0 158 103.5 240t240.5 82q211 0 319 -127v147q0 86 -63.5 135t-167.5 49q-166 0 -293 -124l-88 149q168 160 416 160q182 0 296.5 -86t114.5 -273v-655h-215zM743 225v150 q-74 102 -235 102q-92 0 -151.5 -49t-59.5 -129t59.5 -128t151.5 -48q161 0 235 102z" glyph-name="amacron" horiz-adv-x="1097" unicode="ā"/><glyph d="M688 1477q-223 0 -360 180l98 82q98 -135 262 -135t260 135l99 -82q-134 -180 -359 -180zM1112 0l-100 262h-647l-101 -262h-262l537 1366h299l536 -1366h-262zM688 1163l-256 -690h512z" glyph-name="Abreve" horiz-adv-x="1378" unicode="Ă"/><glyph d="M549 1135q-223 0 -361 180l99 82q98 -135 262 -135t260 135l98 -82q-133 -180 -358 -180zM743 0v106q-115 -131 -319 -131q-135 0 -239.5 87.5t-104.5 240.5q0 158 103.5 240t240.5 82q211 0 319 -127v147q0 86 -63.5 135t-167.5 49q-166 0 -293 -124l-88 149 q168 160 416 160q182 0 296.5 -86t114.5 -273v-655h-215zM743 225v150q-74 102 -235 102q-92 0 -151.5 -49t-59.5 -129t59.5 -128t151.5 -48q161 0 235 102z" glyph-name="abreve" horiz-adv-x="1097" unicode="ă"/><glyph d="M1323 0q-182 -70 -182 -172q0 -29 21.5 -46.5t49.5 -17.5q33 0 62 15l49 -125q-57 -35 -164 -35q-90 0 -153.5 41t-63.5 117q0 131 219 223h-49l-100 262h-647l-101 -262h-262l537 1366h299l536 -1366h-51zM432 473h512l-256 690z" glyph-name="Aogonek" horiz-adv-x="1378" unicode="Ą"/><glyph d="M958 0q-182 -70 -182 -172q0 -29 21.5 -46.5t50.5 -17.5q33 0 61 15l49 -125q-57 -35 -163 -35q-90 0 -153.5 41t-63.5 117q0 131 219 223h-54v106q-115 -131 -319 -131q-135 0 -239.5 87.5t-104.5 240.5q0 158 103.5 240t240.5 82q211 0 319 -127v147q0 86 -63.5 135 t-167.5 49q-166 0 -293 -124l-88 149q168 160 416 160q182 0 296.5 -86t114.5 -273v-655zM743 225v150q-74 102 -235 102q-92 0 -151.5 -49t-59.5 -129t59.5 -128t151.5 -48q161 0 235 102z" glyph-name="aogonek" horiz-adv-x="1097" unicode="ą"/><glyph d="M860 1481h-153l286 295h205zM791 -25q-299 0 -503 199t-204 508t204 508t503 199q367 0 559 -308l-205 -104q-51 88 -145.5 143.5t-208.5 55.5q-197 0 -329 -140.5t-132 -353.5t132 -353.5t329 -140.5q115 0 209 55.5t145 143.5l205 -104q-197 -308 -559 -308z" glyph-name="Cacute" horiz-adv-x="1396" unicode="Ć"/><glyph d="M655 1139h-153l286 295h205zM78 496q0 225 143.5 371.5t368.5 146.5q248 0 379 -176l-142 -131q-82 117 -227 116q-135 0 -217 -91t-82 -236.5t82 -237.5t217 -92q141 0 227 117l142 -131q-131 -176 -379 -177q-225 0 -368.5 147t-143.5 374z" glyph-name="cacute" horiz-adv-x="1017" unicode="ć"/><glyph d="M948 1481l-157 196l-154 -196h-135l190 295h197l196 -295h-137zM791 -25q-299 0 -503 199t-204 508t204 508t503 199q367 0 559 -308l-205 -104q-51 88 -145.5 143.5t-208.5 55.5q-197 0 -329 -140.5t-132 -353.5t132 -353.5t329 -140.5q115 0 209 55.5t145 143.5 l205 -104q-197 -308 -559 -308z" glyph-name="Ccircumflex" horiz-adv-x="1396" unicode="Ĉ"/><glyph d="M743 1139l-157 196l-154 -196h-135l190 295h197l197 -295h-138zM78 496q0 225 143.5 371.5t368.5 146.5q248 0 379 -176l-142 -131q-82 117 -227 116q-135 0 -217 -91t-82 -236.5t82 -237.5t217 -92q141 0 227 117l142 -131q-131 -176 -379 -177q-225 0 -368.5 147 t-143.5 374z" glyph-name="ccircumflex" horiz-adv-x="1017" unicode="ĉ"/><glyph d="M670 1616q0 49 35.5 85t85 36t84 -36t34.5 -85q0 -51 -34.5 -86t-84 -35t-85 35t-35.5 86zM791 -25q-299 0 -503 199t-204 508t204 508t503 199q367 0 559 -308l-205 -104q-51 88 -145.5 143.5t-208.5 55.5q-197 0 -329 -140.5t-132 -353.5t132 -353.5t329 -140.5 q115 0 209 55.5t145 143.5l205 -104q-197 -308 -559 -308z" glyph-name="Cdotaccent" horiz-adv-x="1396" unicode="Ċ"/><glyph d="M465 1274q0 49 36 85t85 36t84 -36t35 -85q0 -51 -35 -86t-84 -35t-85 35t-36 86zM78 496q0 225 143.5 371.5t368.5 146.5q248 0 379 -176l-142 -131q-82 117 -227 116q-135 0 -217 -91t-82 -236.5t82 -237.5t217 -92q141 0 227 117l142 -131q-131 -176 -379 -177 q-225 0 -368.5 147t-143.5 374z" glyph-name="cdotaccent" horiz-adv-x="1017" unicode="ċ"/><glyph d="M692 1481l-196 295h135l160 -199l151 199h137l-190 -295h-197zM791 -25q-299 0 -503 199t-204 508t204 508t503 199q367 0 559 -308l-205 -104q-51 88 -145.5 143.5t-208.5 55.5q-197 0 -329 -140.5t-132 -353.5t132 -353.5t329 -140.5q115 0 209 55.5t145 143.5 l205 -104q-197 -308 -559 -308z" glyph-name="Ccaron" horiz-adv-x="1396" unicode="Č"/><glyph d="M487 1139l-196 295h135l160 -199l151 199h137l-190 -295h-197zM78 496q0 225 143.5 371.5t368.5 146.5q248 0 379 -176l-142 -131q-82 117 -227 116q-135 0 -217 -91t-82 -236.5t82 -237.5t217 -92q141 0 227 117l142 -131q-131 -176 -379 -177q-225 0 -368.5 147 t-143.5 374z" glyph-name="ccaron" horiz-adv-x="1017" unicode="č"/><glyph d="M631 1481l-197 295h135l160 -199l152 199h137l-191 -295h-196zM145 0v1366h508q317 0 516 -190.5t199 -493.5q0 -301 -197.5 -491.5t-517.5 -190.5h-508zM385 211h268q215 0 342 135t127 336q0 207 -124 340t-345 133h-268v-944z" glyph-name="Dcaron" horiz-adv-x="1454" unicode="Ď"/><glyph d="M1223 944l-80 64q43 27 80 76t45 92q-8 -4 -29 -5q-41 0 -69.5 30t-28.5 75q0 47 32.5 81t79.5 34q53 0 91 -41t38 -113q0 -86 -43.5 -164t-115.5 -129zM836 0v135q-123 -160 -317.5 -160t-317.5 139.5t-123 379.5q0 238 123 379t317.5 141t317.5 -162v514h215v-1366 h-215zM836 297v393q-37 57 -109 95t-147 38q-127 0 -203 -92t-76 -237.5t76 -236.5t203 -91q76 0 147.5 37t108.5 94z" glyph-name="dcaron" horiz-adv-x="1372" unicode="ď"/><glyph d="M707 1366q317 0 515.5 -190.5t198.5 -493.5q0 -301 -197.5 -491.5t-516.5 -190.5h-508v584h-181v176h181v606h508zM707 211q215 0 342 135t127 336q0 207 -124 340t-345 133h-269v-395h324v-176h-324v-373h269z" glyph-name="Dcroat" horiz-adv-x="1507" unicode="Đ"/><glyph d="M1180 1214v-127h-129v-1087h-215v135q-123 -160 -317.5 -160t-317.5 139.5t-123 379.5q0 238 123 379t317.5 141t317.5 -162v235h-308v127h308v152h215v-152h129zM836 297v393q-37 57 -109 95t-147 38q-127 0 -203 -92t-76 -237.5t76 -236.5t203 -91q76 0 147.5 37 t108.5 94z" glyph-name="dcroat" horiz-adv-x="1198" unicode="đ"/><glyph d="M295 1501v127h661v-127h-661zM145 0v1366h936v-211h-696v-354h682v-211h-682v-379h696v-211h-936z" glyph-name="Emacron" horiz-adv-x="1181" unicode="Ē"/><glyph d="M248 1159v127h661v-127h-661zM78 496q0 217 142 367.5t360 150.5q219 0 353 -151.5t134 -387.5v-51h-764q12 -117 96 -194.5t219 -77.5q76 0 153 28.5t128 79.5l98 -141q-150 -143 -401 -144q-225 0 -371.5 145t-146.5 376zM580 838q-127 0 -199 -79t-80 -184h557 q-4 102 -74.5 182.5t-203.5 80.5z" glyph-name="emacron" horiz-adv-x="1140" unicode="ē"/><glyph d="M627 1477q-223 0 -361 180l99 82q98 -135 262 -135t260 135l98 -82q-133 -180 -358 -180zM145 0v1366h936v-211h-696v-354h682v-211h-682v-379h696v-211h-936z" glyph-name="Ebreve" horiz-adv-x="1181" unicode="Ĕ"/><glyph d="M580 1135q-223 0 -361 180l98 82q98 -135 262 -135t261 135l98 -82q-133 -180 -358 -180zM78 496q0 217 142 367.5t360 150.5q219 0 353 -151.5t134 -387.5v-51h-764q12 -117 96 -194.5t219 -77.5q76 0 153 28.5t128 79.5l98 -141q-150 -143 -401 -144q-225 0 -371.5 145 t-146.5 376zM580 838q-127 0 -199 -79t-80 -184h557q-4 102 -74.5 182.5t-203.5 80.5z" glyph-name="ebreve" horiz-adv-x="1140" unicode="ĕ"/><glyph d="M506 1616q0 49 36 85t85 36t83.5 -36t34.5 -85q0 -51 -34.5 -86t-83.5 -35t-85 35t-36 86zM145 0v1366h936v-211h-696v-354h682v-211h-682v-379h696v-211h-936z" glyph-name="Edotaccent" horiz-adv-x="1181" unicode="Ė"/><glyph d="M459 1274q0 49 35.5 85t85 36t84 -36t34.5 -85q0 -51 -34.5 -86t-84 -35t-85 35t-35.5 86zM78 496q0 217 142 367.5t360 150.5q219 0 353 -151.5t134 -387.5v-51h-764q12 -117 96 -194.5t219 -77.5q76 0 153 28.5t128 79.5l98 -141q-150 -143 -401 -144 q-225 0 -371.5 145t-146.5 376zM580 838q-127 0 -199 -79t-80 -184h557q-4 102 -74.5 182.5t-203.5 80.5z" glyph-name="edotaccent" horiz-adv-x="1140" unicode="ė"/><glyph d="M1081 1155h-696v-354h682v-211h-682v-379h696v-211q-182 -70 -182 -172q0 -29 21.5 -46.5t50.5 -17.5q33 0 61 15l49 -125q-57 -35 -163 -35q-90 0 -154 41t-64 117q0 131 220 223h-775v1366h936v-211z" glyph-name="Eogonek" horiz-adv-x="1181" unicode="Ę"/><glyph d="M596 -25q-225 0 -371.5 144.5t-146.5 376.5q0 217 142 367.5t360 150.5q219 0 353 -151.5t134 -387.5v-51h-764q12 -117 96 -194.5t219 -77.5q76 0 153 28.5t128 79.5l98 -141q-207 -162 -206 -273q0 -41 22.5 -61.5t52.5 -20.5q33 0 62 15l49 -125q-57 -35 -164 -35 q-90 0 -153.5 41t-63.5 117q0 106 164 217q-82 -19 -164 -19zM580 838q-127 0 -199 -79t-80 -184h557q-4 102 -74.5 182.5t-203.5 80.5z" glyph-name="eogonek" horiz-adv-x="1140" unicode="ę"/><glyph d="M528 1481l-196 295h135l160 -199l151 199h137l-190 -295h-197zM145 0v1366h936v-211h-696v-354h682v-211h-682v-379h696v-211h-936z" glyph-name="Ecaron" horiz-adv-x="1181" unicode="Ě"/><glyph d="M481 1139l-196 295h135l160 -199l151 199h137l-190 -295h-197zM78 496q0 217 142 367.5t360 150.5q219 0 353 -151.5t134 -387.5v-51h-764q12 -117 96 -194.5t219 -77.5q76 0 153 28.5t128 79.5l98 -141q-150 -143 -401 -144q-225 0 -371.5 145t-146.5 376zM580 838 q-127 0 -199 -79t-80 -184h557q-4 102 -74.5 182.5t-203.5 80.5z" glyph-name="ecaron" horiz-adv-x="1140" unicode="ě"/><glyph d="M958 1481l-157 196l-154 -196h-135l190 295h197l197 -295h-138zM84 682q0 315 207 511t510 196q352 0 551 -285l-197 -111q-57 80 -150.5 131.5t-203.5 51.5q-203 0 -337 -139.5t-134 -354.5t134 -355.5t337 -140.5q96 0 183 37t140 86v213h-407v211h647v-512 q-223 -248 -563 -248q-303 0 -510 197t-207 512z" glyph-name="Gcircumflex" horiz-adv-x="1468" unicode="Ĝ"/><glyph d="M758 1139l-158 196l-154 -196h-135l191 295h196l197 -295h-137zM127 -254l100 156q111 -127 314 -127q123 0 208 64.5t85 203.5v119q-127 -164 -318 -164q-195 0 -316.5 135t-121.5 373q0 236 122 372t316.5 136t317.5 -162v137h215v-938q0 -127 -44 -220t-120 -141 t-161 -69.5t-183 -21.5q-252 0 -414 147zM834 322v368q-37 55 -109 94t-145 39q-127 0 -203 -87t-76 -230.5t76 -230.5t203 -87q74 0 145.5 39.5t108.5 94.5z" glyph-name="gcircumflex" horiz-adv-x="1187" unicode="ĝ"/><glyph d="M801 1477q-223 0 -361 180l99 82q98 -135 262 -135t260 135l98 -82q-133 -180 -358 -180zM84 682q0 315 207 511t510 196q352 0 551 -285l-197 -111q-57 80 -150.5 131.5t-203.5 51.5q-203 0 -337 -139.5t-134 -354.5t134 -355.5t337 -140.5q96 0 183 37t140 86v213h-407 v211h647v-512q-223 -248 -563 -248q-303 0 -510 197t-207 512z" glyph-name="Gbreve" horiz-adv-x="1468" unicode="Ğ"/><glyph d="M600 1135q-223 0 -360 180l98 82q98 -135 262 -135t260 135l98 -82q-133 -180 -358 -180zM127 -254l100 156q111 -127 314 -127q123 0 208 64.5t85 203.5v119q-127 -164 -318 -164q-195 0 -316.5 135t-121.5 373q0 236 122 372t316.5 136t317.5 -162v137h215v-938 q0 -127 -44 -220t-120 -141t-161 -69.5t-183 -21.5q-252 0 -414 147zM834 322v368q-37 55 -109 94t-145 39q-127 0 -203 -87t-76 -230.5t76 -230.5t203 -87q74 0 145.5 39.5t108.5 94.5z" glyph-name="gbreve" horiz-adv-x="1187" unicode="ğ"/><glyph d="M680 1616q0 49 36 85t85 36t84 -36t35 -85q0 -51 -35 -86t-84 -35t-85 35t-36 86zM84 682q0 315 207 511t510 196q352 0 551 -285l-197 -111q-57 80 -150.5 131.5t-203.5 51.5q-203 0 -337 -139.5t-134 -354.5t134 -355.5t337 -140.5q96 0 183 37t140 86v213h-407v211 h647v-512q-223 -248 -563 -248q-303 0 -510 197t-207 512z" glyph-name="Gdotaccent" horiz-adv-x="1468" unicode="Ġ"/><glyph d="M479 1274q0 49 36 85t85 36t84 -36t35 -85q0 -51 -35 -86t-84 -35t-85 35t-36 86zM127 -254l100 156q111 -127 314 -127q123 0 208 64.5t85 203.5v119q-127 -164 -318 -164q-195 0 -316.5 135t-121.5 373q0 236 122 372t316.5 136t317.5 -162v137h215v-938 q0 -127 -44 -220t-120 -141t-161 -69.5t-183 -21.5q-252 0 -414 147zM834 322v368q-37 55 -109 94t-145 39q-127 0 -203 -87t-76 -230.5t76 -230.5t203 -87q74 0 145.5 39.5t108.5 94.5z" glyph-name="gdotaccent" horiz-adv-x="1187" unicode="ġ"/><glyph d="M84 682q0 315 207 511t510 196q352 0 551 -285l-197 -111q-57 80 -150.5 131.5t-203.5 51.5q-203 0 -337 -139.5t-134 -354.5t134 -355.5t337 -140.5q96 0 183 37t140 86v213h-407v211h647v-512q-223 -248 -563 -248q-303 0 -510 197t-207 512zM770 -575l-80 63 q43 27 80 76t45 92q-8 -4 -29 -4q-41 0 -69.5 29.5t-28.5 74.5q0 47 33 81t80 34q53 0 91 -41t38 -113q0 -86 -44 -163.5t-116 -128.5z" glyph-name="Gcommaaccent" horiz-adv-x="1468" unicode="Ģ"/><glyph d="M637 1587l80 -63q-43 -27 -81 -74t-42 -88l4 2h8q41 0 76 -32t35 -77q0 -47 -34 -80.5t-83 -33.5q-45 0 -81 34.5t-36 106.5q0 94 42 175t112 130zM127 -254l100 156q111 -127 314 -127q123 0 208 64.5t85 203.5v119q-127 -164 -318 -164q-195 0 -316.5 135t-121.5 373 q0 236 122 372t316.5 136t317.5 -162v137h215v-938q0 -127 -44 -220t-120 -141t-161 -69.5t-183 -21.5q-252 0 -414 147zM834 322v368q-37 55 -109 94t-145 39q-127 0 -203 -87t-76 -230.5t76 -230.5t203 -87q74 0 145.5 39.5t108.5 94.5z" glyph-name="gcommaaccent" horiz-adv-x="1187" unicode="ģ"/><glyph d="M899 1481l-158 196l-153 -196h-135l190 295h197l196 -295h-137zM1096 0v596h-711v-596h-240v1366h240v-559h711v559h239v-1366h-239z" glyph-name="Hcircumflex" horiz-adv-x="1480" unicode="Ĥ"/><glyph d="M739 1481l-157 196l-154 -196h-135l190 295h197l197 -295h-138zM809 0v623q0 109 -52 154.5t-149 45.5q-76 0 -143.5 -39t-110.5 -94v-690h-215v1366h215v-512q55 66 148.5 113t202.5 47q319 0 319 -314v-700h-215z" glyph-name="hcircumflex" horiz-adv-x="1163" unicode="ĥ"/><glyph d="M1505 1143v-127h-151v-1016h-240v596h-711v-596h-239v1016h-146v127h146v223h239v-223h711v223h240v-223h151zM1114 807v209h-711v-209h711z" glyph-name="Hbar" horiz-adv-x="1517" unicode="Ħ"/><glyph d="M711 1014q319 0 319 -314v-700h-215v623q0 109 -52 154.5t-149 45.5q-76 0 -143.5 -39t-110.5 -94v-690h-215v1087h-127v127h127v152h215v-152h310v-127h-310v-233q55 66 148.5 113t202.5 47z" glyph-name="hbar" horiz-adv-x="1169" unicode="ħ"/><glyph d="M229 1571q-49 66 -88 65q-37 0 -61.5 -36.5t-24.5 -110.5h-116q0 127 54 200.5t157 73.5q37 0 68.5 -16t47 -31.5t37.5 -46.5q53 -66 90 -65q84 0 84 147h119q0 -127 -54.5 -200.5t-156.5 -73.5q-37 0 -68.5 15t-48 32.5t-39.5 46.5zM145 0v1366h240v-1366h-240z" glyph-name="Itilde" horiz-adv-x="530" unicode="Ĩ"/><glyph d="M209 1229q-49 66 -88 65q-37 0 -61.5 -36.5t-24.5 -110.5h-117q0 127 54.5 200.5t156.5 73.5q37 0 68.5 -16t47 -31.5t38.5 -46.5q53 -66 90 -65q84 0 84 147h118q0 -127 -54 -200.5t-156 -73.5q-37 0 -69 15t-48 32.5t-39 46.5zM139 0v989h215v-989h-215z" glyph-name="itilde" horiz-adv-x="493" unicode="ĩ"/><glyph d="M-66 1501v127h662v-127h-662zM145 0v1366h240v-1366h-240z" glyph-name="Imacron" horiz-adv-x="530" unicode="Ī"/><glyph d="M-86 1159v127h661v-127h-661zM139 0v989h215v-989h-215z" glyph-name="imacron" horiz-adv-x="493" unicode="ī"/><glyph d="M266 1477q-223 0 -360 180l98 82q98 -135 262 -135t260 135l99 -82q-134 -180 -359 -180zM145 0v1366h240v-1366h-240z" glyph-name="Ibreve" horiz-adv-x="530" unicode="Ĭ"/><glyph d="M246 1135q-223 0 -361 180l99 82q98 -135 262 -135t260 135l98 -82q-133 -180 -358 -180zM139 0v989h215v-989h-215z" glyph-name="ibreve" horiz-adv-x="493" unicode="ĭ"/><glyph d="M385 0q-182 -70 -182 -172q0 -29 21.5 -46.5t49.5 -17.5q33 0 62 15l49 -125q-57 -35 -164 -35q-90 0 -153.5 41t-63.5 117q0 131 219 223h-78v1366h240v-1366z" glyph-name="Iogonek" horiz-adv-x="530" unicode="Į"/><glyph d="M246 1141q-53 0 -93 39t-40 94t40 94t93 39q55 0 94 -39t39 -94t-39 -94t-94 -39zM139 0v989h215v-989q-182 -70 -182 -172q0 -29 21.5 -46.5t50.5 -17.5q33 0 61 15l49 -125q-57 -35 -164 -35q-90 0 -153.5 41t-63.5 117q0 131 220 223h-54z" glyph-name="iogonek" horiz-adv-x="493" unicode="į"/><glyph d="M145 1616q0 49 36 85t85 36t84 -36t35 -85q0 -51 -35 -86t-84 -35t-85 35t-36 86zM145 0v1366h240v-1366h-240z" glyph-name="Idotaccent" horiz-adv-x="530" unicode="İ"/><glyph d="M139 0v989h215v-989h-215z" glyph-name="dotlessi" horiz-adv-x="493" unicode="ı"/><glyph d="M145 0v1366h240v-1366h-240zM547 119l110 182q104 -113 234 -113q111 0 175 68t64 180v930h240v-934q0 -225 -127 -341t-334 -116q-227 1 -362 144z" glyph-name="IJ" horiz-adv-x="1515" unicode="Ĳ"/><glyph d="M246 1141q-53 0 -93 39t-40 94t40 94t93 39q55 0 94 -39t39 -94t-39 -94t-94 -39zM739 1141q-53 0 -93 39t-40 94t40 94t93 39q55 0 94 -39t39 -94t-39 -94t-94 -39zM139 0v989h215v-989h-215zM848 989v-1046q0 -162 -84 -253t-244 -91q-59 0 -110 10l22 178q25 -6 62 -6 q63 0 101 39t38 123v1046h215z" glyph-name="ij" horiz-adv-x="987" unicode="ĳ"/><glyph d="M883 1481l-158 196l-154 -196h-135l191 295h196l197 -295h-137zM16 119l111 182q104 -113 233 -113q111 0 175.5 68t64.5 180v930h240v-934q0 -225 -127 -341t-334 -116q-228 1 -363 144z" glyph-name="Jcircumflex" horiz-adv-x="985" unicode="Ĵ"/><glyph d="M403 1139l-157 196l-154 -196h-135l190 295h197l197 -295h-138zM-84 -391l23 178q25 -6 61 -6q63 0 101 39t38 123v1046h215v-1046q0 -162 -84 -253t-243 -91q-60 0 -111 10z" glyph-name="jcircumflex" horiz-adv-x="493" unicode="ĵ"/><glyph d="M963 0l-459 575l-119 -139v-436h-240v1366h240v-651l535 651h297l-555 -645l595 -721h-294zM612 -575l-80 63q43 27 80 76t45 92q-8 -4 -28 -4q-41 0 -70 29.5t-29 74.5q0 47 33 81t80 34q53 0 91 -41t38 -113q0 -86 -44 -163.5t-116 -128.5z" glyph-name="Kcommaaccent" horiz-adv-x="1271" unicode="Ķ"/><glyph d="M795 0l-303 408l-138 -142v-266h-215v1366h215v-854l437 477h266l-412 -448l420 -541h-270zM512 -575l-80 63q43 27 80 76t45 92q-8 -4 -29 -4q-41 0 -69.5 29.5t-28.5 74.5q0 47 33 81t80 34q53 0 91 -41t38 -113q0 -86 -44 -163.5t-116 -128.5z" glyph-name="kcommaaccent" horiz-adv-x="1077" unicode="ķ"/><glyph d="M795 0l-303 408l-138 -142v-266h-215v989h215v-477l437 477h266l-412 -448l420 -541h-270z" glyph-name="kgreenlandic" horiz-adv-x="1077" unicode="ĸ"/><glyph d="M637 1481h-154l287 295h205zM145 0v1366h240v-1155h602v-211h-842z" glyph-name="Lacute" horiz-adv-x="1058" unicode="Ĺ"/><glyph d="M315 1481h-153l287 295h204zM139 0v1366h215v-1366h-215z" glyph-name="lacute" horiz-adv-x="493" unicode="ĺ"/><glyph d="M145 0v1366h240v-1155h602v-211h-842zM537 -575l-80 63q43 27 79.5 76t45.5 92q-8 -4 -29 -4q-41 0 -69.5 29.5t-28.5 74.5q0 47 32.5 81t79.5 34q53 0 91 -41t38 -113q0 -86 -43.5 -163.5t-115.5 -128.5z" glyph-name="Lcommaaccent" horiz-adv-x="1058" unicode="Ļ"/><glyph d="M139 0v1366h215v-1366h-215zM215 -575l-80 63q43 27 80 76t45 92q-8 -4 -29 -4q-41 0 -69.5 29.5t-28.5 74.5q0 47 33 81t80 34q53 0 91 -41t38 -113q0 -86 -44 -163.5t-116 -128.5z" glyph-name="lcommaaccent" horiz-adv-x="493" unicode="ļ"/><glyph d="M643 946l-80 64q43 27 80 76t45 92q-8 -4 -29 -4q-41 0 -69.5 29.5t-28.5 74.5q0 47 33 81t80 34q53 0 91 -41t38 -113q0 -86 -44 -164t-116 -129zM145 0v1366h240v-1155h602v-211h-842z" glyph-name="Lcaron" horiz-adv-x="1058" unicode="Ľ"/><glyph d="M526 944l-80 64q43 27 80 76t45 92q-8 -4 -28 -5q-41 0 -70 30t-29 75q0 47 33 81t80 34q53 0 91 -41t38 -113q0 -86 -44 -164t-116 -129zM139 0v1366h215v-1366h-215z" glyph-name="lcaron" horiz-adv-x="669" unicode="ľ"/><glyph d="M145 0v1366h240v-1155h602v-211h-842zM788.5 557q-57.5 0 -100.5 42t-43 99q0 59 42 101.5t101.5 42.5t101.5 -42t42 -102q0 -57 -43 -99t-100.5 -42z" glyph-name="Ldot" horiz-adv-x="1058" unicode="Ŀ"/><glyph d="M139 0v1366h215v-1366h-215zM604.5 358q-57.5 0 -100.5 42t-43 99.5t42 100.5t101.5 43t101.5 -43t42 -100.5t-43 -99.5t-100.5 -42z" glyph-name="ldot" horiz-adv-x="718" unicode="ŀ"/><glyph d="M418 211h602v-211h-842v510l-160 -92v198l160 93v657h240v-518l174 100v-198l-174 -101v-438z" glyph-name="Lslash" horiz-adv-x="1091" unicode="Ł"/><glyph d="M592 930v-162l-178 -102v-666h-215v543l-181 -105v162l181 105v661h215v-539z" glyph-name="lslash" horiz-adv-x="612" unicode="ł"/><glyph d="M807 1481h-154l287 295h205zM1098 0l-713 995v-995h-240v1366h246l699 -969v969h239v-1366h-231z" glyph-name="Nacute" horiz-adv-x="1474" unicode="Ń"/><glyph d="M651 1139h-153l286 295h205zM807 0v618q0 205 -199 205q-78 0 -145.5 -39t-108.5 -94v-690h-215v989h215v-135q55 66 147.5 113t200.5 47q158 0 239 -82t81 -236v-696h-215z" glyph-name="nacute" unicode="ń"/><glyph d="M1098 0l-713 995v-995h-240v1366h246l699 -969v969h239v-1366h-231zM707 -575l-80 63q43 27 79.5 76t45.5 92q-8 -4 -29 -4q-41 0 -69.5 29.5t-28.5 74.5q0 47 32.5 81t79.5 34q53 0 91 -41t38 -113q0 -86 -43.5 -163.5t-115.5 -128.5z" glyph-name="Ncommaaccent" horiz-adv-x="1474" unicode="Ņ"/><glyph d="M807 0v618q0 205 -199 205q-78 0 -145.5 -39t-108.5 -94v-690h-215v989h215v-135q55 66 147.5 113t200.5 47q158 0 239 -82t81 -236v-696h-215zM551 -575l-80 63q43 27 80 76t45 92q-8 -4 -29 -4q-41 0 -69.5 29.5t-28.5 74.5q0 47 33 81t80 34q53 0 91 -41t38 -113 q0 -86 -44 -163.5t-116 -128.5z" glyph-name="ncommaaccent" unicode="ņ"/><glyph d="M639 1481l-197 295h136l159 -199l152 199h137l-190 -295h-197zM1098 0l-713 995v-995h-240v1366h246l699 -969v969h239v-1366h-231z" glyph-name="Ncaron" horiz-adv-x="1474" unicode="Ň"/><glyph d="M483 1139l-196 295h135l160 -199l151 199h137l-190 -295h-197zM807 0v618q0 205 -199 205q-78 0 -145.5 -39t-108.5 -94v-690h-215v989h215v-135q55 66 147.5 113t200.5 47q158 0 239 -82t81 -236v-696h-215z" glyph-name="ncaron" unicode="ň"/><glyph d="M186 1100l-80 63q43 27 80 76t45 92q-8 -4 -28 -4q-41 0 -70 29.5t-29 75.5q0 47 33 80.5t80 33.5q53 0 91 -41t38 -112q0 -86 -44 -164t-116 -129zM807 0v618q0 205 -199 205q-78 0 -145.5 -39t-108.5 -94v-690h-215v989h215v-135q55 66 147.5 113t200.5 47 q158 0 239 -82t81 -236v-696h-215z" glyph-name="napostrophe" unicode="ŉ"/><glyph d="M1090 1366h239v-1313q0 -225 -126 -339.5t-335 -114.5q-227 0 -364 143l112 182q100 -113 234 -112q98 0 161.5 55t75.5 149l-702 979v-995h-240v1366h246l699 -969v969z" glyph-name="Eng" horiz-adv-x="1474" unicode="Ŋ"/><glyph d="M1022 -57q0 -162 -84 -253t-244 -91q-59 0 -110 10l22 178q25 -6 62 -6q63 0 101 39t38 123v675q0 205 -199 205q-78 0 -145.5 -39t-108.5 -94v-690h-215v989h215v-135q55 66 147.5 113t200.5 47q158 0 239 -82t81 -236v-753z" glyph-name="eng" unicode="ŋ"/><glyph d="M449 1501v127h661v-127h-661zM84 682q0 307 196.5 507t501.5 200t502 -200t197 -507t-197 -507t-502 -200t-501.5 200t-196.5 507zM1235 682q0 215 -125 354.5t-328 139.5q-205 0 -328.5 -139.5t-123.5 -354.5t124 -354.5t328 -139.5q203 0 328 140.5t125 353.5z" glyph-name="Omacron" horiz-adv-x="1566" unicode="Ō"/><glyph d="M254 1159v127h661v-127h-661zM586 -25q-229 0 -368.5 150.5t-139.5 370t139 369t369 149.5q231 0 370.5 -149.5t139.5 -368.5q0 -221 -139.5 -371t-370.5 -150zM586 166q133 0 209.5 95t76.5 235q0 137 -76.5 232t-209.5 95q-131 0 -208 -95t-77 -232q0 -139 77 -234.5 t208 -95.5z" glyph-name="omacron" horiz-adv-x="1173" unicode="ō"/><glyph d="M780 1477q-223 0 -360 180l98 82q98 -135 262 -135t260 135l99 -82q-134 -180 -359 -180zM84 682q0 307 196.5 507t501.5 200t502 -200t197 -507t-197 -507t-502 -200t-501.5 200t-196.5 507zM1235 682q0 215 -125 354.5t-328 139.5q-205 0 -328.5 -139.5t-123.5 -354.5 t124 -354.5t328 -139.5q203 0 328 140.5t125 353.5z" glyph-name="Obreve" horiz-adv-x="1566" unicode="Ŏ"/><glyph d="M586 1135q-223 0 -361 180l99 82q98 -135 262 -135t260 135l98 -82q-133 -180 -358 -180zM586 -25q-229 0 -368.5 150.5t-139.5 370t139 369t369 149.5q231 0 370.5 -149.5t139.5 -368.5q0 -221 -139.5 -371t-370.5 -150zM586 166q133 0 209.5 95t76.5 235 q0 137 -76.5 232t-209.5 95q-131 0 -208 -95t-77 -232q0 -139 77 -234.5t208 -95.5z" glyph-name="obreve" horiz-adv-x="1173" unicode="ŏ"/><glyph d="M688 1481h-129l184 295h181zM987 1481h-129l184 295h181zM84 682q0 307 196.5 507t501.5 200t502 -200t197 -507t-197 -507t-502 -200t-501.5 200t-196.5 507zM1235 682q0 215 -125 354.5t-328 139.5q-205 0 -328.5 -139.5t-123.5 -354.5t124 -354.5t328 -139.5 q203 0 328 140.5t125 353.5z" glyph-name="Ohungarumlaut" horiz-adv-x="1566" unicode="Ő"/><glyph d="M494 1139h-129l184 295h180zM793 1139h-129l184 295h180zM586 -25q-229 0 -368.5 150.5t-139.5 370t139 369t369 149.5q231 0 370.5 -149.5t139.5 -368.5q0 -221 -139.5 -371t-370.5 -150zM586 166q133 0 209.5 95t76.5 235q0 137 -76.5 232t-209.5 95q-131 0 -208 -95 t-77 -232q0 -139 77 -234.5t208 -95.5z" glyph-name="ohungarumlaut" horiz-adv-x="1173" unicode="ő"/><glyph d="M1204 0v197q-70 -106 -191.5 -164t-252.5 -58q-297 0 -486.5 200t-189.5 507t189.5 505.5t486.5 198.5q131 0 253 -57t191 -162v199h936v-211h-696v-354h682v-211h-682v-379h696v-211h-936zM1204 899q-53 133 -161.5 204t-251.5 71q-211 0 -336 -138.5t-125 -353.5 t126 -354.5t335 -139.5q141 0 250.5 72t162.5 205v434z" glyph-name="OE" horiz-adv-x="2238" unicode="Œ"/><glyph d="M1098 424q12 -117 95 -194.5t218 -77.5q170 0 283 108l98 -141q-154 -143 -401 -144q-264 0 -410 246q-141 -246 -395 -246q-229 0 -368.5 150.5t-139.5 370t139 369t369 149.5q252 0 397 -248q137 248 391 248q219 0 352.5 -150.5t133.5 -388.5v-51h-762zM1653 575 q-6 102 -77 182.5t-204 80.5q-127 0 -198.5 -80t-77.5 -183h557zM586 823q-129 0 -207 -93t-78 -234q0 -143 78 -237.5t207 -94.5q131 0 208.5 94t77.5 238q0 141 -77.5 234t-208.5 93z" glyph-name="oe" horiz-adv-x="1933" unicode="œ"/><glyph d="M713 1481h-154l287 295h205zM926 0l-303 510h-238v-510h-240v1366h600q201 0 324 -119t123 -309q0 -172 -94 -275.5t-230 -125.5l334 -537h-276zM946 938q0 98 -65.5 157.5t-167.5 59.5h-328v-434h328q102 0 167.5 59.5t65.5 157.5z" glyph-name="Racute" horiz-adv-x="1286" unicode="Ŕ"/><glyph d="M469 1139h-154l287 295h205zM139 0v989h215v-145q57 74 143.5 121t178.5 47v-213q-29 6 -68 6q-68 0 -144.5 -40t-109.5 -91v-674h-215z" glyph-name="racute" horiz-adv-x="710" unicode="ŕ"/><glyph d="M926 0l-303 510h-238v-510h-240v1366h600q201 0 324 -119t123 -309q0 -172 -94 -275.5t-230 -125.5l334 -537h-276zM946 938q0 98 -65.5 157.5t-167.5 59.5h-328v-434h328q102 0 167.5 59.5t65.5 157.5zM612 -575l-80 63q43 27 80 76t45 92q-8 -4 -28 -4q-41 0 -70 29.5 t-29 74.5q0 47 33 81t80 34q53 0 91 -41t38 -113q0 -86 -44 -163.5t-116 -128.5z" glyph-name="Rcommaaccent" horiz-adv-x="1286" unicode="Ŗ"/><glyph d="M139 0v989h215v-145q57 74 143.5 121t178.5 47v-213q-29 6 -68 6q-68 0 -144.5 -40t-109.5 -91v-674h-215zM221 -575l-80 63q43 27 80 76t45 92q-8 -4 -28 -4q-41 0 -70 29.5t-29 74.5q0 47 33 81t80 34q53 0 91 -41t38 -113q0 -86 -44 -163.5t-116 -128.5z" glyph-name="rcommaaccent" horiz-adv-x="710" unicode="ŗ"/><glyph d="M545 1481l-197 295h135l160 -199l152 199h137l-191 -295h-196zM926 0l-303 510h-238v-510h-240v1366h600q201 0 324 -119t123 -309q0 -172 -94 -275.5t-230 -125.5l334 -537h-276zM946 938q0 98 -65.5 157.5t-167.5 59.5h-328v-434h328q102 0 167.5 59.5t65.5 157.5z" glyph-name="Rcaron" horiz-adv-x="1286" unicode="Ř"/><glyph d="M301 1139l-197 295h136l159 -199l152 199h137l-190 -295h-197zM139 0v989h215v-145q57 74 143.5 121t178.5 47v-213q-29 6 -68 6q-68 0 -144.5 -40t-109.5 -91v-674h-215z" glyph-name="rcaron" horiz-adv-x="710" unicode="ř"/><glyph d="M668 1481h-154l287 295h205zM57 193l133 184q176 -188 433 -189q137 0 205.5 55.5t68.5 131.5q0 35 -18.5 64.5t-41 47t-72.5 37t-81 28.5t-98 26q-90 23 -139.5 37t-126 47.5t-116.5 71.5t-72 103.5t-32 149.5q0 172 138.5 285.5t359.5 113.5q315 0 512 -190l-137 -178 q-156 156 -395 156q-106 0 -169 -46.5t-63 -123.5q0 -39 21.5 -67t71.5 -50.5t89 -33.5t119 -32q90 -23 140.5 -38t128 -50t118.5 -75t74 -107.5t33 -153.5q0 -184 -133.5 -303t-395.5 -119q-352 1 -555 218z" glyph-name="Sacute" horiz-adv-x="1216" unicode="Ś"/><glyph d="M543 1139h-154l287 295h205zM53 129l99 156q55 -57 149 -98.5t186 -41.5q94 0 144.5 32t50.5 89q0 59 -57.5 89t-167.5 55q-68 14 -106 24t-97 34t-90 53.5t-55.5 78.5t-24.5 113q0 127 104.5 214t284.5 87q227 0 385 -140l-90 -151q-47 53 -125 86t-168 33 q-86 0 -135 -30t-49 -81t53 -77.5t162 -51.5q68 -14 107.5 -24.5t99 -36t92.5 -56t58.5 -83t25.5 -119.5q0 -135 -108.5 -221.5t-303.5 -86.5q-266 0 -424 154z" glyph-name="sacute" horiz-adv-x="966" unicode="ś"/><glyph d="M756 1481l-158 196l-154 -196h-135l191 295h196l197 -295h-137zM57 193l133 184q176 -188 433 -189q137 0 205.5 55.5t68.5 131.5q0 35 -18.5 64.5t-41 47t-72.5 37t-81 28.5t-98 26q-90 23 -139.5 37t-126 47.5t-116.5 71.5t-72 103.5t-32 149.5q0 172 138.5 285.5 t359.5 113.5q315 0 512 -190l-137 -178q-156 156 -395 156q-106 0 -169 -46.5t-63 -123.5q0 -39 21.5 -67t71.5 -50.5t89 -33.5t119 -32q90 -23 140.5 -38t128 -50t118.5 -75t74 -107.5t33 -153.5q0 -184 -133.5 -303t-395.5 -119q-352 1 -555 218z" glyph-name="Scircumflex" horiz-adv-x="1216" unicode="Ŝ"/><glyph d="M631 1139l-158 196l-154 -196h-135l191 295h196l197 -295h-137zM53 129l99 156q55 -57 149 -98.5t186 -41.5q94 0 144.5 32t50.5 89q0 59 -57.5 89t-167.5 55q-68 14 -106 24t-97 34t-90 53.5t-55.5 78.5t-24.5 113q0 127 104.5 214t284.5 87q227 0 385 -140l-90 -151 q-47 53 -125 86t-168 33q-86 0 -135 -30t-49 -81t53 -77.5t162 -51.5q68 -14 107.5 -24.5t99 -36t92.5 -56t58.5 -83t25.5 -119.5q0 -135 -108.5 -221.5t-303.5 -86.5q-266 0 -424 154z" glyph-name="scircumflex" horiz-adv-x="966" unicode="ŝ"/><glyph d="M1141 397q0 -176 -124 -293.5t-366 -128.5l-35 -84q33 23 74 23q59 0 98 -39t39 -98q0 -80 -63.5 -127t-157.5 -47q-137 0 -217 63l45 94q74 -59 166 -59q49 0 82 20.5t33 57.5q0 57 -68 57q-43 0 -69 -31l-84 48l47 124q-305 23 -484 216l133 184q176 -188 433 -189 q137 0 205.5 55.5t68.5 131.5q0 35 -18.5 64.5t-41 47t-72.5 37t-81 28.5t-98 26q-90 23 -139.5 37t-126 47.5t-116.5 71.5t-72 103.5t-32 149.5q0 172 138.5 285.5t359.5 113.5q315 0 512 -190l-137 -178q-156 156 -395 156q-106 0 -169 -46.5t-63 -123.5q0 -39 21.5 -67 t71.5 -50.5t89 -33.5t119 -32q90 -23 140.5 -38t128 -50t118.5 -75t74 -107.5t33 -153.5z" glyph-name="Scedilla" horiz-adv-x="1216" unicode="Ş"/><glyph d="M889 283q0 -127 -95.5 -211t-267.5 -95l-34 -86q33 23 73 23q59 0 98 -39t39 -98q0 -80 -63.5 -127t-157.5 -47q-137 0 -217 63l45 94q74 -59 166 -59q49 0 82 20.5t33 57.5q0 57 -68 57q-43 0 -69 -31l-84 48l47 124q-227 20 -363 152l99 156q55 -57 149 -98.5 t186 -41.5q94 0 144.5 32t50.5 89q0 59 -57.5 89t-167.5 55q-68 14 -106 24t-97 34t-90 53.5t-55.5 78.5t-24.5 113q0 127 104.5 214t284.5 87q227 0 385 -140l-90 -151q-47 53 -125 86t-168 33q-86 0 -135 -30t-49 -81t53 -77.5t162 -51.5q68 -14 107.5 -24.5t99 -36 t92.5 -56t58.5 -82.5t25.5 -120z" glyph-name="scedilla" horiz-adv-x="966" unicode="ş"/><glyph d="M500 1481l-197 295h135l160 -199l152 199h137l-191 -295h-196zM57 193l133 184q176 -188 433 -189q137 0 205.5 55.5t68.5 131.5q0 35 -18.5 64.5t-41 47t-72.5 37t-81 28.5t-98 26q-90 23 -139.5 37t-126 47.5t-116.5 71.5t-72 103.5t-32 149.5q0 172 138.5 285.5 t359.5 113.5q315 0 512 -190l-137 -178q-156 156 -395 156q-106 0 -169 -46.5t-63 -123.5q0 -39 21.5 -67t71.5 -50.5t89 -33.5t119 -32q90 -23 140.5 -38t128 -50t118.5 -75t74 -107.5t33 -153.5q0 -184 -133.5 -303t-395.5 -119q-352 1 -555 218z" glyph-name="Scaron" horiz-adv-x="1216" unicode="Š"/><glyph d="M375 1139l-197 295h135l160 -199l152 199h137l-191 -295h-196zM53 129l99 156q55 -57 149 -98.5t186 -41.5q94 0 144.5 32t50.5 89q0 59 -57.5 89t-167.5 55q-68 14 -106 24t-97 34t-90 53.5t-55.5 78.5t-24.5 113q0 127 104.5 214t284.5 87q227 0 385 -140l-90 -151 q-47 53 -125 86t-168 33q-86 0 -135 -30t-49 -81t53 -77.5t162 -51.5q68 -14 107.5 -24.5t99 -36t92.5 -56t58.5 -83t25.5 -119.5q0 -135 -108.5 -221.5t-303.5 -86.5q-266 0 -424 154z" glyph-name="scaron" horiz-adv-x="966" unicode="š"/><glyph d="M471 0v1155h-414v211h1067v-211h-413v-1155h-240zM561 -575l-80 63q43 27 80 76t45 92q-8 -4 -28 -4q-41 0 -70 29.5t-29 74.5q0 47 33 81t80 34q53 0 91 -41t38 -113q0 -86 -44 -163.5t-116 -128.5z" glyph-name="Tcommaaccent" horiz-adv-x="1181" unicode="Ţ"/><glyph d="M436 -25q-125 0 -189.5 65.5t-64.5 188.5v572h-164v188h164v271h215v-271h201v-188h-201v-518q0 -53 24.5 -85t70.5 -32q66 0 96 35l51 -162q-68 -64 -203 -64zM299 -575l-80 63q43 27 80 76t45 92q-8 -4 -29 -4q-41 0 -69.5 29.5t-28.5 74.5q0 47 33 81t80 34 q53 0 91 -41t38 -113q0 -86 -44 -163.5t-116 -128.5z" glyph-name="tcommaaccent" horiz-adv-x="653" unicode="ţ"/><glyph d="M494 1481l-197 295h135l160 -199l151 199h138l-191 -295h-196zM471 0v1155h-414v211h1067v-211h-413v-1155h-240z" glyph-name="Tcaron" horiz-adv-x="1181" unicode="Ť"/><glyph d="M596 1100l-80 63q43 27 80 76t45 92q-8 -4 -29 -4q-41 0 -69.5 29.5t-28.5 75.5q0 47 33 80.5t80 33.5q53 0 91 -41t38 -112q0 -86 -44 -164t-116 -129zM436 -25q-125 0 -189.5 65.5t-64.5 188.5v572h-164v188h164v271h215v-271h201v-188h-201v-518q0 -53 24.5 -85 t70.5 -32q66 0 96 35l51 -162q-68 -64 -203 -64z" glyph-name="tcaron" horiz-adv-x="718" unicode="ť"/><glyph d="M1124 1155h-413v-463h288v-127h-288v-565h-240v565h-289v127h289v463h-414v211h1067v-211z" glyph-name="Tbar" horiz-adv-x="1181" unicode="Ŧ"/><glyph d="M588 201l51 -162q-68 -63 -203 -64q-125 0 -189.5 65.5t-64.5 188.5v213h-164v127h164v232h-164v188h164v271h215v-271h201v-188h-201v-232h142v-127h-142v-159q0 -53 24.5 -85t70.5 -32q65 0 96 35z" glyph-name="tbar" horiz-adv-x="653" unicode="ŧ"/><glyph d="M700 1571q-49 66 -88 65q-37 0 -61.5 -36.5t-24.5 -110.5h-116q0 127 54 200.5t157 73.5q37 0 68.5 -16t47 -31.5t37.5 -46.5q53 -66 90 -65q84 0 84 147h119q0 -127 -54.5 -200.5t-156.5 -73.5q-37 0 -68.5 15t-48 32.5t-39.5 46.5zM145 539v827h242v-819 q0 -166 91 -262.5t259 -96.5t258 96.5t90 262.5v819h242v-825q0 -262 -150.5 -414t-439.5 -152q-291 0 -441.5 152t-150.5 412z" glyph-name="Utilde" horiz-adv-x="1472" unicode="Ũ"/><glyph d="M543 1229q-49 66 -88 65q-37 0 -61.5 -36.5t-24.5 -110.5h-117q0 127 54 200.5t157 73.5q37 0 68.5 -16t47 -31.5t37.5 -46.5q53 -66 91 -65q84 0 84 147h118q0 -127 -54 -200.5t-157 -73.5q-37 0 -68.5 15t-47.5 32.5t-39 46.5zM807 0v131q-139 -156 -350 -156 q-317 0 -318 314v700h215v-622q0 -109 51.5 -155t147.5 -46q78 0 145.5 37t108.5 92v694h215v-989h-215z" glyph-name="utilde" unicode="ũ"/><glyph d="M406 1501v127h661v-127h-661zM145 539v827h242v-819q0 -166 91 -262.5t259 -96.5t258 96.5t90 262.5v819h242v-825q0 -262 -150.5 -414t-439.5 -152q-291 0 -441.5 152t-150.5 412z" glyph-name="Umacron" horiz-adv-x="1472" unicode="Ū"/><glyph d="M248 1159v127h661v-127h-661zM807 0v131q-139 -156 -350 -156q-317 0 -318 314v700h215v-622q0 -109 51.5 -155t147.5 -46q78 0 145.5 37t108.5 92v694h215v-989h-215z" glyph-name="umacron" unicode="ū"/><glyph d="M737 1477q-223 0 -360 180l98 82q98 -135 262 -135t260 135l99 -82q-134 -180 -359 -180zM145 539v827h242v-819q0 -166 91 -262.5t259 -96.5t258 96.5t90 262.5v819h242v-825q0 -262 -150.5 -414t-439.5 -152q-291 0 -441.5 152t-150.5 412z" glyph-name="Ubreve" horiz-adv-x="1472" unicode="Ŭ"/><glyph d="M580 1135q-223 0 -361 180l98 82q98 -135 262 -135t261 135l98 -82q-133 -180 -358 -180zM807 0v131q-139 -156 -350 -156q-317 0 -318 314v700h215v-622q0 -109 51.5 -155t147.5 -46q78 0 145.5 37t108.5 92v694h215v-989h-215z" glyph-name="ubreve" unicode="ŭ"/><glyph d="M530 1649q0 86 61.5 148.5t147.5 62.5t146.5 -62.5t60.5 -148.5t-60.5 -147.5t-146.5 -61.5t-147.5 61.5t-61.5 147.5zM844 1649q0 45 -30 75.5t-75 30.5q-43 0 -74.5 -30.5t-31.5 -75.5q0 -43 31.5 -75t74.5 -32t74 32t31 75zM145 539v827h242v-819q0 -166 91 -262.5 t259 -96.5t258 96.5t90 262.5v819h242v-825q0 -262 -150.5 -414t-439.5 -152q-291 0 -441.5 152t-150.5 412z" glyph-name="Uring" horiz-adv-x="1472" unicode="Ů"/><glyph d="M373 1307q0 86 61.5 148.5t147.5 62.5t146 -62.5t60 -148.5t-60 -147.5t-146 -61.5t-147.5 61.5t-61.5 147.5zM686 1307q0 45 -29.5 75.5t-74.5 30.5q-43 0 -75 -30.5t-32 -75.5q0 -43 32 -75t75 -32t73.5 32t30.5 75zM807 0v131q-139 -156 -350 -156q-317 0 -318 314 v700h215v-622q0 -109 51.5 -155t147.5 -46q78 0 145.5 37t108.5 92v694h215v-989h-215z" glyph-name="uring" unicode="ů"/><glyph d="M645 1481h-129l184 295h181zM944 1481h-129l184 295h181zM145 539v827h242v-819q0 -166 91 -262.5t259 -96.5t258 96.5t90 262.5v819h242v-825q0 -262 -150.5 -414t-439.5 -152q-291 0 -441.5 152t-150.5 412z" glyph-name="Uhungarumlaut" horiz-adv-x="1472" unicode="Ű"/><glyph d="M487 1139h-129l185 295h180zM786 1139h-129l185 295h180zM807 0v131q-139 -156 -350 -156q-317 0 -318 314v700h215v-622q0 -109 51.5 -155t147.5 -46q78 0 145.5 37t108.5 92v694h215v-989h-215z" glyph-name="uhungarumlaut" unicode="ű"/><glyph d="M145 539v827h242v-819q0 -166 91 -262.5t259 -96.5t258 96.5t90 262.5v819h242v-825q0 -205 -89 -341.5t-259 -189.5q-104 -33 -159.5 -81t-55.5 -101q0 -29 21.5 -46.5t50.5 -17.5q33 0 61 15l49 -125q-57 -35 -164 -35q-90 0 -153.5 41t-63.5 117q0 121 178 198h-6 q-291 0 -441.5 152t-150.5 412z" glyph-name="Uogonek" horiz-adv-x="1472" unicode="Ų"/><glyph d="M1022 0q-182 -70 -182 -172q0 -29 21.5 -46.5t49.5 -17.5q33 0 62 15l49 -125q-57 -35 -164 -35q-90 0 -153.5 41t-63.5 117q0 131 219 223h-53v131q-139 -156 -350 -156q-317 0 -318 314v700h215v-622q0 -109 51.5 -155t147.5 -46q78 0 145.5 37t108.5 92v694h215v-989z " glyph-name="uogonek" unicode="ų"/><glyph d="M1081 1481l-157 196l-154 -196h-135l190 295h197l197 -295h-138zM1190 0l-266 1008l-265 -1008h-256l-391 1366h269l266 -1053l282 1053h191l283 -1053l264 1053h268l-389 -1366h-256z" glyph-name="Wcircumflex" horiz-adv-x="1849" unicode="Ŵ"/><glyph d="M930 1139l-158 196l-154 -196h-135l191 295h196l197 -295h-137zM1001 0l-229 725l-229 -725h-226l-307 989h223l209 -719l236 719h188l236 -719l209 719h223l-307 -989h-226z" glyph-name="wcircumflex" horiz-adv-x="1544" unicode="ŵ"/><glyph d="M811 1481l-158 196l-153 -196h-135l190 295h197l196 -295h-137zM532 0v567l-530 799h274l377 -586l373 586h274l-528 -799v-567h-240z" glyph-name="Ycircumflex" horiz-adv-x="1304" unicode="Ŷ"/><glyph d="M672 1139l-158 196l-154 -196h-135l191 295h196l197 -295h-137zM129 -195q37 -16 82 -16q104 0 141 86l49 113l-405 1001h229l289 -741l289 741h231l-477 -1167q-88 -219 -340 -223q-68 0 -121 14z" glyph-name="ycircumflex" horiz-adv-x="1030" unicode="ŷ"/><glyph d="M440 1497q-51 0 -86 35t-35 86q0 49 35 84t86 35q49 0 84 -35t35 -84q0 -51 -35 -86t-84 -35zM868.5 1497q-49.5 0 -85 35t-35.5 86q0 49 35.5 84t85 35t85 -35t35.5 -84q0 -51 -35.5 -86t-85 -35zM532 0v567l-530 799h274l377 -586l373 586h274l-528 -799v-567h-240z " glyph-name="Ydieresis" horiz-adv-x="1304" unicode="Ÿ"/><glyph d="M674 1481h-154l287 295h205zM90 0v195l698 960h-698v211h1010v-195l-699 -960h713v-211h-1024z" glyph-name="Zacute" horiz-adv-x="1206" unicode="Ź"/><glyph d="M557 1139h-154l287 295h205zM94 0v162l490 639h-490v188h776v-158l-493 -645h502v-186h-785z" glyph-name="zacute" horiz-adv-x="974" unicode="ź"/><glyph d="M483 1616q0 49 36 85t85 36t84 -36t35 -85q0 -51 -35 -86t-84 -35t-85 35t-36 86zM90 0v195l698 960h-698v211h1010v-195l-699 -960h713v-211h-1024z" glyph-name="Zdotaccent" horiz-adv-x="1206" unicode="Ż"/><glyph d="M367 1274q0 49 35.5 85t85 36t84 -36t34.5 -85q0 -51 -34.5 -86t-84 -35t-85 35t-35.5 86zM94 0v162l490 639h-490v188h776v-158l-493 -645h502v-186h-785z" glyph-name="zdotaccent" horiz-adv-x="974" unicode="ż"/><glyph d="M506 1481l-197 295h135l160 -199l152 199h137l-191 -295h-196zM90 0v195l698 960h-698v211h1010v-195l-699 -960h713v-211h-1024z" glyph-name="Zcaron" horiz-adv-x="1206" unicode="Ž"/><glyph d="M389 1139l-196 295h135l159 -199l152 199h137l-190 -295h-197zM94 0v162l490 639h-490v188h776v-158l-493 -645h502v-186h-785z" glyph-name="zcaron" horiz-adv-x="974" unicode="ž"/><glyph d="M190 0v801h-163v188h163v55q0 162 86 252t228 90q104 0 172 -38l-47 -158q-35 20 -86 20q-63 0 -100 -42t-37 -124v-1044h-216z" glyph-name="longs" horiz-adv-x="630" unicode="ſ"/><glyph d="M725 1389q303 0 510 -196t207 -511q0 -313 -199 -511t-487 -198q-322 0 -507.5 209t-185.5 572h1129q-23 188 -152 305t-315 117q-111 0 -204 -51.5t-150 -131.5l-197 111q199 285 551 285zM735 186q166 0 286 97.5t159 259.5h-854q27 -156 134 -256.5t275 -100.5z" glyph-name="uni018F" horiz-adv-x="1525" unicode="Ə"/><glyph d="M31 -330l184 832h-123v190h164l82 373q33 145 138.5 233t246.5 88t221 -81l-96 -175q-39 45 -98 46q-63 0 -111.5 -43t-65.5 -117l-73 -324h256v-190h-297l-185 -832h-243z" glyph-name="florin" horiz-adv-x="909" unicode="ƒ"/><glyph d="M1090 1366h239v-1366h-231l-713 995v-940q0 -225 -127 -340.5t-334 -115.5q-59 0 -102 8l14 213q33 -8 70 -8q111 0 175 67.5t64 179.5v1307h246l699 -969v969z" glyph-name="uni019D" horiz-adv-x="1474" unicode="Ɲ"/><glyph d="M1499 1362q0 -162 -139 -266q121 -178 121 -414q0 -307 -197 -507t-502 -200t-501.5 200t-196.5 507t196.5 507t501.5 200q324 0 523 -222q78 61 92 140q-8 -4 -27 -4q-39 0 -64.5 27.5t-25.5 68.5q0 43 29.5 73.5t72.5 30.5q49 0 83 -37.5t34 -103.5zM782 188 q203 0 328 140.5t125 353.5q0 215 -125 354.5t-328 139.5q-205 0 -328.5 -139.5t-123.5 -354.5t123.5 -354.5t328.5 -139.5z" glyph-name="Ohorn" horiz-adv-x="1566" unicode="Ơ"/><glyph d="M1108 1087q0 -150 -125 -253q113 -137 113 -338q0 -221 -139.5 -371t-370.5 -150q-229 0 -368.5 150.5t-139.5 370t139 369t369 149.5q199 0 334 -115q74 63 86 135q-8 -4 -27 -4q-39 0 -64.5 26.5t-25.5 69.5q0 41 29.5 72t72.5 31q49 0 83 -38t34 -104zM586 166 q133 0 209.5 95t76.5 235q0 137 -76.5 232t-209.5 95q-131 0 -208 -95t-77 -232q0 -139 77 -234.5t208 -95.5z" glyph-name="ohorn" horiz-adv-x="1173" unicode="ơ"/><glyph d="M1556 1489q0 -96 -60 -183t-169 -135v-630q0 -262 -150.5 -414t-439.5 -152q-291 0 -441.5 152t-150.5 412v827h242v-819q0 -166 91 -262.5t259 -96.5t258 96.5t90 262.5v819h242v-98q49 29 85 75t42 93q-8 -4 -27 -4q-39 0 -64.5 26.5t-25.5 69.5q0 41 30 71.5t73 30.5 q49 0 82.5 -37.5t33.5 -103.5z" glyph-name="Uhorn" horiz-adv-x="1472" unicode="Ư"/><glyph d="M1200 1108q0 -82 -47 -160t-131 -129v-819h-215v131q-139 -156 -350 -156q-317 0 -318 314v700h215v-622q0 -109 51.5 -155t147.5 -46q78 0 145.5 37t108.5 92v694h215v-63q68 63 74 129q-4 -4 -25 -4q-41 0 -66.5 26.5t-25.5 69.5q0 41 29.5 71.5t72.5 30.5 q49 0 84 -37.5t35 -103.5z" glyph-name="uhorn" unicode="ư"/><glyph d="M702 1481l-196 295h135l160 -199l151 199h138l-191 -295h-197zM84 682q0 315 207 511t510 196q352 0 551 -285l-197 -111q-57 80 -150.5 131.5t-203.5 51.5q-203 0 -337 -139.5t-134 -354.5t134 -355.5t337 -140.5q96 0 183 37t140 86v213h-407v211h647v-512 q-223 -248 -563 -248q-303 0 -510 197t-207 512z" glyph-name="Gcaron" horiz-adv-x="1468" unicode="Ǧ"/><glyph d="M502 1139l-197 295h135l160 -199l152 199h137l-191 -295h-196zM127 -254l100 156q111 -127 314 -127q123 0 208 64.5t85 203.5v119q-127 -164 -318 -164q-195 0 -316.5 135t-121.5 373q0 236 122 372t316.5 136t317.5 -162v137h215v-938q0 -127 -44 -220t-120 -141 t-161 -69.5t-183 -21.5q-252 0 -414 147zM834 322v368q-37 55 -109 94t-145 39q-127 0 -203 -87t-76 -230.5t76 -230.5t203 -87q74 0 145.5 39.5t108.5 94.5z" glyph-name="gcaron" horiz-adv-x="1187" unicode="ǧ"/><glyph d="M952 -6q-166 -66 -166 -166q0 -29 21.5 -46.5t50.5 -17.5q33 0 62 15l49 -125q-57 -35 -164 -35q-90 0 -153.5 41t-63.5 117q0 113 168 198q-295 8 -483.5 207t-188.5 500q0 307 196.5 507t501.5 200t502 -200t197 -507q0 -260 -144.5 -447.5t-384.5 -240.5zM330 682 q0 -215 124 -354.5t328 -139.5q203 0 328 140.5t125 353.5q0 215 -125 354.5t-328 139.5q-205 0 -328.5 -139.5t-123.5 -354.5z" glyph-name="uni01EA" horiz-adv-x="1566" unicode="Ǫ"/><glyph d="M731 -6q-166 -68 -166 -166q0 -29 21.5 -46.5t50.5 -17.5q33 0 61 15l50 -125q-57 -35 -164 -35q-90 0 -153.5 41t-63.5 117q0 111 172 200q-211 16 -336 163t-125 356q0 219 139 368.5t369 149.5q231 0 370.5 -149.5t139.5 -368.5q0 -182 -97.5 -320.5t-267.5 -181.5z M301 496q0 -139 77 -234.5t208 -95.5q133 0 209.5 95t76.5 235q0 137 -76.5 232t-209.5 95q-131 0 -208 -95t-77 -232z" glyph-name="uni01EB" horiz-adv-x="1173" unicode="ǫ"/><glyph d="M758 1915h-154l287 295h205zM481 1649q0 86 61.5 148.5t147.5 62.5t146.5 -62.5t60.5 -148.5t-60.5 -147.5t-146.5 -61.5t-147.5 61.5t-61.5 147.5zM795 1649q0 45 -30 75.5t-75 30.5q-43 0 -74.5 -30.5t-31.5 -75.5q0 -43 31.5 -75t74.5 -32t74 32t31 75zM1112 0 l-100 262h-647l-101 -262h-262l537 1366h299l536 -1366h-262zM688 1163l-256 -690h512z" glyph-name="Aringacute" horiz-adv-x="1378" unicode="Ǻ"/><glyph d="M618 1573h-153l287 295h204zM342 1307q0 86 61.5 148.5t147.5 62.5t146.5 -62.5t60.5 -148.5t-60.5 -147.5t-146.5 -61.5t-147.5 61.5t-61.5 147.5zM655 1307q0 45 -29.5 75.5t-74.5 30.5q-43 0 -75 -30.5t-32 -75.5q0 -43 32 -75t75 -32t73.5 32t30.5 75zM743 0v106 q-115 -131 -319 -131q-135 0 -239.5 87.5t-104.5 240.5q0 158 103.5 240t240.5 82q211 0 319 -127v147q0 86 -63.5 135t-167.5 49q-166 0 -293 -124l-88 149q168 160 416 160q182 0 296.5 -86t114.5 -273v-655h-215zM743 225v150q-74 102 -235 102q-92 0 -151.5 -49 t-59.5 -129t59.5 -128t151.5 -48q161 0 235 102z" glyph-name="aringacute" horiz-adv-x="1097" unicode="ǻ"/><glyph d="M1118 1481h-153l286 295h205zM932 0v262h-516l-158 -262h-262l840 1366h1032v-211h-697v-354h682v-211h-682v-379h697v-211h-936zM932 1165l-402 -692h402v692z" glyph-name="AEacute" horiz-adv-x="1964" unicode="Ǽ"/><glyph d="M973 1139h-154l287 295h205zM1006 424q12 -117 88.5 -192.5t201.5 -75.5q70 0 141.5 28.5t118.5 79.5l99 -145q-72 -68 -172.5 -106t-196.5 -38q-270 0 -389 201q-59 -90 -171 -145.5t-245 -55.5q-168 0 -284.5 85t-116.5 241q0 154 104.5 239t257.5 85q225 0 349 -123 v145q0 84 -70 133t-182 49q-182 0 -320 -124l-88 149q172 160 426 160q281 0 356 -191q131 190 363 191q205 0 326.5 -150.5t121.5 -388.5v-51h-718zM1516 575q-4 102 -69 182.5t-187 80.5q-117 0 -183.5 -80t-72.5 -183h512zM791 373q-92 104 -263 104q-102 0 -166.5 -42 t-64.5 -119.5t63.5 -118.5t168 -41t183.5 64.5t79 137.5v15z" glyph-name="aeacute" horiz-adv-x="1798" unicode="ǽ"/><glyph d="M1151 1776l-338 -295h-154l287 295h205zM1249 1223q231 -203 232 -541q0 -307 -197 -507t-502 -200q-201 0 -366 95l-51 -70h-179l113 156q-215 203 -215 526q0 307 196.5 507t501.5 200q190 0 348 -84l46 61h178zM330 682q0 -201 108 -334l561 774q-94 53 -217 54 q-205 0 -328.5 -139.5t-123.5 -354.5zM782 188q203 0 328 140.5t125 353.5t-123 352l-565 -782q102 -64 235 -64z" glyph-name="Oslashacute" horiz-adv-x="1566" unicode="Ǿ"/><glyph d="M993 1434l-338 -295h-153l286 295h205zM956 864q139 -145 140 -368q0 -221 -139.5 -371t-370.5 -150q-172 0 -293 86l-51 -61h-140l109 131q-133 145 -133 364.5t139 369t369 149.5q166 0 286 -80l46 55h141zM301 496q0 -111 49 -195l393 475q-66 47 -157 47 q-131 0 -208 -95t-77 -232zM586 166q133 0 209.5 95t76.5 235q0 117 -55 202l-395 -479q70 -53 164 -53z" glyph-name="oslashacute" horiz-adv-x="1173" unicode="ǿ"/><glyph d="M57 193l133 184q176 -188 433 -189q137 0 205.5 55.5t68.5 131.5q0 35 -18.5 64.5t-41 47t-72.5 37t-81 28.5t-98 26q-90 23 -139.5 37t-126 47.5t-116.5 71.5t-72 103.5t-32 149.5q0 172 138.5 285.5t359.5 113.5q315 0 512 -190l-137 -178q-156 156 -395 156 q-106 0 -169 -46.5t-63 -123.5q0 -39 21.5 -67t71.5 -50.5t89 -33.5t119 -32q90 -23 140.5 -38t128 -50t118.5 -75t74 -107.5t33 -153.5q0 -184 -133.5 -303t-395.5 -119q-352 1 -555 218zM567 -575l-80 63q43 27 80 76t45 92q-8 -4 -28 -4q-41 0 -70 29.5t-29 74.5 q0 47 33 81t80 34q53 0 91 -41t38 -113q0 -86 -44 -163.5t-116 -128.5z" glyph-name="Scommaaccent" horiz-adv-x="1216" unicode="Ș"/><glyph d="M53 129l99 156q55 -57 149 -98.5t186 -41.5q94 0 144.5 32t50.5 89q0 59 -57.5 89t-167.5 55q-68 14 -106 24t-97 34t-90 53.5t-55.5 78.5t-24.5 113q0 127 104.5 214t284.5 87q227 0 385 -140l-90 -151q-47 53 -125 86t-168 33q-86 0 -135 -30t-49 -81t53 -77.5 t162 -51.5q68 -14 107.5 -24.5t99 -36t92.5 -56t58.5 -83t25.5 -119.5q0 -135 -108.5 -221.5t-303.5 -86.5q-266 0 -424 154zM442 -575l-80 63q43 27 80 76t45 92q-8 -4 -28 -4q-41 0 -70 29.5t-29 74.5q0 47 33 81t80 34q53 0 91 -41t38 -113q0 -86 -44 -163.5t-116 -128.5 z" glyph-name="scommaaccent" horiz-adv-x="966" unicode="ș"/><glyph d="M471 0v1155h-414v211h1067v-211h-413v-1155h-240zM561 -575l-80 63q43 27 80 76t45 92q-8 -4 -28 -4q-41 0 -70 29.5t-29 74.5q0 47 33 81t80 34q53 0 91 -41t38 -113q0 -86 -44 -163.5t-116 -128.5z" glyph-name="uni021A" horiz-adv-x="1181" unicode="Ț"/><glyph d="M436 -25q-125 0 -189.5 65.5t-64.5 188.5v572h-164v188h164v271h215v-271h201v-188h-201v-518q0 -53 24.5 -85t70.5 -32q66 0 96 35l51 -162q-68 -64 -203 -64zM299 -575l-80 63q43 27 80 76t45 92q-8 -4 -29 -4q-41 0 -69.5 29.5t-28.5 74.5q0 47 33 81t80 34 q53 0 91 -41t38 -113q0 -86 -44 -163.5t-116 -128.5z" glyph-name="uni021B" horiz-adv-x="653" unicode="ț"/><glyph d="M322 1501v127h661v-127h-661zM532 0v567l-530 799h274l377 -586l373 586h274l-528 -799v-567h-240z" glyph-name="uni0232" horiz-adv-x="1304" unicode="Ȳ"/><glyph d="M182 1159v127h662v-127h-662zM129 -195q37 -16 82 -16q104 0 141 86l49 113l-405 1001h229l289 -741l289 741h231l-477 -1167q-88 -219 -340 -223q-68 0 -121 14z" glyph-name="uni0233" horiz-adv-x="1030" unicode="ȳ"/><glyph d="M-84 -391l23 178q25 -6 61 -6q63 0 101 39t38 123v1046h215v-1046q0 -162 -84 -253t-243 -91q-60 0 -111 10z" glyph-name="uni0237" horiz-adv-x="493" unicode="ȷ"/><glyph d="M1063 494q0 -217 -142.5 -368t-359.5 -151q-219 0 -353 152t-134 387v51h764q-12 117 -96.5 195t-219.5 78q-76 0 -152.5 -29t-127.5 -80l-99 141q150 143 402 144q225 0 371.5 -144.5t146.5 -375.5zM561 152q127 0 198.5 78.5t80.5 183.5h-557q4 -102 74.5 -182 t203.5 -80z" glyph-name="uni0259" horiz-adv-x="1140" unicode="ə"/><glyph d="M702 1014q158 0 239 -82t81 -236v-696h-215v618q0 205 -199 205q-78 0 -145.5 -39t-108.5 -94v-747q0 -162 -84 -253t-243 -91q-59 0 -111 10l23 178q25 -6 61 -6q63 0 101 39t38 123v1046h215v-135q55 66 147 113t201 47z" glyph-name="uni0272" unicode="ɲ"/><glyph d="M559 668v397q0 129 -129 129q-94 0 -162 -80v-446h-157v888h157v-331q90 102 234 102q217 0 217 -215v-444h-160z" glyph-name="uni02B0" horiz-adv-x="829" unicode="ʰ"/><glyph d="M213 850l-96 80q51 31 94 86t53 106q-18 -6 -35 -6q-53 0 -88 36t-35 93.5t41 99t99 41.5q66 0 113 -50t47 -136q0 -102 -52.5 -195.5t-140.5 -154.5z" glyph-name="afii57929" horiz-adv-x="499" unicode="ʼ"/><glyph d="M446 1139l-157 196l-154 -196h-135l190 295h197l197 -295h-138z" glyph-name="circumflex" horiz-adv-x="583" unicode="ˆ"/><glyph d="M197 1139l-197 295h135l160 -199l151 199h138l-191 -295h-196z" glyph-name="caron" horiz-adv-x="583" unicode="ˇ"/><glyph d="M41 1210v127h661v-127h-661z" glyph-name="uni02C9" horiz-adv-x="743" unicode="ˉ"/><glyph d="M338 1139l-338 295h205l287 -295h-154z" glyph-name="uni02CB" horiz-adv-x="491" unicode="ˋ"/><glyph d="M360 1135q-223 0 -360 180l98 82q98 -135 262 -135t261 135l98 -82q-134 -180 -359 -180z" glyph-name="breve" horiz-adv-x="718" unicode="˘"/><glyph d="M31 1274q0 49 35.5 85t85 36t84 -36t34.5 -85q0 -51 -34.5 -86t-84 -35t-85 35t-35.5 86z" glyph-name="dotaccent" horiz-adv-x="301" unicode="˙"/><glyph d="M41 1307q0 86 61.5 148.5t147.5 62.5t146.5 -62.5t60.5 -148.5t-60.5 -147.5t-146.5 -61.5t-147.5 61.5t-61.5 147.5zM354 1307q0 45 -29.5 75.5t-74.5 30.5q-43 0 -75 -30.5t-32 -75.5q0 -43 32 -75t75 -32t73.5 32t30.5 75z" glyph-name="ring" horiz-adv-x="497" unicode="˚"/><glyph d="M401 -346q-57 -35 -163 -35q-90 0 -154 41t-64 117q0 141 256 237l125 -14q-182 -70 -182 -172q0 -29 21.5 -46.5t50.5 -17.5q33 0 61 15z" glyph-name="ogonek" horiz-adv-x="421" unicode="˛"/><glyph d="M291 1229q-49 66 -88 65q-37 0 -61.5 -36.5t-24.5 -110.5h-117q0 127 54.5 200.5t156.5 73.5q37 0 68.5 -16t47 -31.5t38.5 -46.5q53 -66 90 -65q84 0 84 147h118q0 -127 -54 -200.5t-157 -73.5q-37 0 -68.5 15t-47.5 32.5t-39 46.5z" glyph-name="tilde" horiz-adv-x="657" unicode="˜"/><glyph d="M129 1139h-129l184 295h181zM428 1139h-129l184 295h181z" glyph-name="hungarumlaut" horiz-adv-x="663" unicode="˝"/><glyph d="M-154 1139l-338 295h205l287 -295h-154z" glyph-name="gravecomb" horiz-adv-x="0" unicode="̀"/><glyph d="M-338 1139h-154l287 295h205z" glyph-name="acutecomb" horiz-adv-x="0" unicode="́"/><glyph d="M-137 1139l-158 196l-154 -196h-135l191 295h196l197 -295h-137z" glyph-name="uni0302" horiz-adv-x="0" unicode="̂"/><glyph d="M-367 1229q-49 66 -88 65q-37 0 -61.5 -36.5t-24.5 -110.5h-116q0 127 54 200.5t157 73.5q37 0 68.5 -16t47 -31.5t37.5 -46.5q53 -66 90 -65q84 0 84 147h119q0 -127 -54.5 -200.5t-156.5 -73.5q-37 0 -68.5 15t-48 32.5t-39.5 46.5z" glyph-name="tildecomb" horiz-adv-x="0" unicode="̃"/><glyph d="M-702 1159v127h661v-127h-661z" glyph-name="uni0304" horiz-adv-x="0" unicode="̄"/><glyph d="M-358 1135q-223 0 -361 180l98 82q98 -135 262 -135t261 135l98 -82q-133 -180 -358 -180z" glyph-name="uni0306" horiz-adv-x="0" unicode="̆"/><glyph d="M-270 1274q0 49 35.5 85t85 36t84 -36t34.5 -85q0 -51 -34.5 -86t-84 -35t-85 35t-35.5 86z" glyph-name="uni0307" horiz-adv-x="0" unicode="̇"/><glyph d="M-643 1155q-51 0 -86 35t-35 86q0 49 35 84t86 35q49 0 84 -35t35 -84q0 -51 -35 -86t-84 -35zM-215 1155q-49 0 -85 35t-36 86q0 49 36 84t85 35t85 -35t36 -84q0 -51 -36 -86t-85 -35z" glyph-name="uni0308" horiz-adv-x="0" unicode="̈"/><glyph d="M-401 1319q51 147 204 147q86 0 143.5 -47t57.5 -141q0 -66 -45 -137h-127q55 61 55 133q0 45 -23.5 68.5t-60.5 23.5q-70 0 -98 -80z" glyph-name="hookabovecomb" horiz-adv-x="0" unicode="̉"/><glyph d="M-457 1307q0 86 61.5 148.5t147.5 62.5t146.5 -62.5t60.5 -148.5t-60.5 -147.5t-146.5 -61.5t-147.5 61.5t-61.5 147.5zM-143 1307q0 45 -30 75.5t-75 30.5q-43 0 -74.5 -30.5t-31.5 -75.5q0 -43 31.5 -75t74.5 -32t74 32t31 75z" glyph-name="uni030A" horiz-adv-x="0" unicode="̊"/><glyph d="M-535 1139h-129l185 295h180zM-236 1139h-129l185 295h180z" glyph-name="uni030B" horiz-adv-x="0" unicode="̋"/><glyph d="M-387 1139l-197 295h135l160 -199l152 199h137l-190 -295h-197z" glyph-name="uni030C" horiz-adv-x="0" unicode="̌"/><glyph d="M-283 -575l-79 63q43 27 79.5 76t44.5 92q-8 -4 -28 -4q-41 0 -70 29.5t-29 74.5q0 47 33 81t80 34q53 0 91 -41t38 -113q0 -86 -44 -163.5t-116 -128.5z" glyph-name="uni0326" horiz-adv-x="0" unicode="̦"/><glyph d="M-438 -334l45 94q74 -59 166 -59q49 0 81.5 20.5t32.5 57.5q0 57 -67 57q-43 0 -70 -31l-84 48l64 170h112l-53 -132q33 23 74 23q59 0 98 -39t39 -98q0 -80 -63.5 -127t-157.5 -47q-137 0 -217 63z" glyph-name="uni0327" horiz-adv-x="0" unicode="̧"/><glyph d="M-20 -346q-57 -35 -164 -35q-90 0 -153.5 41t-63.5 117q0 141 256 237l125 -14q-182 -70 -183 -172q0 -29 21.5 -46.5t50.5 -17.5q33 0 61 15z" glyph-name="uni0328" horiz-adv-x="0" unicode="̨"/><glyph d="M250 717q-57 0 -100.5 43t-43.5 100.5t43.5 100.5t100.5 43t100 -43t43 -100.5t-43 -100.5t-100 -43zM213 -272l-96 79q51 31 94 86.5t53 106.5q-18 -6 -35 -6q-53 0 -88 36t-35 93t41 99t99 42q66 0 113 -50t47 -136q0 -102 -52.5 -195.5t-140.5 -154.5z" glyph-name="uni037E" horiz-adv-x="501" unicode=";"/><glyph d="M20 1174l41 423h191l-133 -423h-99z" glyph-name="tonos" horiz-adv-x="272" unicode="΄"/><glyph d="M352 1174l41 423h191l-131 -423h-101zM141 1155q-51 0 -86 35t-35 86q0 49 35 84t86 35q49 0 84 -35t35 -84q0 -51 -35 -86t-84 -35zM727 1155q-49 0 -84 35t-35 86q0 49 35 84t84 35q51 0 86 -35t35 -84q0 -51 -35 -86t-86 -35z" glyph-name="dieresistonos" horiz-adv-x="868" unicode="΅"/><glyph d="M233 1174l41 423h191l-133 -423h-99zM1112 0l-100 262h-647l-101 -262h-262l537 1366h299l536 -1366h-262zM688 1163l-256 -690h512z" glyph-name="Alphatonos" horiz-adv-x="1378" unicode="Ά"/><glyph d="M-33 1174l41 423h191l-133 -423h-99zM211 0v1366h936v-211h-696v-354h682v-211h-682v-379h696v-211h-936z" glyph-name="Epsilontonos" horiz-adv-x="1247" unicode="Έ"/><glyph d="M-33 1174l41 423h191l-133 -423h-99zM1161 0v596h-710v-596h-240v1366h240v-559h710v559h240v-1366h-240z" glyph-name="Etatonos" horiz-adv-x="1546" unicode="Ή"/><glyph d="M-33 1174l41 423h191l-133 -423h-99zM211 0v1366h240v-1366h-240z" glyph-name="Iotatonos" horiz-adv-x="595" unicode="Ί"/><glyph d="M-33 1174l41 423h191l-133 -423h-99zM47 682q0 307 196.5 507t502 200t502 -200t196.5 -507t-196.5 -507t-502 -200t-502 200t-196.5 507zM1198 682q0 215 -125 354.5t-328 139.5q-205 0 -328.5 -139.5t-123.5 -354.5t124 -354.5t328 -139.5q203 0 328 140.5t125 353.5z " glyph-name="Omicrontonos" horiz-adv-x="1529" unicode="Ό"/><glyph d="M-33 1174l41 423h191l-133 -423h-99zM680 0v567l-530 799h274l377 -586l373 586h274l-528 -799v-567h-240z" glyph-name="Upsilontonos" horiz-adv-x="1452" unicode="Ύ"/><glyph d="M4 1174l41 423h191l-134 -423h-98zM379 211q-131 84 -213 216t-82 306q0 291 195.5 473.5t502.5 182.5q309 0 504 -181.5t195 -474.5q0 -336 -291 -522h256v-211h-526v211q135 37 225 165t90 308q0 203 -118 346.5t-335 143.5t-334.5 -143.5t-117.5 -346.5 q0 -180 90 -308t227 -165v-211h-526v211h258z" glyph-name="Omegatonos" horiz-adv-x="1566" unicode="Ώ"/><glyph d="M199 1174l41 423h190l-131 -423h-100zM-12 1155q-51 0 -86 35t-35 86q0 49 35 84t86 35q49 0 83.5 -35t34.5 -84q0 -51 -34.5 -86t-83.5 -35zM573 1155q-49 0 -83.5 35t-34.5 86q0 49 34.5 84t83.5 35q51 0 86 -35t35 -84q0 -51 -35 -86t-86 -35zM139 229v760h215v-721 q0 -47 23.5 -74.5t64.5 -27.5q18 0 39 4l15 -182q-41 -12 -103 -13q-254 0 -254 254z" glyph-name="iotadieresistonos" horiz-adv-x="522" unicode="ΐ"/><glyph d="M1112 0l-100 262h-647l-101 -262h-262l537 1366h299l536 -1366h-262zM688 1163l-256 -690h512z" glyph-name="Alpha" horiz-adv-x="1378" unicode="Α"/><glyph d="M145 0v1366h672q182 0 285.5 -99.5t103.5 -248.5q0 -123 -68.5 -208t-168.5 -105q111 -16 187.5 -113.5t76.5 -222.5q0 -164 -105.5 -266.5t-291.5 -102.5h-691zM385 801h383q90 0 141.5 49t51.5 127q0 80 -51.5 129t-141.5 49h-383v-354zM385 211h393q98 0 153.5 50 t55.5 140q0 80 -55 134.5t-154 54.5h-393v-379z" glyph-name="Beta" horiz-adv-x="1327" unicode="Β"/><glyph d="M145 0v1366h936v-211h-696v-1155h-240z" glyph-name="Gamma" horiz-adv-x="1150" unicode="Γ"/><glyph d="M2 0l537 1366h299l536 -1366h-1372zM688 1124l-346 -913h694z" glyph-name="Delta" horiz-adv-x="1378" unicode="Δ"/><glyph d="M145 0v1366h936v-211h-696v-354h682v-211h-682v-379h696v-211h-936z" glyph-name="Epsilon" horiz-adv-x="1181" unicode="Ε"/><glyph d="M90 0v195l698 960h-698v211h1010v-195l-699 -960h713v-211h-1024z" glyph-name="Zeta" horiz-adv-x="1206" unicode="Ζ"/><glyph d="M1096 0v596h-711v-596h-240v1366h240v-559h711v559h239v-1366h-239z" glyph-name="Eta" horiz-adv-x="1480" unicode="Η"/><glyph d="M84 682q0 307 196.5 507t501.5 200t502 -200t197 -507t-197 -507t-502 -200t-501.5 200t-196.5 507zM1235 682q0 215 -125 354.5t-328 139.5q-205 0 -328.5 -139.5t-123.5 -354.5t124 -354.5t328 -139.5q203 0 328 140.5t125 353.5zM440 590v211h686v-211h-686z" glyph-name="Theta" horiz-adv-x="1566" unicode="Θ"/><glyph d="M145 0v1366h240v-1366h-240z" glyph-name="Iota" horiz-adv-x="530" unicode="Ι"/><glyph d="M963 0l-459 575l-119 -139v-436h-240v1366h240v-651l535 651h297l-555 -645l595 -721h-294z" glyph-name="Kappa" horiz-adv-x="1271" unicode="Κ"/><glyph d="M1102 0l-414 1124l-414 -1124h-272l537 1366h299l536 -1366h-272z" glyph-name="Lambda" horiz-adv-x="1378" unicode="Λ"/><glyph d="M1325 0v1034l-420 -1034h-102l-418 1034v-1034h-240v1366h338l371 -920l373 920h338v-1366h-240z" glyph-name="Mu" horiz-adv-x="1710" unicode="Μ"/><glyph d="M1098 0l-713 995v-995h-240v1366h246l699 -969v969h239v-1366h-231z" glyph-name="Nu" horiz-adv-x="1474" unicode="Ν"/><glyph d="M100 1155v211h1067v-211h-1067zM115 590v211h1040v-211h-1040zM100 0v211h1067v-211h-1067z" glyph-name="Xi" horiz-adv-x="1269" unicode="Ξ"/><glyph d="M84 682q0 307 196.5 507t501.5 200t502 -200t197 -507t-197 -507t-502 -200t-501.5 200t-196.5 507zM1235 682q0 215 -125 354.5t-328 139.5q-205 0 -328.5 -139.5t-123.5 -354.5t124 -354.5t328 -139.5q203 0 328 140.5t125 353.5z" glyph-name="Omicron" horiz-adv-x="1566" unicode="Ο"/><glyph d="M1096 0v1155h-711v-1155h-240v1366h1190v-1366h-239z" glyph-name="Pi" horiz-adv-x="1480" unicode="Π"/><glyph d="M145 0v1366h600q207 0 327 -123t120 -305q0 -180 -120 -304t-327 -124h-360v-510h-240zM946 938q0 98 -65.5 157.5t-167.5 59.5h-328v-434h328q102 0 167.5 59.5t65.5 157.5z" glyph-name="Rho" horiz-adv-x="1245" unicode="Ρ"/><glyph d="M389 211h701v-211h-990v211l441 487l-439 457v211h988v-211h-691l435 -455z" glyph-name="Sigma" horiz-adv-x="1189" unicode="Σ"/><glyph d="M471 0v1155h-414v211h1067v-211h-413v-1155h-240z" glyph-name="Tau" horiz-adv-x="1181" unicode="Τ"/><glyph d="M532 0v567l-530 799h274l377 -586l373 586h274l-528 -799v-567h-240z" glyph-name="Upsilon" horiz-adv-x="1304" unicode="Υ"/><glyph d="M1622 682q0 -233 -172 -377.5t-477 -169.5v-135h-240v135q-305 25 -477 169.5t-172 377.5q0 231 172 376.5t477 170.5v137h240v-137q305 -25 477 -169.5t172 -377.5zM330 682q0 -135 104.5 -223t298.5 -109v664q-195 -20 -299 -108.5t-104 -223.5zM973 350 q195 20 299 108.5t104 223.5t-104.5 223t-298.5 109v-664z" glyph-name="Phi" horiz-adv-x="1708" unicode="Φ"/><glyph d="M1059 0l-383 535l-383 -535h-287l512 700l-481 666h287l352 -502l350 502h289l-479 -664l510 -702h-287z" glyph-name="Chi" horiz-adv-x="1353" unicode="Χ"/><glyph d="M1323 1366h244v-547q0 -238 -149.5 -386t-440.5 -173v-260h-240v258q-291 27 -441.5 175.5t-150.5 383.5v549h242v-541q0 -147 89 -237t261 -113v891h240v-891q170 23 258 113t88 237v541z" glyph-name="Psi" horiz-adv-x="1712" unicode="Ψ"/><glyph d="M379 211q-131 84 -213 216t-82 306q0 291 195.5 473.5t502.5 182.5q309 0 504 -181.5t195 -474.5q0 -336 -291 -522h256v-211h-526v211q135 37 225 165t90 308q0 203 -118 346.5t-335 143.5t-334.5 -143.5t-117.5 -346.5q0 -180 90 -308t227 -165v-211h-526v211h258z" glyph-name="Omega" horiz-adv-x="1566" unicode="Ω"/><glyph d="M53 1497q-51 0 -86 35t-35 86q0 49 35 84t86 35q49 0 84 -35t35 -84q0 -51 -35 -86t-84 -35zM481 1497q-49 0 -85 35t-36 86q0 49 36 84t85 35t85 -35t36 -84q0 -51 -36 -86t-85 -35zM145 0v1366h240v-1366h-240z" glyph-name="Iotadieresis" horiz-adv-x="530" unicode="Ϊ"/><glyph d="M440 1497q-51 0 -86 35t-35 86q0 49 35 84t86 35q49 0 84 -35t35 -84q0 -51 -35 -86t-84 -35zM868.5 1497q-49.5 0 -85 35t-35.5 86q0 49 35.5 84t85 35t85 -35t35.5 -84q0 -51 -35.5 -86t-85 -35zM532 0v567l-530 799h274l377 -586l373 586h274l-528 -799v-567h-240z " glyph-name="Upsilondieresis" horiz-adv-x="1304" unicode="Ϋ"/><glyph d="M549 1174l41 423h190l-133 -423h-98zM1192 -12q-41 -12 -102 -13q-203 0 -242 179q-51 -80 -139 -129.5t-191 -49.5q-195 0 -317.5 139.5t-122.5 379.5q0 238 123 379t317.5 141t315.5 -162v137h217v-721q0 -47 23.5 -74.5t64.5 -27.5q18 0 39 4zM836 297v391 q-37 57 -109 95t-147 38q-127 0 -203 -91t-76 -236.5t76 -236.5t203 -91q76 0 147.5 37t108.5 94z" glyph-name="alphatonos" horiz-adv-x="1218" unicode="ά"/><glyph d="M485 1174l41 423h191l-133 -423h-99zM518 -25q-207 0 -324.5 81t-117.5 212q0 106 87 168t187 70q-98 16 -176 79.5t-78 157.5q0 127 119 199t328 70q240 0 391 -162l-107 -131q-113 119 -295 119q-94 0 -153.5 -35t-59.5 -88q0 -129 218 -129h168v-172h-168 q-236 0 -236 -129q0 -61 56.5 -98t160.5 -37q172 0 316 133l116 -148q-156 -160 -432 -160z" glyph-name="epsilontonos" horiz-adv-x="991" unicode="έ"/><glyph d="M530 1174l41 423h191l-133 -423h-99zM807 -377v995q0 205 -199 205q-78 0 -145.5 -39t-108.5 -94v-690h-215v989h215v-135q55 66 147.5 113t200.5 47q158 0 239 -82t81 -236v-1073h-215z" glyph-name="etatonos" unicode="ή"/><glyph d="M195 1174l41 423h190l-133 -423h-98zM139 229v760h215v-721q0 -47 23.5 -74.5t64.5 -27.5q18 0 39 4l15 -182q-41 -12 -103 -13q-254 0 -254 254z" glyph-name="iotatonos" horiz-adv-x="522" unicode="ί"/><glyph d="M532 1174l41 423h191l-131 -423h-101zM322 1155q-51 0 -86 35t-35 86q0 49 34.5 84t86.5 35q49 0 83.5 -35t34.5 -84q0 -51 -34.5 -86t-83.5 -35zM907 1155q-49 0 -84 35t-35 86q0 49 35 84t84 35q51 0 86 -35t35 -84q0 -51 -35 -86t-86 -35zM580 -25q-215 0 -328 126 t-113 339v549h215v-545q0 -127 59.5 -202.5t166.5 -75.5q135 0 210.5 99.5t75.5 256.5q0 238 -133 402l195 90q162 -215 162 -492q0 -240 -138.5 -393.5t-371.5 -153.5z" glyph-name="upsilondieresistonos" horiz-adv-x="1167" unicode="ΰ"/><glyph d="M1192 -12q-41 -12 -102 -13q-203 0 -242 179q-51 -80 -139 -129.5t-191 -49.5q-195 0 -317.5 139.5t-122.5 379.5q0 238 123 379t317.5 141t315.5 -162v137h217v-721q0 -47 23.5 -74.5t64.5 -27.5q18 0 39 4zM836 297v391q-37 57 -109 95t-147 38q-127 0 -203 -91 t-76 -236.5t76 -236.5t203 -91q76 0 147.5 37t108.5 94z" glyph-name="alpha" horiz-adv-x="1218" unicode="α"/><glyph d="M354 -377h-215v1301q0 229 146.5 345.5t343.5 116.5q207 0 328.5 -98t121.5 -270q0 -127 -85 -210t-199 -103q117 -10 216 -102.5t99 -252.5q0 -162 -121 -268.5t-295 -106.5q-217 0 -340 160v-512zM354 297q41 -57 114 -94t157 -37q125 0 194.5 59.5t69.5 161.5 t-76 157.5t-197 55.5h-77v191h71q111 0 178.5 52t67.5 148q0 92 -64.5 147.5t-162.5 55.5q-121 0 -198 -71.5t-77 -198.5v-627z" glyph-name="beta" horiz-adv-x="1189" unicode="β"/><glyph d="M408 -377v244q0 317 -122 620.5t-311 501.5h246q119 -129 213 -343t115 -392q92 135 155.5 342t63.5 393h215q0 -240 -100.5 -508t-259.5 -471v-387h-215z" glyph-name="gamma" horiz-adv-x="1030" unicode="γ"/><glyph d="M610 971q59 -18 93 -28.5t92.5 -35t93.5 -49t79 -64.5t68.5 -85t42 -109.5t17.5 -140.5q0 -197 -135.5 -340.5t-362.5 -143.5q-236 0 -378 145.5t-142 346.5q0 141 70.5 246.5t185.5 160.5q-137 78 -137 216q0 127 104.5 214t284.5 87q229 0 383 -140l-90 -151 q-104 119 -293 119q-84 0 -133.5 -34t-49.5 -87q0 -45 48 -69.5t159 -57.5zM592 166q133 0 214 90t81 203q0 78 -26.5 134t-82 94t-102.5 58.5t-127 47.5q-121 -43 -184.5 -129t-63.5 -197q0 -119 79 -210t212 -91z" glyph-name="delta" horiz-adv-x="1173" unicode="δ"/><glyph d="M518 -25q-207 0 -324.5 81t-117.5 212q0 106 87 168t187 70q-98 16 -176 79.5t-78 157.5q0 127 119 199t328 70q240 0 391 -162l-107 -131q-113 119 -295 119q-94 0 -153.5 -35t-59.5 -88q0 -129 218 -129h168v-172h-168q-236 0 -236 -129q0 -61 56.5 -98t160.5 -37 q172 0 316 133l116 -148q-156 -160 -432 -160z" glyph-name="epsilon" horiz-adv-x="991" unicode="ε"/><glyph d="M618 0q-250 0 -395 111.5t-145 320.5q0 223 147.5 413.5t409.5 332.5h-524v188h802v-158q-279 -156 -445.5 -351t-166.5 -408q0 -258 344 -259q285 0 285 -225q0 -109 -101 -287h-229q106 156 107 240q0 35 -23 58.5t-66 23.5z" glyph-name="zeta" horiz-adv-x="997" unicode="ζ"/><glyph d="M807 -377v995q0 205 -199 205q-78 0 -145.5 -39t-108.5 -94v-690h-215v989h215v-135q55 66 147.5 113t200.5 47q158 0 239 -82t81 -236v-1073h-215z" glyph-name="eta" unicode="η"/><glyph d="M586 1391q244 0 377 -201t133 -506t-133.5 -507t-376.5 -202q-162 0 -279 97.5t-173 256t-56 355.5t56 354.5t173 255t279 97.5zM586 1200q-256 0 -283 -420h567q-26 420 -284 420zM586 166q260 0 284 426h-567q27 -426 283 -426z" glyph-name="theta" horiz-adv-x="1173" unicode="θ"/><glyph d="M139 229v760h215v-721q0 -47 23.5 -74.5t64.5 -27.5q18 0 39 4l15 -182q-41 -12 -103 -13q-254 0 -254 254z" glyph-name="iota" horiz-adv-x="522" unicode="ι"/><glyph d="M795 0l-303 408l-138 -142v-266h-215v989h215v-477l437 477h266l-412 -448l420 -541h-270z" glyph-name="kappa" horiz-adv-x="1077" unicode="κ"/><glyph d="M217 1391q123 -4 208 -54.5t132 -169.5l477 -1167h-231l-289 741l-289 -741h-229l405 999l-49 113q-37 88 -141 88q-47 0 -82 -18l-33 192q49 17 121 17z" glyph-name="lambda" horiz-adv-x="1030" unicode="λ"/><glyph d="M354 -377h-215v1366h215v-622q0 -203 201 -203q76 0 143.5 38t108.5 93v694h215v-721q0 -47 23.5 -74.5t64.5 -27.5q18 0 39 4l14 -182q-41 -12 -102 -13q-199 0 -244 177q-51 -78 -128 -127.5t-165 -49.5q-123 0 -170 74v-426z" glyph-name="mu" horiz-adv-x="1189" unicode="μ"/><glyph d="M399 0l-403 989h229l299 -774q113 164 178.5 373t65.5 401h215q0 -242 -103.5 -514t-265.5 -475h-215z" glyph-name="nu" horiz-adv-x="1030" unicode="ν"/><glyph d="M78 346q0 131 79 212t183 106q-94 16 -167 79.5t-73 167.5q0 86 58.5 160t148.5 107h-188v188h782v-188h-387q-82 -20 -136 -78t-54 -127q0 -88 75.5 -136.5t194.5 -48.5h297v-184h-297q-293 0 -293 -211q0 -203 344 -203q285 0 285 -225q0 -109 -101 -287h-229 q37 53 72 136.5t35 128.5q0 57 -89 57q-264 0 -402 88t-138 258z" glyph-name="xi" horiz-adv-x="997" unicode="ξ"/><glyph d="M586 -25q-229 0 -368.5 150.5t-139.5 370t139 369t369 149.5q231 0 370.5 -149.5t139.5 -368.5q0 -221 -139.5 -371t-370.5 -150zM586 166q133 0 209.5 95t76.5 235q0 137 -76.5 232t-209.5 95q-131 0 -208 -95t-77 -232q0 -139 77 -234.5t208 -95.5z" glyph-name="omicron" horiz-adv-x="1173" unicode="ο"/><glyph d="M852 0v801h-455v-801h-215v801h-164v188h1213v-188h-164v-801h-215z" glyph-name="pi" horiz-adv-x="1249" unicode="π"/><glyph d="M354 137v-514h-215v873q0 219 132 368.5t352 149.5q221 0 354 -149.5t133 -368.5q0 -240 -122 -380.5t-316 -140.5q-197 0 -318 162zM887 496q0 137 -72 232t-194.5 95t-194.5 -95t-72 -232v-197q37 -55 109 -94t145 -39q127 0 203 92.5t76 237.5z" glyph-name="rho" horiz-adv-x="1183" unicode="ρ"/><glyph d="M78 496q0 225 143.5 371.5t368.5 146.5q248 0 379 -176l-142 -131q-82 117 -227 116q-135 0 -217 -91t-82 -236q0 -158 91 -232t249 -74q297 0 297 -200q0 -133 -100 -312h-224q37 55 72 137.5t35 127.5q0 57 -90 57q-252 0 -402.5 130t-150.5 366z" glyph-name="sigma1" horiz-adv-x="999" unicode="ς"/><glyph d="M585.5 -25q-229.5 0 -368.5 150.5t-139 370.5q0 211 142 352t386 141h522v-190h-206q158 -129 157 -350q0 -201 -132 -337.5t-361.5 -136.5zM702 799h-96q-143 0 -224 -89t-81 -214q0 -139 77 -234.5t208 -95.5q133 0 209.5 94t76.5 227q0 104 -46 185.5t-124 126.5z" glyph-name="sigma" horiz-adv-x="1173" unicode="σ"/><glyph d="M358 229v572h-311v188h860v-188h-334v-518q0 -53 25 -85t70 -32q66 0 96 35l51 -162q-68 -63 -203 -64q-125 0 -189.5 65.5t-64.5 188.5z" glyph-name="tau" horiz-adv-x="954" unicode="τ"/><glyph d="M580 -25q-215 0 -328 126t-113 339v549h215v-545q0 -127 59.5 -202.5t166.5 -75.5q135 0 210.5 99.5t75.5 256.5q0 238 -133 402l195 90q162 -215 162 -492q0 -240 -138.5 -393.5t-371.5 -153.5z" glyph-name="upsilon" horiz-adv-x="1167" unicode="υ"/><glyph d="M1325 483q0 -229 -137 -360t-379 -143v-357h-215v357q-242 12 -379 150t-137 382q0 174 93 301t247 193l102 -160q-104 -45 -161.5 -135t-57.5 -199q0 -168 82 -257t211 -89v823h149q283 0 432.5 -134t149.5 -372zM809 166q129 0 211 81t82 236q0 154 -82 235t-211 81 v-633z" glyph-name="phi" horiz-adv-x="1402" unicode="φ"/><glyph d="M768 -377l-260 502l-262 -502h-236l363 703l-342 663h237l240 -463l237 463h238l-342 -663l365 -703h-238z" glyph-name="chi" horiz-adv-x="1015" unicode="χ"/><glyph d="M1106 989h215v-514q0 -223 -110.5 -348t-372.5 -147v-357h-215v357q-262 20 -373 146t-111 349v514h215v-514q0 -135 59.5 -210t209.5 -93v1194h215v-1194q147 18 207.5 93t60.5 210v514z" glyph-name="psi" horiz-adv-x="1460" unicode="ψ"/><glyph d="M1118 -25q-133 0 -206.5 77t-120.5 212q-47 -137 -120 -213t-208 -76q-178 0 -281.5 145.5t-103.5 354.5q0 360 209 539l190 -84q-176 -162 -176 -455q0 -127 49 -218t142 -91q193 0 192 330v249h215v-249q0 -330 191 -330q92 0 141 91t49 218q0 293 -176 455l192 84 q207 -178 207 -539q0 -209 -103.5 -354.5t-281.5 -145.5z" glyph-name="omega" horiz-adv-x="1581" unicode="ω"/><glyph d="M33 1155q-51 0 -86 35t-35 86q0 49 35 84t86 35q49 0 84 -35t35 -84q0 -51 -35 -86t-84 -35zM461 1155q-49 0 -85 35t-36 86q0 49 36 84t85 35t85 -35t36 -84q0 -51 -36 -86t-85 -35zM139 229v760h215v-721q0 -47 23.5 -74.5t64.5 -27.5q18 0 39 4l15 -182 q-41 -12 -103 -13q-254 0 -254 254z" glyph-name="iotadieresis" horiz-adv-x="522" unicode="ϊ"/><glyph d="M367 1155q-51 0 -86 35t-35 86q0 49 34.5 84t86.5 35q49 0 83.5 -35t34.5 -84q0 -51 -34.5 -86t-83.5 -35zM794.5 1155q-49.5 0 -85 35t-35.5 86q0 49 35.5 84t85 35t85 -35t35.5 -84q0 -51 -35.5 -86t-85 -35zM580 -25q-215 0 -328 126t-113 339v549h215v-545 q0 -127 59.5 -202.5t166.5 -75.5q135 0 210.5 99.5t75.5 256.5q0 238 -133 402l195 90q162 -215 162 -492q0 -240 -138.5 -393.5t-371.5 -153.5z" glyph-name="upsilondieresis" horiz-adv-x="1167" unicode="ϋ"/><glyph d="M535 1174l40 423h191l-133 -423h-98zM586 -25q-229 0 -368.5 150.5t-139.5 370t139 369t369 149.5q231 0 370.5 -149.5t139.5 -368.5q0 -221 -139.5 -371t-370.5 -150zM586 166q133 0 209.5 95t76.5 235q0 137 -76.5 232t-209.5 95q-131 0 -208 -95t-77 -232 q0 -139 77 -234.5t208 -95.5z" glyph-name="omicrontonos" horiz-adv-x="1173" unicode="ό"/><glyph d="M528 1174l41 423h191l-133 -423h-99zM580 -25q-215 0 -328 126t-113 339v549h215v-545q0 -127 59.5 -202.5t166.5 -75.5q135 0 210.5 99.5t75.5 256.5q0 238 -133 402l195 90q162 -215 162 -492q0 -240 -138.5 -393.5t-371.5 -153.5z" glyph-name="upsilontonos" horiz-adv-x="1167" unicode="ύ"/><glyph d="M739 1174l41 423h191l-133 -423h-99zM1118 -25q-133 0 -206.5 77t-120.5 212q-47 -137 -120 -213t-208 -76q-178 0 -281.5 145.5t-103.5 354.5q0 360 209 539l190 -84q-176 -162 -176 -455q0 -127 49 -218t142 -91q193 0 192 330v249h215v-249q0 -330 191 -330 q92 0 141 91t49 218q0 293 -176 455l192 84q207 -178 207 -539q0 -209 -103.5 -354.5t-281.5 -145.5z" glyph-name="omegatonos" horiz-adv-x="1581" unicode="ώ"/><glyph d="M414 1497q-51 0 -86 35t-35 86q0 49 34.5 84t86.5 35q49 0 83.5 -35t34.5 -84q0 -51 -34.5 -86t-83.5 -35zM842 1497q-49 0 -85 35t-36 86q0 49 36 84t85 35t85 -35t36 -84q0 -51 -36 -86t-85 -35zM145 0v1366h936v-211h-696v-354h682v-211h-682v-379h696v-211h-936z" glyph-name="afii10023" horiz-adv-x="1181" unicode="Ё"/><glyph d="M1032 188q240 0 240 211v62q0 209 -277 209q-156 0 -284 -52v-618h-240v1155h-414v211h1067v-211h-413v-346q186 72 362 72q438 0 438 -420v-62q0 -223 -131 -323.5t-348 -100.5v213z" glyph-name="afii10051" horiz-adv-x="1564" unicode="Ђ"/><glyph d="M692 1481h-194l286 295h246zM145 0v1366h936v-211h-696v-1155h-240z" glyph-name="afii10052" horiz-adv-x="1150" unicode="Ѓ"/><glyph d="M801 188q109 0 201 55.5t143 143.5l205 -104q-197 -307 -549 -308q-307 0 -512 198t-205 509t205 509t512 198q356 0 549 -308l-205 -104q-51 88 -144.5 143.5t-199.5 55.5q-172 0 -298 -103.5t-161 -271.5h725v-211h-729q29 -178 156 -290t307 -112z" glyph-name="afii10053" horiz-adv-x="1396" unicode="Є"/><glyph d="M57 193l133 184q176 -188 433 -189q137 0 205.5 55.5t68.5 131.5q0 35 -18.5 64.5t-41 47t-72.5 37t-81 28.5t-98 26q-90 23 -139.5 37t-126 47.5t-116.5 71.5t-72 103.5t-32 149.5q0 172 138.5 285.5t359.5 113.5q315 0 512 -190l-137 -178q-156 156 -395 156 q-106 0 -169 -46.5t-63 -123.5q0 -39 21.5 -67t71.5 -50.5t89 -33.5t119 -32q90 -23 140.5 -38t128 -50t118.5 -75t74 -107.5t33 -153.5q0 -184 -133.5 -303t-395.5 -119q-352 1 -555 218z" glyph-name="afii10054" horiz-adv-x="1216" unicode="Ѕ"/><glyph d="M145 0v1366h240v-1366h-240z" glyph-name="afii10055" horiz-adv-x="530" unicode="І"/><glyph d="M53 1497q-51 0 -86 35t-35 86q0 49 35 84t86 35q49 0 84 -35t35 -84q0 -51 -35 -86t-84 -35zM481 1497q-49 0 -85 35t-36 86q0 49 36 84t85 35t85 -35t36 -84q0 -51 -36 -86t-85 -35zM145 0v1366h240v-1366h-240z" glyph-name="afii10056" horiz-adv-x="530" unicode="Ї"/><glyph d="M16 119l111 182q104 -113 233 -113q111 0 175.5 68t64.5 180v930h240v-934q0 -225 -127 -341t-334 -116q-228 1 -363 144z" glyph-name="afii10057" horiz-adv-x="985" unicode="Ј"/><glyph d="M57 211q82 0 137.5 47t105.5 212t73 460l35 436h927v-510h361q207 0 326.5 -124t119.5 -304q0 -182 -119.5 -305t-326.5 -123h-600v1155h-484l-18 -227q-20 -252 -58 -429t-83 -278.5t-114 -157t-130.5 -72t-151.5 -16.5v236zM1335 645v-434h328q102 0 167.5 59.5 t65.5 157.5t-65.5 157.5t-167.5 59.5h-328z" glyph-name="afii10058" horiz-adv-x="2195" unicode="Љ"/><glyph d="M145 1366h240v-559h711v559h239v-559h387q195 0 307.5 -116t112.5 -288t-112.5 -287.5t-307.5 -115.5h-626v596h-711v-596h-240v1366zM1690 211q92 0 149 53t57 139t-57 139.5t-149 53.5h-355v-385h355z" glyph-name="afii10059" horiz-adv-x="2195" unicode="Њ"/><glyph d="M1272 387q0 158 -61.5 220.5t-215.5 62.5q-156 0 -284 -52v-618h-240v1155h-414v211h1067v-211h-413v-346q186 72 362 72q229 0 333.5 -116t104.5 -378v-387h-239v387z" glyph-name="afii10060" horiz-adv-x="1617" unicode="Ћ"/><glyph d="M713 1481h-195l287 295h246zM963 0l-459 575l-119 -139v-436h-240v1366h240v-651l535 651h297l-555 -645l595 -721h-294z" glyph-name="afii10061" horiz-adv-x="1271" unicode="Ќ"/><glyph d="M649 1477q-223 0 -360 180l119 98q94 -127 241 -127q150 0 240 127l119 -98q-134 -180 -359 -180zM1030 1366h270l-528 -1110q-66 -139 -162 -210t-260 -71q-92 0 -170 31l62 203q39 -20 98 -21q76 0 123 36t96 126l-557 1016h274l410 -795z" glyph-name="afii10062" horiz-adv-x="1304" unicode="Ў"/><glyph d="M1294 1366v-1366h-469v-262h-211v262h-469v1366h240v-1155h670v1155h239z" glyph-name="afii10145" horiz-adv-x="1439" unicode="Џ"/><glyph d="M1112 0l-100 262h-647l-101 -262h-262l537 1366h299l536 -1366h-262zM688 1163l-256 -690h512z" glyph-name="afii10017" horiz-adv-x="1378" unicode="А"/><glyph d="M1081 1366v-211h-696v-299h360q207 0 327 -124t120 -304q0 -182 -120 -305t-327 -123h-600v1366h936zM385 645v-434h328q102 0 167.5 59.5t65.5 157.5t-65.5 157.5t-167.5 59.5h-328z" glyph-name="afii10018" horiz-adv-x="1245" unicode="Б"/><glyph d="M145 0v1366h672q182 0 285.5 -99.5t103.5 -248.5q0 -123 -68.5 -208t-168.5 -105q111 -16 187.5 -113.5t76.5 -222.5q0 -164 -105.5 -266.5t-291.5 -102.5h-691zM385 801h383q90 0 141.5 49t51.5 127q0 80 -51.5 129t-141.5 49h-383v-354zM385 211h393q98 0 153.5 50 t55.5 140q0 80 -55 134.5t-154 54.5h-393v-379z" glyph-name="afii10019" horiz-adv-x="1327" unicode="В"/><glyph d="M145 0v1366h936v-211h-696v-1155h-240z" glyph-name="afii10020" horiz-adv-x="1150" unicode="Г"/><glyph d="M37 211h106q68 76 127.5 268.5t85.5 513.5l31 373h887v-1155h168v-463h-211v252h-983v-252h-211v463zM569 981q-43 -614 -184 -770h649v944h-452z" glyph-name="afii10021" horiz-adv-x="1478" unicode="Д"/><glyph d="M145 0v1366h936v-211h-696v-354h682v-211h-682v-379h696v-211h-936z" glyph-name="afii10022" horiz-adv-x="1181" unicode="Е"/><glyph d="M1608 0l-459 606h-74v-606h-239v606h-74l-459 -606h-289l555 707l-514 659h287l420 -569h74v569h239v-569h74l420 569h286l-514 -659l555 -707h-288z" glyph-name="afii10024" horiz-adv-x="1910" unicode="Ж"/><glyph d="M49 197l129 157q66 -76 178.5 -121t225.5 -45q145 0 228 56.5t83 152.5q0 193 -330 193h-233v211h233q137 0 222 45t85 135q0 92 -86 142.5t-217 50.5q-225 0 -377 -152l-122 149q82 96 220 155.5t302 59.5q227 0 373.5 -100t146.5 -268q0 -127 -89 -210t-208 -103 q117 -10 217 -98.5t100 -233.5q0 -174 -152.5 -286t-387.5 -112q-176 0 -322.5 63t-218.5 159z" glyph-name="afii10025" horiz-adv-x="1226" unicode="З"/><glyph d="M145 1366h240v-1006l698 1006h246v-1366h-239v1032l-713 -1032h-232v1366z" glyph-name="afii10026" horiz-adv-x="1474" unicode="И"/><glyph d="M737 1477q-223 0 -360 180l119 98q94 -127 241 -127q150 0 240 127l119 -98q-134 -180 -359 -180zM145 1366h240v-1006l698 1006h246v-1366h-239v1032l-713 -1032h-232v1366z" glyph-name="afii10027" horiz-adv-x="1474" unicode="Й"/><glyph d="M963 0l-459 575l-119 -139v-436h-240v1366h240v-651l535 651h297l-555 -645l595 -721h-294z" glyph-name="afii10028" horiz-adv-x="1271" unicode="К"/><glyph d="M57 211q82 0 137.5 47t105.5 212t73 460l35 436h927v-1366h-239v1155h-484l-18 -227q-20 -252 -58 -429t-83 -278.5t-114 -157t-130.5 -72t-151.5 -16.5v236z" glyph-name="afii10029" horiz-adv-x="1480" unicode="Л"/><glyph d="M1325 0v1034l-420 -1034h-102l-418 1034v-1034h-240v1366h338l371 -920l373 920h338v-1366h-240z" glyph-name="afii10030" horiz-adv-x="1710" unicode="М"/><glyph d="M1096 0v596h-711v-596h-240v1366h240v-559h711v559h239v-1366h-239z" glyph-name="afii10031" horiz-adv-x="1480" unicode="Н"/><glyph d="M84 682q0 307 196.5 507t501.5 200t502 -200t197 -507t-197 -507t-502 -200t-501.5 200t-196.5 507zM1235 682q0 215 -125 354.5t-328 139.5q-205 0 -328.5 -139.5t-123.5 -354.5t124 -354.5t328 -139.5q203 0 328 140.5t125 353.5z" glyph-name="afii10032" horiz-adv-x="1566" unicode="О"/><glyph d="M1096 0v1155h-711v-1155h-240v1366h1190v-1366h-239z" glyph-name="afii10033" horiz-adv-x="1480" unicode="П"/><glyph d="M145 0v1366h600q207 0 327 -123t120 -305q0 -180 -120 -304t-327 -124h-360v-510h-240zM946 938q0 98 -65.5 157.5t-167.5 59.5h-328v-434h328q102 0 167.5 59.5t65.5 157.5z" glyph-name="afii10034" horiz-adv-x="1245" unicode="Р"/><glyph d="M791 -25q-299 0 -503 199t-204 508t204 508t503 199q367 0 559 -308l-205 -104q-51 88 -145.5 143.5t-208.5 55.5q-197 0 -329 -140.5t-132 -353.5t132 -353.5t329 -140.5q115 0 209 55.5t145 143.5l205 -104q-197 -308 -559 -308z" glyph-name="afii10035" horiz-adv-x="1396" unicode="С"/><glyph d="M471 0v1155h-414v211h1067v-211h-413v-1155h-240z" glyph-name="afii10036" horiz-adv-x="1181" unicode="Т"/><glyph d="M1030 1366h270l-528 -1110q-66 -139 -162 -210t-260 -71q-92 0 -170 31l62 203q39 -20 98 -21q76 0 123 36t96 126l-557 1016h274l410 -795z" glyph-name="afii10037" horiz-adv-x="1304" unicode="У"/><glyph d="M1622 682q0 -233 -172 -377.5t-477 -169.5v-135h-240v135q-305 25 -477 169.5t-172 377.5q0 231 172 376.5t477 170.5v137h240v-137q305 -25 477 -169.5t172 -377.5zM330 682q0 -135 104.5 -223t298.5 -109v664q-195 -20 -299 -108.5t-104 -223.5zM973 350 q195 20 299 108.5t104 223.5t-104.5 223t-298.5 109v-664z" glyph-name="afii10038" horiz-adv-x="1708" unicode="Ф"/><glyph d="M1059 0l-383 535l-383 -535h-287l512 700l-481 666h287l352 -502l350 502h289l-479 -664l510 -702h-287z" glyph-name="afii10039" horiz-adv-x="1353" unicode="Х"/><glyph d="M1251 0h-1106v1366h240v-1155h670v1155h239v-1155h168v-463h-211v252z" glyph-name="afii10040" horiz-adv-x="1499" unicode="Ц"/><glyph d="M346 979q0 -158 61.5 -220.5t215.5 -62.5q156 0 284 52v618h240v-1366h-240v557q-186 -72 -362 -72q-229 0 -334 116t-105 378v387h240v-387z" glyph-name="afii10041" horiz-adv-x="1292" unicode="Ч"/><glyph d="M1806 1366v-1366h-1661v1366h240v-1155h471v1155h240v-1155h471v1155h239z" glyph-name="afii10042" horiz-adv-x="1951" unicode="Ш"/><glyph d="M1806 1366v-1155h168v-463h-211v252h-1618v1366h240v-1155h471v1155h240v-1155h471v1155h239z" glyph-name="afii10043" horiz-adv-x="2011" unicode="Щ"/><glyph d="M471 0v1155h-414v211h654v-510h360q207 0 327 -124t120 -304q0 -182 -120 -305t-327 -123h-600zM711 645v-434h327q102 0 168 59.5t66 157.5t-65.5 157.5t-168.5 59.5h-327z" glyph-name="afii10044" horiz-adv-x="1570" unicode="Ъ"/><glyph d="M385 1366v-510h360q207 0 327 -124t120 -304q0 -182 -120 -305t-327 -123h-600v1366h240zM1319 0v1366h240v-1366h-240zM385 645v-434h328q102 0 167.5 59.5t65.5 157.5t-65.5 157.5t-167.5 59.5h-328z" glyph-name="afii10045" horiz-adv-x="1703" unicode="Ы"/><glyph d="M385 1366v-510h360q207 0 327 -124t120 -304q0 -182 -120 -305t-327 -123h-600v1366h240zM385 645v-434h328q102 0 167.5 59.5t65.5 157.5t-65.5 157.5t-167.5 59.5h-328z" glyph-name="afii10046" horiz-adv-x="1245" unicode="Ь"/><glyph d="M596 1389q307 0 512 -198t205 -509t-205 -509t-512 -198q-352 0 -549 308l205 104q51 -88 143 -143.5t201 -55.5q180 0 307 112t156 290h-729v211h725q-35 168 -161 271.5t-298 103.5q-106 0 -199.5 -55.5t-144.5 -143.5l-205 104q193 308 549 308z" glyph-name="afii10047" horiz-adv-x="1396" unicode="Э"/><glyph d="M1294 1389q305 0 502 -200t197 -507t-197 -507t-502 -200q-283 0 -474 173.5t-220 447.5h-215v-596h-240v1366h240v-559h221q39 258 227.5 420t460.5 162zM1294 188q203 0 328 140.5t125 353.5q0 215 -125 354.5t-328 139.5q-205 0 -328.5 -139.5t-123.5 -354.5 t123.5 -354.5t328.5 -139.5z" glyph-name="afii10048" horiz-adv-x="2078" unicode="Ю"/><glyph d="M84 0l334 537q-135 23 -229.5 126t-94.5 275q0 190 123 309t324 119h600v-1366h-240v510h-237l-304 -510h-276zM901 721v434h-328q-102 0 -167.5 -59.5t-65.5 -157.5t65.5 -157.5t167.5 -59.5h328z" glyph-name="afii10049" horiz-adv-x="1286" unicode="Я"/><glyph d="M743 0v106q-115 -131 -319 -131q-135 0 -239.5 87.5t-104.5 240.5q0 158 103.5 240t240.5 82q211 0 319 -127v147q0 86 -63.5 135t-167.5 49q-166 0 -293 -124l-88 149q168 160 416 160q182 0 296.5 -86t114.5 -273v-655h-215zM743 225v150q-74 102 -235 102 q-92 0 -151.5 -49t-59.5 -129t59.5 -128t151.5 -48q161 0 235 102z" glyph-name="afii10065" horiz-adv-x="1097" unicode="а"/><glyph d="M80 596q0 334 144.5 518t492.5 236l262 39v-191l-262 -41q-229 -35 -339 -128t-136 -251q63 96 167.5 145.5t217.5 49.5q205 0 336 -139.5t131 -335.5q0 -219 -137.5 -371t-370.5 -152q-238 0 -372 168t-134 453zM872 500q0 135 -76.5 229t-209.5 94q-131 0 -208 -94 t-77 -229q0 -141 77 -237.5t208 -96.5q133 0 209.5 96.5t76.5 237.5z" glyph-name="afii10066" horiz-adv-x="1171" unicode="б"/><glyph d="M139 0v989h555q162 0 246 -70.5t84 -183.5q0 -86 -47 -145.5t-119 -79.5q80 -18 133 -87t53 -155q0 -121 -86 -194.5t-258 -73.5h-561zM805 698q0 47 -30 75t-81 28h-340v-201h340q51 0 81 27.5t30 70.5zM823 299q0 47 -32.5 80t-90.5 33h-346v-224h346q57 0 90 30t33 81 z" glyph-name="afii10067" horiz-adv-x="1122" unicode="в"/><glyph d="M889 801h-535v-801h-215v989h750v-188z" glyph-name="afii10068" horiz-adv-x="925" unicode="г"/><glyph d="M37 188h90q94 154 127 568l18 233h752v-801h109v-440h-189v252h-719v-252h-188v440zM444 698q-20 -373 -112 -510h477v613h-358z" glyph-name="afii10069" horiz-adv-x="1169" unicode="д"/><glyph d="M78 496q0 217 142 367.5t360 150.5q219 0 353 -151.5t134 -387.5v-51h-764q12 -117 96 -194.5t219 -77.5q76 0 153 28.5t128 79.5l98 -141q-150 -143 -401 -144q-225 0 -371.5 145t-146.5 376zM580 838q-127 0 -199 -79t-80 -184h557q-4 102 -74.5 182.5t-203.5 80.5z " glyph-name="afii10070" horiz-adv-x="1140" unicode="е"/><glyph d="M1219 0l-312 424h-55v-424h-215v424h-55l-312 -424h-262l381 512l-373 477h256l310 -414h55v414h215v-414h55l310 414h256l-373 -477l381 -512h-262z" glyph-name="afii10072" horiz-adv-x="1488" unicode="ж"/><glyph d="M41 135l117 148q143 -133 315 -133q104 0 160.5 36.5t56.5 98.5q0 129 -235 129h-168v172h168q217 0 217 129q0 53 -59.5 88t-153.5 35q-182 0 -295 -119l-107 131q152 162 392 162q209 2 327.5 -70t118.5 -199q0 -94 -78 -157.5t-176 -79.5q100 -8 187 -69.5t87 -168.5 q0 -131 -117.5 -212t-324.5 -81q-276 0 -432 160z" glyph-name="afii10073" horiz-adv-x="991" unicode="з"/><glyph d="M139 0v989h215v-665l455 665h215v-989h-215v684l-463 -684h-207z" glyph-name="afii10074" horiz-adv-x="1163" unicode="и"/><glyph d="M582 1135q-223 0 -361 180l119 98q94 -127 242 -127q150 0 239 127l119 -98q-133 -180 -358 -180zM139 0v989h215v-665l455 665h215v-989h-215v684l-463 -684h-207z" glyph-name="afii10075" horiz-adv-x="1163" unicode="й"/><glyph d="M795 0l-303 408l-138 -142v-266h-215v989h215v-477l437 477h266l-412 -448l420 -541h-270z" glyph-name="afii10076" horiz-adv-x="1077" unicode="к"/><glyph d="M37 188q84 0 135 124t72 431l16 246h764v-989h-215v801h-358l-5 -68q-18 -295 -76.5 -467t-137 -231.5t-195.5 -59.5v213z" glyph-name="afii10077" horiz-adv-x="1163" unicode="л"/><glyph d="M1073 0v709l-315 -709h-86l-318 709v-709h-215v989h281l295 -659l291 659h282v-989h-215z" glyph-name="afii10078" horiz-adv-x="1427" unicode="м"/><glyph d="M139 0v989h215v-389h455v389h215v-989h-215v412h-455v-412h-215z" glyph-name="afii10079" horiz-adv-x="1163" unicode="н"/><glyph d="M586 -25q-229 0 -368.5 150.5t-139.5 370t139 369t369 149.5q231 0 370.5 -149.5t139.5 -368.5q0 -221 -139.5 -371t-370.5 -150zM586 166q133 0 209.5 95t76.5 235q0 137 -76.5 232t-209.5 95q-131 0 -208 -95t-77 -232q0 -139 77 -234.5t208 -95.5z" glyph-name="afii10080" horiz-adv-x="1173" unicode="о"/><glyph d="M809 0v801h-455v-801h-215v989h885v-989h-215z" glyph-name="afii10081" horiz-adv-x="1163" unicode="п"/><glyph d="M354 -377h-215v1366h215v-135q121 160 318 160q195 0 316.5 -139.5t121.5 -379t-122 -380t-316 -140.5q-197 0 -318 162v-514zM887 495.5q0 145.5 -76 236.5t-203 91q-74 0 -145.5 -39t-108.5 -94v-391q37 -55 109 -94t145 -39q127 0 203 92t76 237.5z" glyph-name="afii10082" horiz-adv-x="1187" unicode="р"/><glyph d="M78 496q0 225 143.5 371.5t368.5 146.5q248 0 379 -176l-142 -131q-82 117 -227 116q-135 0 -217 -91t-82 -236.5t82 -237.5t217 -92q141 0 227 117l142 -131q-131 -176 -379 -177q-225 0 -368.5 147t-143.5 374z" glyph-name="afii10083" horiz-adv-x="1017" unicode="с"/><glyph d="M319 0v801h-282v188h782v-188h-284v-801h-216z" glyph-name="afii10084" horiz-adv-x="856" unicode="т"/><glyph d="M129 -195q37 -16 82 -16q104 0 141 86l49 113l-405 1001h229l289 -741l289 741h231l-477 -1167q-88 -219 -340 -223q-68 0 -121 14z" glyph-name="afii10085" horiz-adv-x="1030" unicode="у"/><glyph d="M809 1014q242 -16 379 -151.5t137 -367t-138 -367.5t-378 -153v-352h-215v352q-240 16 -378 152.5t-138 368t137 366.5t379 152v352h215v-352zM301 496q0 -158 82 -244t211 -86v657q-129 0 -211 -85.5t-82 -241.5zM809 166q129 0 211 86t82 244q0 156 -82 241.5 t-211 85.5v-657z" glyph-name="afii10086" horiz-adv-x="1402" unicode="ф"/><glyph d="M764 0l-256 365l-258 -365h-240l363 508l-342 481h241l236 -336l233 336h242l-342 -481l365 -508h-242z" glyph-name="afii10087" horiz-adv-x="1015" unicode="х"/><glyph d="M924 0h-785v989h215v-801h434v801h216v-801h108v-440h-188v252z" glyph-name="afii10088" horiz-adv-x="1148" unicode="ц"/><glyph d="M319 989v-268q0 -111 56.5 -156t179.5 -45q133 0 217 37v432h215v-989h-215v383q-121 -53 -285 -53q-203 0 -293 77.5t-90 235.5v346h215z" glyph-name="afii10089" horiz-adv-x="1126" unicode="ч"/><glyph d="M1481 989v-989h-1342v989h215v-801h348v801h216v-801h348v801h215z" glyph-name="afii10090" horiz-adv-x="1619" unicode="ш"/><glyph d="M1481 989v-801h129v-440h-189v252h-1282v989h215v-801h348v801h216v-801h348v801h215z" glyph-name="afii10091" horiz-adv-x="1646" unicode="щ"/><glyph d="M319 0v801h-282v188h498v-338h339q164 0 251 -96t87 -229q0 -131 -88 -228.5t-250 -97.5h-555zM535 463v-275h319q68 0 103.5 39t35.5 99q0 61 -34.5 99t-104.5 38h-319z" glyph-name="afii10092" horiz-adv-x="1286" unicode="ъ"/><glyph d="M354 989v-338h340q164 0 251 -96t87 -229q0 -131 -88 -228.5t-250 -97.5h-555v989h215zM1182 0v989h215v-989h-215zM354 463v-275h320q68 0 103.5 39t35.5 99q0 61 -35 99t-104 38h-320z" glyph-name="afii10093" horiz-adv-x="1536" unicode="ы"/><glyph d="M354 989v-338h340q164 0 251 -96t87 -229q0 -131 -88 -228.5t-250 -97.5h-555v989h215zM354 463v-275h320q68 0 103.5 39t35.5 99q0 61 -35 99t-104 38h-320z" glyph-name="afii10094" horiz-adv-x="1105" unicode="ь"/><glyph d="M451 1014q225 0 371.5 -143.5t146.5 -375t-146.5 -376t-371.5 -144.5q-252 0 -402 144l98 141q51 -51 128 -79.5t153 -28.5q133 0 217 74.5t94 179.5h-489v186h491q-12 98 -96 172t-217 74q-158 0 -266 -109l-99 141q150 144 388 144z" glyph-name="afii10095" horiz-adv-x="1046" unicode="э"/><glyph d="M1028 1014q231 0 370.5 -149.5t139.5 -368.5q0 -221 -139 -371t-371 -150q-207 0 -341 123t-161 314h-172v-412h-215v989h215v-389h174q33 182 167 298t333 116zM1028 166q133 0 210 95t77 235q0 137 -77 232t-210 95q-131 0 -208 -95t-77 -232q0 -139 77 -234.5 t208 -95.5z" glyph-name="afii10096" horiz-adv-x="1615" unicode="ю"/><glyph d="M104 0l244 369q-102 23 -166.5 102.5t-64.5 202.5q0 133 87 224t240 91h566v-989h-215v358h-228l-217 -358h-246zM795 547v254h-324q-61 0 -98 -36t-37 -91q0 -57 36 -92t99 -35h324z" glyph-name="afii10097" horiz-adv-x="1148" unicode="я"/><glyph d="M367 1155q-51 0 -86 35t-35 86q0 49 34.5 84t86.5 35q49 0 83.5 -35t34.5 -84q0 -51 -34.5 -86t-83.5 -35zM794.5 1155q-49.5 0 -85 35t-35.5 86q0 49 35.5 84t85 35t85 -35t35.5 -84q0 -51 -35.5 -86t-85 -35zM78 496q0 217 142 367.5t360 150.5q219 0 353 -151.5 t134 -387.5v-51h-764q12 -117 96 -194.5t219 -77.5q76 0 153 28.5t128 79.5l98 -141q-150 -143 -401 -144q-225 0 -371.5 145t-146.5 376zM580 838q-127 0 -199 -79t-80 -184h557q-4 102 -74.5 182.5t-203.5 80.5z" glyph-name="afii10071" horiz-adv-x="1140" unicode="ё"/><glyph d="M590 -391l22 178q25 -6 62 -6q63 0 102 40t39 122v675q0 205 -201 205q-78 0 -145.5 -39t-108.5 -94v-690h-215v1087h-127v127h127v152h215v-152h310v-127h-310v-233q55 66 147.5 113t201.5 47q158 0 239.5 -82t81.5 -236v-753q0 -162 -85 -253t-245 -91q-59 0 -110 10z " glyph-name="afii10099" horiz-adv-x="1169" unicode="ђ"/><glyph d="M584 1139h-195l287 295h246zM889 801h-535v-801h-215v989h750v-188z" glyph-name="afii10100" horiz-adv-x="925" unicode="ѓ"/><glyph d="M618 152q76 0 153 28.5t128 79.5l98 -141q-150 -143 -401 -144q-225 0 -371.5 144.5t-146.5 376t146.5 375t371.5 143.5q238 0 387 -144l-98 -141q-109 109 -267 109q-133 0 -217 -74t-96 -172h492v-186h-490q10 -104 94 -179t217 -75z" glyph-name="afii10101" horiz-adv-x="1046" unicode="є"/><glyph d="M53 129l99 156q55 -57 149 -98.5t186 -41.5q94 0 144.5 32t50.5 89q0 59 -57.5 89t-167.5 55q-68 14 -106 24t-97 34t-90 53.5t-55.5 78.5t-24.5 113q0 127 104.5 214t284.5 87q227 0 385 -140l-90 -151q-47 53 -125 86t-168 33q-86 0 -135 -30t-49 -81t53 -77.5 t162 -51.5q68 -14 107.5 -24.5t99 -36t92.5 -56t58.5 -83t25.5 -119.5q0 -135 -108.5 -221.5t-303.5 -86.5q-266 0 -424 154z" glyph-name="afii10102" horiz-adv-x="966" unicode="ѕ"/><glyph d="M246 1141q-53 0 -93 39t-40 94t40 94t93 39q55 0 94 -39t39 -94t-39 -94t-94 -39zM139 0v989h215v-989h-215z" glyph-name="afii10103" horiz-adv-x="493" unicode="і"/><glyph d="M33 1155q-51 0 -86 35t-35 86q0 49 35 84t86 35q49 0 84 -35t35 -84q0 -51 -35 -86t-84 -35zM461 1155q-49 0 -85 35t-36 86q0 49 36 84t85 35t85 -35t36 -84q0 -51 -36 -86t-85 -35zM139 0v989h215v-989h-215z" glyph-name="afii10104" horiz-adv-x="493" unicode="ї"/><glyph d="M246 1141q-53 0 -93 39t-40 94t40 94t93 39q55 0 94 -39t39 -94t-39 -94t-94 -39zM354 989v-1046q0 -162 -84 -253t-243 -91q-59 0 -111 10l23 178q25 -6 61 -6q63 0 101 39t38 123v1046h215z" glyph-name="afii10105" horiz-adv-x="493" unicode="ј"/><glyph d="M37 188q84 0 135 124t72 431l16 246h764v-338h340q164 0 251 -96t87 -229q0 -131 -88 -228.5t-250 -97.5h-555v801h-358l-5 -68q-18 -295 -76.5 -467t-137 -231.5t-195.5 -59.5v213zM1024 463v-275h319q68 0 104 39t36 99q0 61 -35 99t-105 38h-319z" glyph-name="afii10106" horiz-adv-x="1775" unicode="љ"/><glyph d="M139 0v989h215v-389h455v389h215v-348h340q164 0 251 -94t87 -228q0 -131 -88 -225t-250 -94h-555v412h-455v-412h-215zM1024 453v-265h319q70 0 105 36t35 95.5t-35 96.5t-105 37h-319z" glyph-name="afii10107" horiz-adv-x="1775" unicode="њ"/><glyph d="M711 1014q319 0 319 -314v-700h-215v623q0 109 -52 154.5t-149 45.5q-76 0 -143.5 -39t-110.5 -94v-690h-215v1087h-127v127h127v152h215v-152h310v-127h-310v-233q55 66 148.5 113t202.5 47z" glyph-name="afii10108" horiz-adv-x="1169" unicode="ћ"/><glyph d="M629 1139h-195l287 295h246zM795 0l-303 408l-138 -142v-266h-215v989h215v-477l437 477h266l-412 -448l420 -541h-270z" glyph-name="afii10109" horiz-adv-x="1077" unicode="ќ"/><glyph d="M514 1135q-223 0 -360 180l118 98q94 -127 242 -127q150 0 240 127l118 -98q-133 -180 -358 -180zM129 -195q37 -16 82 -16q104 0 141 86l49 113l-405 1001h229l289 -741l289 741h231l-477 -1167q-88 -219 -340 -223q-68 0 -121 14z" glyph-name="afii10110" horiz-adv-x="1030" unicode="ў"/><glyph d="M1004 989v-989h-338v-260h-189v260h-338v989h215v-801h434v801h216z" glyph-name="afii10193" horiz-adv-x="1142" unicode="џ"/><glyph d="M385 0h-240v1366h725v252h211v-463h-696v-1155z" glyph-name="afii10050" horiz-adv-x="1150" unicode="Ґ"/><glyph d="M354 0h-215v989h561v260h189v-448h-535v-801z" glyph-name="afii10098" horiz-adv-x="925" unicode="ґ"/><glyph d="M1081 1155h-696v-395h377v-176h-377v-584h-240v584h-127v176h127v606h936v-211z" glyph-name="uni0492" horiz-adv-x="1150" unicode="Ғ"/><glyph d="M889 801h-535v-226h256v-145h-256v-430h-215v430h-121v145h121v414h750v-188z" glyph-name="uni0493" horiz-adv-x="925" unicode="ғ"/><glyph d="M1083 211h215v-463h-211v252h-124l-459 575l-119 -139v-436h-240v1366h240v-651l535 651h297l-555 -645z" glyph-name="uni049A" horiz-adv-x="1316" unicode="Қ"/><glyph d="M920 188h215v-440h-189v252h-151l-303 408l-138 -142v-266h-215v989h215v-477l437 477h266l-412 -448z" glyph-name="uni049B" horiz-adv-x="1153" unicode="қ"/><glyph d="M1192 211h215v-463h-211v252h-137l-383 535l-383 -535h-287l512 700l-481 666h287l352 -502l350 502h289l-479 -664z" glyph-name="uni04B2" horiz-adv-x="1425" unicode="Ҳ"/><glyph d="M870 188h215v-440h-188v252h-133l-256 365l-258 -365h-240l363 508l-342 481h241l236 -336l233 336h242l-342 -481z" glyph-name="uni04B3" horiz-adv-x="1103" unicode="ҳ"/><glyph d="M782 1389q305 0 502 -200t197 -507t-197 -507t-502 -200t-501.5 200t-196.5 507t196.5 507t501.5 200zM782 1176q-174 0 -291.5 -102.5t-150.5 -272.5h885q-33 168 -152 271.5t-291 103.5zM782.5 188q180.5 0 300 112t146.5 290h-893q27 -178 146.5 -290t300 -112z" glyph-name="uni04E8" horiz-adv-x="1566" unicode="Ө"/><glyph d="M586 1014q231 0 370.5 -149.5t139.5 -368.5q0 -221 -139.5 -371t-370.5 -150q-229 0 -368.5 150.5t-139.5 370t139.5 369t368.5 149.5zM586 823q-111 0 -183.5 -69.5t-93.5 -178.5h555q-20 111 -92.5 179.5t-185.5 68.5zM586 166q115 0 188.5 72.5t91.5 185.5h-559 q18 -113 92 -185.5t187 -72.5z" glyph-name="uni04E9" horiz-adv-x="1173" unicode="ө"/><glyph d="M537 1616q0 49 35.5 85t85 36t84 -36t34.5 -85q0 -51 -34.5 -86t-84 -35t-85 35t-35.5 86zM145 0v1366h672q182 0 285.5 -99.5t103.5 -248.5q0 -123 -68.5 -208t-168.5 -105q111 -16 187.5 -113.5t76.5 -222.5q0 -164 -105.5 -266.5t-291.5 -102.5h-691zM385 801h383 q90 0 141.5 49t51.5 127q0 80 -51.5 129t-141.5 49h-383v-354zM385 211h393q98 0 153.5 50t55.5 140q0 80 -55 134.5t-154 54.5h-393v-379z" glyph-name="uni1E02" horiz-adv-x="1327" unicode="Ḃ"/><glyph d="M487 1616q0 49 36 85t85 36t84 -36t35 -85q0 -51 -35 -86t-84 -35t-85 35t-36 86zM139 0v1366h215v-514q121 162 318 162q193 0 315.5 -142.5t122.5 -377.5q0 -240 -123 -379.5t-315 -139.5q-195 0 -318 160v-135h-215zM354 297q35 -55 108 -93t146 -38q127 0 204 91 t77 236.5t-77 237.5t-204 92q-74 0 -145.5 -39t-108.5 -96v-391z" glyph-name="uni1E03" horiz-adv-x="1189" unicode="ḃ"/><glyph d="M608 1616q0 49 36 85t85 36t84 -36t35 -85q0 -51 -35 -86t-84 -35t-85 35t-36 86zM145 0v1366h508q317 0 516 -190.5t199 -493.5q0 -301 -197.5 -491.5t-517.5 -190.5h-508zM385 211h268q215 0 342 135t127 336q0 207 -124 340t-345 133h-268v-944z" glyph-name="uni1E0A" horiz-adv-x="1454" unicode="Ḋ"/><glyph d="M479 1616q0 49 36 85t85 36t84 -36t35 -85q0 -51 -35 -86t-84 -35t-85 35t-36 86zM836 0v135q-123 -160 -317.5 -160t-317.5 139.5t-123 379.5q0 238 123 379t317.5 141t317.5 -162v514h215v-1366h-215zM836 297v393q-37 57 -109 95t-147 38q-127 0 -203 -92t-76 -237.5 t76 -236.5t203 -91q76 0 147.5 37t108.5 94z" glyph-name="uni1E0B" horiz-adv-x="1189" unicode="ḋ"/><glyph d="M502 1616q0 49 35.5 85t85 36t84 -36t34.5 -85q0 -51 -34.5 -86t-84 -35t-85 35t-35.5 86zM145 0v1366h936v-211h-696v-354h682v-211h-682v-590h-240z" glyph-name="uni1E1E" horiz-adv-x="1150" unicode="Ḟ"/><glyph d="M344 1616q0 49 36 85t85 36t84 -36t35 -85q0 -51 -35 -86t-84 -35t-85 35t-36 86zM190 0v801h-163v188h163v55q0 162 86 252t228 90q104 0 172 -38l-47 -158q-35 20 -86 20q-63 0 -100 -42t-37 -124v-55h200v-188h-200v-801h-216z" glyph-name="uni1E1F" horiz-adv-x="630" unicode="ḟ"/><glyph d="M621 1616q0 49 35.5 85t85 36t84 -36t34.5 -85q0 -51 -34.5 -86t-84 -35t-85 35t-35.5 86zM1096 0v596h-711v-596h-240v1366h240v-559h711v559h239v-1366h-239z" glyph-name="uni1E22" horiz-adv-x="1480" unicode="Ḣ"/><glyph d="M461 1616q0 49 35.5 85t85 36t84 -36t34.5 -85q0 -51 -34.5 -86t-84 -35t-85 35t-35.5 86zM809 0v623q0 109 -52 154.5t-149 45.5q-76 0 -143.5 -39t-110.5 -94v-690h-215v1366h215v-512q55 66 148.5 113t202.5 47q319 0 319 -314v-700h-215z" glyph-name="uni1E23" horiz-adv-x="1163" unicode="ḣ"/><glyph d="M522 1616q0 49 36 85t85 36t84 -36t35 -85q0 -51 -35 -86t-84 -35t-85 35t-36 86zM145 0v1366h600q207 0 327 -123t120 -305q0 -180 -120 -304t-327 -124h-360v-510h-240zM946 938q0 98 -65.5 157.5t-167.5 59.5h-328v-434h328q102 0 167.5 59.5t65.5 157.5z" glyph-name="uni1E56" horiz-adv-x="1245" unicode="Ṗ"/><glyph d="M532 1274q0 49 36 85t85 36t84 -36t35 -85q0 -51 -35 -86t-84 -35t-85 35t-36 86zM354 -377h-215v1366h215v-135q121 160 318 160q195 0 316.5 -139.5t121.5 -379t-122 -380t-316 -140.5q-197 0 -318 162v-514zM887 495.5q0 145.5 -76 236.5t-203 91q-74 0 -145.5 -39 t-108.5 -94v-391q37 -55 109 -94t145 -39q127 0 203 92t76 237.5z" glyph-name="uni1E57" horiz-adv-x="1187" unicode="ṗ"/><glyph d="M477 1616q0 49 36 85t85 36t84 -36t35 -85q0 -51 -35 -86t-84 -35t-85 35t-36 86zM57 193l133 184q176 -188 433 -189q137 0 205.5 55.5t68.5 131.5q0 35 -18.5 64.5t-41 47t-72.5 37t-81 28.5t-98 26q-90 23 -139.5 37t-126 47.5t-116.5 71.5t-72 103.5t-32 149.5 q0 172 138.5 285.5t359.5 113.5q315 0 512 -190l-137 -178q-156 156 -395 156q-106 0 -169 -46.5t-63 -123.5q0 -39 21.5 -67t71.5 -50.5t89 -33.5t119 -32q90 -23 140.5 -38t128 -50t118.5 -75t74 -107.5t33 -153.5q0 -184 -133.5 -303t-395.5 -119q-352 1 -555 218z" glyph-name="uni1E60" horiz-adv-x="1216" unicode="Ṡ"/><glyph d="M352 1274q0 49 36 85t85 36t84 -36t35 -85q0 -51 -35 -86t-84 -35t-85 35t-36 86zM53 129l99 156q55 -57 149 -98.5t186 -41.5q94 0 144.5 32t50.5 89q0 59 -57.5 89t-167.5 55q-68 14 -106 24t-97 34t-90 53.5t-55.5 78.5t-24.5 113q0 127 104.5 214t284.5 87 q227 0 385 -140l-90 -151q-47 53 -125 86t-168 33q-86 0 -135 -30t-49 -81t53 -77.5t162 -51.5q68 -14 107.5 -24.5t99 -36t92.5 -56t58.5 -83t25.5 -119.5q0 -135 -108.5 -221.5t-303.5 -86.5q-266 0 -424 154z" glyph-name="uni1E61" horiz-adv-x="966" unicode="ṡ"/><glyph d="M471 1616q0 49 36 85t85 36t84 -36t35 -85q0 -51 -35 -86t-84 -35t-85 35t-36 86zM471 0v1155h-414v211h1067v-211h-413v-1155h-240z" glyph-name="uni1E6A" horiz-adv-x="1181" unicode="Ṫ"/><glyph d="M170 1616q0 49 36 85t85 36t84 -36t35 -85q0 -51 -35 -86t-84 -35t-85 35t-36 86zM436 -25q-125 0 -189.5 65.5t-64.5 188.5v572h-164v188h164v271h215v-271h201v-188h-201v-518q0 -53 24.5 -85t70.5 -32q66 0 96 35l51 -162q-68 -64 -203 -64z" glyph-name="uni1E6B" horiz-adv-x="653" unicode="ṫ"/><glyph d="M846 1481l-338 295h205l286 -295h-153zM1190 0l-266 1008l-265 -1008h-256l-391 1366h269l266 -1053l282 1053h191l283 -1053l264 1053h268l-389 -1366h-256z" glyph-name="Wgrave" horiz-adv-x="1849" unicode="Ẁ"/><glyph d="M694 1139l-338 295h205l287 -295h-154zM1001 0l-229 725l-229 -725h-226l-307 989h223l209 -719l236 719h188l236 -719l209 719h223l-307 -989h-226z" glyph-name="wgrave" horiz-adv-x="1544" unicode="ẁ"/><glyph d="M993 1481h-153l286 295h205zM1190 0l-266 1008l-265 -1008h-256l-391 1366h269l266 -1053l282 1053h191l283 -1053l264 1053h268l-389 -1366h-256z" glyph-name="Wacute" horiz-adv-x="1849" unicode="Ẃ"/><glyph d="M842 1139h-154l287 295h205zM1001 0l-229 725l-229 -725h-226l-307 989h223l209 -719l236 719h188l236 -719l209 719h223l-307 -989h-226z" glyph-name="wacute" horiz-adv-x="1544" unicode="ẃ"/><glyph d="M711 1497q-51 0 -86 35t-35 86q0 49 34.5 84t86.5 35q49 0 83.5 -35t34.5 -84q0 -51 -34.5 -86t-83.5 -35zM1139 1497q-49 0 -85 35t-36 86q0 49 36 84t85 35t85 -35t36 -84q0 -51 -36 -86t-85 -35zM1190 0l-266 1008l-265 -1008h-256l-391 1366h269l266 -1053l282 1053 h191l283 -1053l264 1053h268l-389 -1366h-256z" glyph-name="Wdieresis" horiz-adv-x="1849" unicode="Ẅ"/><glyph d="M559 1155q-51 0 -86 35t-35 86q0 49 35 84t86 35q49 0 84 -35t35 -84q0 -51 -35 -86t-84 -35zM987 1155q-49 0 -85 35t-36 86q0 49 36 84t85 35t85 -35t36 -84q0 -51 -36 -86t-85 -35zM1001 0l-229 725l-229 -725h-226l-307 989h223l209 -719l236 719h188l236 -719 l209 719h223l-307 -989h-226z" glyph-name="wdieresis" horiz-adv-x="1544" unicode="ẅ"/><glyph d="M903 819q205 -14 331 -113.5t126 -297.5q0 -186 -140.5 -309.5t-351.5 -123.5q-268 0 -399 146l141 166q113 -98 258 -99q113 0 179.5 58.5t66.5 161.5q0 119 -100.5 168t-292.5 49h-103v202l295 312q-74 37 -176 37q-168 0 -259 -96.5t-91 -262.5v-817h-242v825 q0 260 150.5 412t441.5 152q344 0 494 -215z" glyph-name="uni1E9E" horiz-adv-x="1413" unicode="ẞ"/><glyph d="M1112 0l-100 262h-647l-101 -262h-262l537 1366h299l536 -1366h-262zM688 1163l-256 -690h512zM567 -242q0 49 36 85t85 36t84 -36t35 -85q0 -51 -35 -85.5t-84 -34.5t-85 34.5t-36 85.5z" glyph-name="uni1EA0" horiz-adv-x="1378" unicode="Ạ"/><glyph d="M743 0v106q-115 -131 -319 -131q-135 0 -239.5 87.5t-104.5 240.5q0 158 103.5 240t240.5 82q211 0 319 -127v147q0 86 -63.5 135t-167.5 49q-166 0 -293 -124l-88 149q168 160 416 160q182 0 296.5 -86t114.5 -273v-655h-215zM743 225v150q-74 102 -235 102 q-92 0 -151.5 -49t-59.5 -129t59.5 -128t151.5 -48q161 0 235 102zM428 -242q0 49 36 85t85 36t84 -36t35 -85q0 -51 -35 -85.5t-84 -34.5t-85 34.5t-36 85.5z" glyph-name="uni1EA1" horiz-adv-x="1097" unicode="ạ"/><glyph d="M469 1661q51 147 205 147q86 0 143 -47t57 -141q0 -66 -45 -137h-127q55 61 56 133q0 45 -23.5 68.5t-60.5 23.5q-70 0 -99 -80zM1112 0l-100 262h-647l-101 -262h-262l537 1366h299l536 -1366h-262zM688 1163l-256 -690h512z" glyph-name="uni1EA2" horiz-adv-x="1378" unicode="Ả"/><glyph d="M330 1319q51 147 205 147q86 0 143 -47t57 -141q0 -66 -45 -137h-127q55 61 55 133q0 45 -23.5 68.5t-59.5 23.5q-70 0 -99 -80zM743 0v106q-115 -131 -319 -131q-135 0 -239.5 87.5t-104.5 240.5q0 158 103.5 240t240.5 82q211 0 319 -127v147q0 86 -63.5 135t-167.5 49 q-166 0 -293 -124l-88 149q168 160 416 160q182 0 296.5 -86t114.5 -273v-655h-215zM743 225v150q-74 102 -235 102q-92 0 -151.5 -49t-59.5 -129t59.5 -128t151.5 -48q161 0 235 102z" glyph-name="uni1EA3" horiz-adv-x="1097" unicode="ả"/><glyph d="M1073 1597h-153l286 222h205zM846 1444l-158 147l-153 -147h-136l191 221h196l197 -221h-137zM1112 0l-100 262h-647l-101 -262h-262l537 1366h299l536 -1366h-262zM688 1163l-256 -690h512z" glyph-name="uni1EA4" horiz-adv-x="1378" unicode="Ấ"/><glyph d="M934 1343h-154l287 295h205zM707 1139l-158 196l-154 -196h-135l191 295h196l197 -295h-137zM743 0v106q-115 -131 -319 -131q-135 0 -239.5 87.5t-104.5 240.5q0 158 103.5 240t240.5 82q211 0 319 -127v147q0 86 -63.5 135t-167.5 49q-166 0 -293 -124l-88 149 q168 160 416 160q182 0 296.5 -86t114.5 -273v-655h-215zM743 225v150q-74 102 -235 102q-92 0 -151.5 -49t-59.5 -129t59.5 -128t151.5 -48q161 0 235 102z" glyph-name="uni1EA5" horiz-adv-x="1097" unicode="ấ"/><glyph d="M313 1597l-338 222h205l287 -222h-154zM846 1444l-158 147l-153 -147h-136l191 221h196l197 -221h-137zM1112 0l-100 262h-647l-101 -262h-262l537 1366h299l536 -1366h-262zM688 1163l-256 -690h512z" glyph-name="uni1EA6" horiz-adv-x="1378" unicode="Ầ"/><glyph d="M174 1343l-338 295h205l287 -295h-154zM707 1139l-158 196l-154 -196h-135l191 295h196l197 -295h-137zM743 0v106q-115 -131 -319 -131q-135 0 -239.5 87.5t-104.5 240.5q0 158 103.5 240t240.5 82q211 0 319 -127v147q0 86 -63.5 135t-167.5 49q-166 0 -293 -124 l-88 149q168 160 416 160q182 0 296.5 -86t114.5 -273v-655h-215zM743 225v150q-74 102 -235 102q-92 0 -151.5 -49t-59.5 -129t59.5 -128t151.5 -48q161 0 235 102z" glyph-name="uni1EA7" horiz-adv-x="1097" unicode="ầ"/><glyph d="M686 1731q51 111 205 110q86 0 143.5 -34.5t57.5 -106.5q0 -51 -45 -103h-127q55 47 55 101q0 68 -84 67q-70 0 -98 -59zM846 1444l-158 147l-153 -147h-136l191 221h196l197 -221h-137zM1112 0l-100 262h-647l-101 -262h-262l537 1366h299l536 -1366h-262zM688 1163 l-256 -690h512z" glyph-name="uni1EA8" horiz-adv-x="1378" unicode="Ẩ"/><glyph d="M547 1522q51 147 205 147q86 0 143 -47t57 -141q0 -66 -45 -138h-127q55 61 56 134q0 45 -24 68.5t-60 23.5q-70 0 -99 -80zM707 1139l-158 196l-154 -196h-135l191 295h196l197 -295h-137zM743 0v106q-115 -131 -319 -131q-135 0 -239.5 87.5t-104.5 240.5 q0 158 103.5 240t240.5 82q211 0 319 -127v147q0 86 -63.5 135t-167.5 49q-166 0 -293 -124l-88 149q168 160 416 160q182 0 296.5 -86t114.5 -273v-655h-215zM743 225v150q-74 102 -235 102q-92 0 -151.5 -49t-59.5 -129t59.5 -128t151.5 -48q161 0 235 102z" glyph-name="uni1EA9" horiz-adv-x="1097" unicode="ẩ"/><glyph d="M651 1759q-49 49 -88 49t-62.5 -27.5t-23.5 -82.5h-117q0 96 54.5 151.5t156.5 55.5q82 0 154 -72q53 -49 90 -49t60.5 27.5t23.5 82.5h119q0 -96 -54.5 -150t-156.5 -54q-82 -1 -156 69zM846 1444l-158 147l-153 -147h-136l191 221h196l197 -221h-137zM1112 0l-100 262 h-647l-101 -262h-262l537 1366h299l536 -1366h-262zM688 1163l-256 -690h512z" glyph-name="uni1EAA" horiz-adv-x="1378" unicode="Ẫ"/><glyph d="M512 1561q-49 66 -88 65q-37 0 -61.5 -37t-24.5 -110h-117q0 127 54.5 200.5t156.5 73.5q37 0 68.5 -16.5t47 -31.5t38.5 -46q53 -66 90 -66q84 0 84 148h119q0 -127 -54.5 -201t-156.5 -74q-37 0 -69 15.5t-48 33t-39 46.5zM707 1139l-158 196l-154 -196h-135l191 295 h196l197 -295h-137zM743 0v106q-115 -131 -319 -131q-135 0 -239.5 87.5t-104.5 240.5q0 158 103.5 240t240.5 82q211 0 319 -127v147q0 86 -63.5 135t-167.5 49q-166 0 -293 -124l-88 149q168 160 416 160q182 0 296.5 -86t114.5 -273v-655h-215zM743 225v150 q-74 102 -235 102q-92 0 -151.5 -49t-59.5 -129t59.5 -128t151.5 -48q161 0 235 102z" glyph-name="uni1EAB" horiz-adv-x="1097" unicode="ẫ"/><glyph d="M846 1481l-158 196l-153 -196h-136l191 295h196l197 -295h-137zM1112 0l-100 262h-647l-101 -262h-262l537 1366h299l536 -1366h-262zM688 1163l-256 -690h512zM567 -242q0 49 36 85t85 36t84 -36t35 -85q0 -51 -35 -85.5t-84 -34.5t-85 34.5t-36 85.5z" glyph-name="uni1EAC" horiz-adv-x="1378" unicode="Ậ"/><glyph d="M707 1139l-158 196l-154 -196h-135l191 295h196l197 -295h-137zM743 0v106q-115 -131 -319 -131q-135 0 -239.5 87.5t-104.5 240.5q0 158 103.5 240t240.5 82q211 0 319 -127v147q0 86 -63.5 135t-167.5 49q-166 0 -293 -124l-88 149q168 160 416 160q182 0 296.5 -86 t114.5 -273v-655h-215zM743 225v150q-74 102 -235 102q-92 0 -151.5 -49t-59.5 -129t59.5 -128t151.5 -48q161 0 235 102zM428 -242q0 49 36 85t85 36t84 -36t35 -85q0 -51 -35 -85.5t-84 -34.5t-85 34.5t-36 85.5z" glyph-name="uni1EAD" horiz-adv-x="1097" unicode="ậ"/><glyph d="M758 1647h-154l287 221h205zM688 1442q-225 0 -360 135l98 61q98 -102 262 -102t260 102l99 -61q-132 -135 -359 -135zM1112 0l-100 262h-647l-101 -262h-262l537 1366h299l536 -1366h-262zM688 1163l-256 -690h512z" glyph-name="uni1EAE" horiz-adv-x="1378" unicode="Ắ"/><glyph d="M618 1409h-153l287 295h204zM549 1135q-223 0 -361 180l99 82q98 -135 262 -135t260 135l98 -82q-133 -180 -358 -180zM743 0v106q-115 -131 -319 -131q-135 0 -239.5 87.5t-104.5 240.5q0 158 103.5 240t240.5 82q211 0 319 -127v147q0 86 -63.5 135t-167.5 49 q-166 0 -293 -124l-88 149q168 160 416 160q182 0 296.5 -86t114.5 -273v-655h-215zM743 225v150q-74 102 -235 102q-92 0 -151.5 -49t-59.5 -129t59.5 -128t151.5 -48q161 0 235 102z" glyph-name="uni1EAF" horiz-adv-x="1097" unicode="ắ"/><glyph d="M610 1647l-338 221h205l287 -221h-154zM688 1442q-225 0 -360 135l98 61q98 -102 262 -102t260 102l99 -61q-132 -135 -359 -135zM1112 0l-100 262h-647l-101 -262h-262l537 1366h299l536 -1366h-262zM688 1163l-256 -690h512z" glyph-name="uni1EB0" horiz-adv-x="1378" unicode="Ằ"/><glyph d="M471 1409l-338 295h205l287 -295h-154zM549 1135q-223 0 -361 180l99 82q98 -135 262 -135t260 135l98 -82q-133 -180 -358 -180zM743 0v106q-115 -131 -319 -131q-135 0 -239.5 87.5t-104.5 240.5q0 158 103.5 240t240.5 82q211 0 319 -127v147q0 86 -63.5 135 t-167.5 49q-166 0 -293 -124l-88 149q168 160 416 160q182 0 296.5 -86t114.5 -273v-655h-215zM743 225v150q-74 102 -235 102q-92 0 -151.5 -49t-59.5 -129t59.5 -128t151.5 -48q161 0 235 102z" glyph-name="uni1EB1" horiz-adv-x="1097" unicode="ằ"/><glyph d="M469 1782q51 111 205 110q86 0 143 -34.5t57 -106.5q0 -51 -45 -102h-127q55 47 56 100q0 68 -84 68q-70 0 -99 -60zM688 1442q-225 0 -360 135l98 61q98 -102 262 -102t260 102l99 -61q-132 -135 -359 -135zM1112 0l-100 262h-647l-101 -262h-262l537 1366h299 l536 -1366h-262zM688 1163l-256 -690h512z" glyph-name="uni1EB2" horiz-adv-x="1378" unicode="Ẳ"/><glyph d="M330 1589q51 147 205 148q86 0 143 -47.5t57 -141.5q0 -66 -45 -137h-127q55 61 55 133q0 45 -23.5 68.5t-59.5 23.5q-70 0 -99 -80zM549 1135q-223 0 -361 180l99 82q98 -135 262 -135t260 135l98 -82q-133 -180 -358 -180zM743 0v106q-115 -131 -319 -131 q-135 0 -239.5 87.5t-104.5 240.5q0 158 103.5 240t240.5 82q211 0 319 -127v147q0 86 -63.5 135t-167.5 49q-166 0 -293 -124l-88 149q168 160 416 160q182 0 296.5 -86t114.5 -273v-655h-215zM743 225v150q-74 102 -235 102q-92 0 -151.5 -49t-59.5 -129t59.5 -128 t151.5 -48q161 0 235 102z" glyph-name="uni1EB3" horiz-adv-x="1097" unicode="ẳ"/><glyph d="M651 1714q-49 49 -88 49t-62.5 -27.5t-23.5 -82.5h-117q0 96 54.5 151.5t156.5 55.5q82 0 154 -72q53 -49 90 -49t60.5 27.5t23.5 82.5h119q0 -96 -54.5 -150t-156.5 -54q-82 -1 -156 69zM688 1442q-225 0 -360 135l98 61q98 -102 262 -102t260 102l99 -61 q-132 -135 -359 -135zM1112 0l-100 262h-647l-101 -262h-262l537 1366h299l536 -1366h-262zM688 1163l-256 -690h512z" glyph-name="uni1EB4" horiz-adv-x="1378" unicode="Ẵ"/><glyph d="M512 1499q-49 66 -88 66q-37 0 -61.5 -37t-24.5 -111h-117q0 127 54.5 201t156.5 74q37 0 68.5 -16.5t47 -32t38.5 -46.5q53 -66 90 -65q84 0 84 147h119q0 -127 -54.5 -200.5t-156.5 -73.5q-37 0 -69 15.5t-48 32.5t-39 46zM549 1135q-223 0 -361 180l99 82 q98 -135 262 -135t260 135l98 -82q-133 -180 -358 -180zM743 0v106q-115 -131 -319 -131q-135 0 -239.5 87.5t-104.5 240.5q0 158 103.5 240t240.5 82q211 0 319 -127v147q0 86 -63.5 135t-167.5 49q-166 0 -293 -124l-88 149q168 160 416 160q182 0 296.5 -86t114.5 -273 v-655h-215zM743 225v150q-74 102 -235 102q-92 0 -151.5 -49t-59.5 -129t59.5 -128t151.5 -48q161 0 235 102z" glyph-name="uni1EB5" horiz-adv-x="1097" unicode="ẵ"/><glyph d="M688 1477q-223 0 -360 180l98 82q98 -135 262 -135t260 135l99 -82q-134 -180 -359 -180zM1112 0l-100 262h-647l-101 -262h-262l537 1366h299l536 -1366h-262zM688 1163l-256 -690h512zM567 -242q0 49 36 85t85 36t84 -36t35 -85q0 -51 -35 -85.5t-84 -34.5t-85 34.5 t-36 85.5z" glyph-name="uni1EB6" horiz-adv-x="1378" unicode="Ặ"/><glyph d="M549 1135q-223 0 -361 180l99 82q98 -135 262 -135t260 135l98 -82q-133 -180 -358 -180zM743 0v106q-115 -131 -319 -131q-135 0 -239.5 87.5t-104.5 240.5q0 158 103.5 240t240.5 82q211 0 319 -127v147q0 86 -63.5 135t-167.5 49q-166 0 -293 -124l-88 149 q168 160 416 160q182 0 296.5 -86t114.5 -273v-655h-215zM743 225v150q-74 102 -235 102q-92 0 -151.5 -49t-59.5 -129t59.5 -128t151.5 -48q161 0 235 102zM428 -242q0 49 36 85t85 36t84 -36t35 -85q0 -51 -35 -85.5t-84 -34.5t-85 34.5t-36 85.5z" glyph-name="uni1EB7" horiz-adv-x="1097" unicode="ặ"/><glyph d="M145 0v1366h936v-211h-696v-354h682v-211h-682v-379h696v-211h-936zM506 -242q0 49 36 85t85 36t83.5 -36t34.5 -85q0 -51 -34.5 -85.5t-83.5 -34.5t-85 34.5t-36 85.5z" glyph-name="uni1EB8" horiz-adv-x="1181" unicode="Ẹ"/><glyph d="M78 496q0 217 142 367.5t360 150.5q219 0 353 -151.5t134 -387.5v-51h-764q12 -117 96 -194.5t219 -77.5q76 0 153 28.5t128 79.5l98 -141q-150 -143 -401 -144q-225 0 -371.5 145t-146.5 376zM580 838q-127 0 -199 -79t-80 -184h557q-4 102 -74.5 182.5t-203.5 80.5z M459 -242q0 49 35.5 85t85 36t84 -36t34.5 -85q0 -51 -34.5 -85.5t-84 -34.5t-85 34.5t-35.5 85.5z" glyph-name="uni1EB9" horiz-adv-x="1140" unicode="ẹ"/><glyph d="M408 1661q51 147 204 147q86 0 143.5 -47t57.5 -141q0 -66 -45 -137h-127q55 61 55 133q0 45 -23.5 68.5t-60.5 23.5q-70 0 -98 -80zM145 0v1366h936v-211h-696v-354h682v-211h-682v-379h696v-211h-936z" glyph-name="uni1EBA" horiz-adv-x="1181" unicode="Ẻ"/><glyph d="M360 1319q51 147 205 147q86 0 143.5 -47t57.5 -141q0 -66 -45 -137h-127q55 61 55 133q0 45 -23.5 68.5t-60.5 23.5q-70 0 -98 -80zM78 496q0 217 142 367.5t360 150.5q219 0 353 -151.5t134 -387.5v-51h-764q12 -117 96 -194.5t219 -77.5q76 0 153 28.5t128 79.5 l98 -141q-150 -143 -401 -144q-225 0 -371.5 145t-146.5 376zM580 838q-127 0 -199 -79t-80 -184h557q-4 102 -74.5 182.5t-203.5 80.5z" glyph-name="uni1EBB" horiz-adv-x="1140" unicode="ẻ"/><glyph d="M590 1571q-49 66 -88 65q-37 0 -61.5 -36.5t-24.5 -110.5h-117q0 127 54.5 200.5t156.5 73.5q37 0 68.5 -16t47 -31.5t38.5 -46.5q53 -66 90 -65q84 0 84 147h118q0 -127 -54 -200.5t-157 -73.5q-37 0 -68.5 15t-47.5 32.5t-39 46.5zM145 0v1366h936v-211h-696v-354h682 v-211h-682v-379h696v-211h-936z" glyph-name="uni1EBC" horiz-adv-x="1181" unicode="Ẽ"/><glyph d="M543 1229q-49 66 -88 65q-37 0 -61.5 -36.5t-24.5 -110.5h-117q0 127 54 200.5t157 73.5q37 0 68.5 -16t47 -31.5t37.5 -46.5q53 -66 91 -65q84 0 84 147h118q0 -127 -54 -200.5t-157 -73.5q-37 0 -68.5 15t-47.5 32.5t-39 46.5zM78 496q0 217 142 367.5t360 150.5 q219 0 353 -151.5t134 -387.5v-51h-764q12 -117 96 -194.5t219 -77.5q76 0 153 28.5t128 79.5l98 -141q-150 -143 -401 -144q-225 0 -371.5 145t-146.5 376zM580 838q-127 0 -199 -79t-80 -184h557q-4 102 -74.5 182.5t-203.5 80.5z" glyph-name="uni1EBD" horiz-adv-x="1140" unicode="ẽ"/><glyph d="M1012 1597h-154l287 222h205zM784 1444l-157 147l-154 -147h-135l190 221h197l197 -221h-138zM145 0v1366h936v-211h-696v-354h682v-211h-682v-379h696v-211h-936z" glyph-name="uni1EBE" horiz-adv-x="1181" unicode="Ế"/><glyph d="M965 1343h-154l287 295h205zM737 1139l-157 196l-154 -196h-135l190 295h197l196 -295h-137zM78 496q0 217 142 367.5t360 150.5q219 0 353 -151.5t134 -387.5v-51h-764q12 -117 96 -194.5t219 -77.5q76 0 153 28.5t128 79.5l98 -141q-150 -143 -401 -144 q-225 0 -371.5 145t-146.5 376zM580 838q-127 0 -199 -79t-80 -184h557q-4 102 -74.5 182.5t-203.5 80.5z" glyph-name="uni1EBF" horiz-adv-x="1140" unicode="ế"/><glyph d="M252 1597l-338 222h205l287 -222h-154zM784 1444l-157 147l-154 -147h-135l190 221h197l197 -221h-138zM145 0v1366h936v-211h-696v-354h682v-211h-682v-379h696v-211h-936z" glyph-name="uni1EC0" horiz-adv-x="1181" unicode="Ề"/><glyph d="M205 1343l-338 295h205l286 -295h-153zM737 1139l-157 196l-154 -196h-135l190 295h197l196 -295h-137zM78 496q0 217 142 367.5t360 150.5q219 0 353 -151.5t134 -387.5v-51h-764q12 -117 96 -194.5t219 -77.5q76 0 153 28.5t128 79.5l98 -141q-150 -143 -401 -144 q-225 0 -371.5 145t-146.5 376zM580 838q-127 0 -199 -79t-80 -184h557q-4 102 -74.5 182.5t-203.5 80.5z" glyph-name="uni1EC1" horiz-adv-x="1140" unicode="ề"/><glyph d="M625 1731q51 111 204 110q86 0 143.5 -34.5t57.5 -106.5q0 -51 -45 -103h-127q55 47 55 101q0 68 -84 67q-70 0 -98 -59zM784 1444l-157 147l-154 -147h-135l190 221h197l197 -221h-138zM145 0v1366h936v-211h-696v-354h682v-211h-682v-379h696v-211h-936z" glyph-name="uni1EC2" horiz-adv-x="1181" unicode="Ể"/><glyph d="M578 1522q51 147 204 147q86 0 143.5 -47t57.5 -141q0 -66 -45 -138h-127q55 61 55 134q0 45 -23.5 68.5t-60.5 23.5q-70 0 -98 -80zM737 1139l-157 196l-154 -196h-135l190 295h197l196 -295h-137zM78 496q0 217 142 367.5t360 150.5q219 0 353 -151.5t134 -387.5v-51 h-764q12 -117 96 -194.5t219 -77.5q76 0 153 28.5t128 79.5l98 -141q-150 -143 -401 -144q-225 0 -371.5 145t-146.5 376zM580 838q-127 0 -199 -79t-80 -184h557q-4 102 -74.5 182.5t-203.5 80.5z" glyph-name="uni1EC3" horiz-adv-x="1140" unicode="ể"/><glyph d="M590 1759q-49 49 -88 49t-62.5 -27.5t-23.5 -82.5h-117q0 96 54.5 151.5t156.5 55.5q82 0 154 -72q53 -49 90 -49t60.5 27.5t23.5 82.5h118q0 -96 -54 -150t-157 -54q-81 -1 -155 69zM784 1444l-157 147l-154 -147h-135l190 221h197l197 -221h-138zM145 0v1366h936v-211 h-696v-354h682v-211h-682v-379h696v-211h-936z" glyph-name="uni1EC4" horiz-adv-x="1181" unicode="Ễ"/><glyph d="M543 1561q-49 66 -88 65q-37 0 -61.5 -37t-24.5 -110h-117q0 127 54 200.5t157 73.5q37 0 68.5 -16.5t47 -31.5t37.5 -46q53 -66 91 -66q84 0 84 148h118q0 -127 -54 -201t-157 -74q-37 0 -68.5 15.5t-47.5 33t-39 46.5zM737 1139l-157 196l-154 -196h-135l190 295h197 l196 -295h-137zM78 496q0 217 142 367.5t360 150.5q219 0 353 -151.5t134 -387.5v-51h-764q12 -117 96 -194.5t219 -77.5q76 0 153 28.5t128 79.5l98 -141q-150 -143 -401 -144q-225 0 -371.5 145t-146.5 376zM580 838q-127 0 -199 -79t-80 -184h557q-4 102 -74.5 182.5 t-203.5 80.5z" glyph-name="uni1EC5" horiz-adv-x="1140" unicode="ễ"/><glyph d="M784 1481l-157 196l-154 -196h-135l190 295h197l197 -295h-138zM145 0v1366h936v-211h-696v-354h682v-211h-682v-379h696v-211h-936zM506 -242q0 49 36 85t85 36t83.5 -36t34.5 -85q0 -51 -34.5 -85.5t-83.5 -34.5t-85 34.5t-36 85.5z" glyph-name="uni1EC6" horiz-adv-x="1181" unicode="Ệ"/><glyph d="M737 1139l-157 196l-154 -196h-135l190 295h197l196 -295h-137zM78 496q0 217 142 367.5t360 150.5q219 0 353 -151.5t134 -387.5v-51h-764q12 -117 96 -194.5t219 -77.5q76 0 153 28.5t128 79.5l98 -141q-150 -143 -401 -144q-225 0 -371.5 145t-146.5 376zM580 838 q-127 0 -199 -79t-80 -184h557q-4 102 -74.5 182.5t-203.5 80.5zM459 -242q0 49 35.5 85t85 36t84 -36t34.5 -85q0 -51 -34.5 -85.5t-84 -34.5t-85 34.5t-35.5 85.5z" glyph-name="uni1EC7" horiz-adv-x="1140" unicode="ệ"/><glyph d="M47 1661q51 147 205 147q86 0 143.5 -47t57.5 -141q0 -66 -45 -137h-127q55 61 55 133q0 45 -23.5 68.5t-60.5 23.5q-70 0 -98 -80zM145 0v1366h240v-1366h-240z" glyph-name="uni1EC8" horiz-adv-x="530" unicode="Ỉ"/><glyph d="M27 1319q51 147 204 147q86 0 143.5 -47t57.5 -141q0 -66 -45 -137h-127q55 61 55 133q0 45 -23.5 68.5t-60.5 23.5q-70 0 -98 -80zM139 0v989h215v-989h-215z" glyph-name="uni1EC9" horiz-adv-x="493" unicode="ỉ"/><glyph d="M145 0v1366h240v-1366h-240zM145 -242q0 49 36 85t85 36t84 -36t35 -85q0 -51 -35 -85.5t-84 -34.5t-85 34.5t-36 85.5z" glyph-name="uni1ECA" horiz-adv-x="530" unicode="Ị"/><glyph d="M246 1141q-53 0 -93 39t-40 94t40 94t93 39q55 0 94 -39t39 -94t-39 -94t-94 -39zM139 0v989h215v-989h-215zM125 -242q0 49 36 85t85 36t84 -36t35 -85q0 -51 -35 -85.5t-84 -34.5t-85 34.5t-36 85.5z" glyph-name="uni1ECB" horiz-adv-x="493" unicode="ị"/><glyph d="M84 682q0 307 196.5 507t501.5 200t502 -200t197 -507t-197 -507t-502 -200t-501.5 200t-196.5 507zM1235 682q0 215 -125 354.5t-328 139.5q-205 0 -328.5 -139.5t-123.5 -354.5t124 -354.5t328 -139.5q203 0 328 140.5t125 353.5zM659 -242q0 49 36 85t85 36t84 -36 t35 -85q0 -51 -35 -85.5t-84 -34.5t-85 34.5t-36 85.5z" glyph-name="uni1ECC" horiz-adv-x="1566" unicode="Ọ"/><glyph d="M586 -25q-229 0 -368.5 150.5t-139.5 370t139 369t369 149.5q231 0 370.5 -149.5t139.5 -368.5q0 -221 -139.5 -371t-370.5 -150zM586 166q133 0 209.5 95t76.5 235q0 137 -76.5 232t-209.5 95q-131 0 -208 -95t-77 -232q0 -139 77 -234.5t208 -95.5zM467 -242 q0 49 36 85t85 36t84 -36t35 -85q0 -51 -35 -85.5t-84 -34.5t-85 34.5t-36 85.5z" glyph-name="uni1ECD" horiz-adv-x="1173" unicode="ọ"/><glyph d="M561 1661q51 147 205 147q86 0 143.5 -47t57.5 -141q0 -66 -45 -137h-127q55 61 55 133q0 45 -23.5 68.5t-60.5 23.5q-70 0 -98 -80zM84 682q0 307 196.5 507t501.5 200t502 -200t197 -507t-197 -507t-502 -200t-501.5 200t-196.5 507zM1235 682q0 215 -125 354.5 t-328 139.5q-205 0 -328.5 -139.5t-123.5 -354.5t124 -354.5t328 -139.5q203 0 328 140.5t125 353.5z" glyph-name="uni1ECE" horiz-adv-x="1566" unicode="Ỏ"/><glyph d="M367 1319q51 147 204 147q86 0 143.5 -47t57.5 -141q0 -66 -45 -137h-127q55 61 55 133q0 45 -23.5 68.5t-60.5 23.5q-70 0 -98 -80zM586 -25q-229 0 -368.5 150.5t-139.5 370t139 369t369 149.5q231 0 370.5 -149.5t139.5 -368.5q0 -221 -139.5 -371t-370.5 -150z M586 166q133 0 209.5 95t76.5 235q0 137 -76.5 232t-209.5 95q-131 0 -208 -95t-77 -232q0 -139 77 -234.5t208 -95.5z" glyph-name="uni1ECF" horiz-adv-x="1173" unicode="ỏ"/><glyph d="M1165 1597h-153l286 222h205zM938 1444l-158 147l-153 -147h-135l190 221h197l196 -221h-137zM84 682q0 307 196.5 507t501.5 200t502 -200t197 -507t-197 -507t-502 -200t-501.5 200t-196.5 507zM1235 682q0 215 -125 354.5t-328 139.5q-205 0 -328.5 -139.5 t-123.5 -354.5t124 -354.5t328 -139.5q203 0 328 140.5t125 353.5z" glyph-name="uni1ED0" horiz-adv-x="1566" unicode="Ố"/><glyph d="M971 1343h-154l287 295h205zM743 1139l-157 196l-154 -196h-135l190 295h197l197 -295h-138zM586 -25q-229 0 -368.5 150.5t-139.5 370t139 369t369 149.5q231 0 370.5 -149.5t139.5 -368.5q0 -221 -139.5 -371t-370.5 -150zM586 166q133 0 209.5 95t76.5 235 q0 137 -76.5 232t-209.5 95q-131 0 -208 -95t-77 -232q0 -139 77 -234.5t208 -95.5z" glyph-name="uni1ED1" horiz-adv-x="1173" unicode="ố"/><glyph d="M406 1597l-338 222h204l287 -222h-153zM938 1444l-158 147l-153 -147h-135l190 221h197l196 -221h-137zM84 682q0 307 196.5 507t501.5 200t502 -200t197 -507t-197 -507t-502 -200t-501.5 200t-196.5 507zM1235 682q0 215 -125 354.5t-328 139.5q-205 0 -328.5 -139.5 t-123.5 -354.5t124 -354.5t328 -139.5q203 0 328 140.5t125 353.5z" glyph-name="uni1ED2" horiz-adv-x="1566" unicode="Ồ"/><glyph d="M211 1343l-338 295h205l287 -295h-154zM743 1139l-157 196l-154 -196h-135l190 295h197l197 -295h-138zM586 -25q-229 0 -368.5 150.5t-139.5 370t139 369t369 149.5q231 0 370.5 -149.5t139.5 -368.5q0 -221 -139.5 -371t-370.5 -150zM586 166q133 0 209.5 95t76.5 235 q0 137 -76.5 232t-209.5 95q-131 0 -208 -95t-77 -232q0 -139 77 -234.5t208 -95.5z" glyph-name="uni1ED3" horiz-adv-x="1173" unicode="ồ"/><glyph d="M778 1731q51 111 205 110q86 0 143.5 -34.5t57.5 -106.5q0 -51 -45 -103h-127q55 47 55 101q0 68 -84 67q-70 0 -98 -59zM938 1444l-158 147l-153 -147h-135l190 221h197l196 -221h-137zM84 682q0 307 196.5 507t501.5 200t502 -200t197 -507t-197 -507t-502 -200 t-501.5 200t-196.5 507zM1235 682q0 215 -125 354.5t-328 139.5q-205 0 -328.5 -139.5t-123.5 -354.5t124 -354.5t328 -139.5q203 0 328 140.5t125 353.5z" glyph-name="uni1ED4" horiz-adv-x="1566" unicode="Ổ"/><glyph d="M584 1522q51 147 204 147q86 0 143.5 -47t57.5 -141q0 -66 -45 -138h-127q55 61 55 134q0 45 -23.5 68.5t-60.5 23.5q-70 0 -98 -80zM743 1139l-157 196l-154 -196h-135l190 295h197l197 -295h-138zM586 -25q-229 0 -368.5 150.5t-139.5 370t139 369t369 149.5 q231 0 370.5 -149.5t139.5 -368.5q0 -221 -139.5 -371t-370.5 -150zM586 166q133 0 209.5 95t76.5 235q0 137 -76.5 232t-209.5 95q-131 0 -208 -95t-77 -232q0 -139 77 -234.5t208 -95.5z" glyph-name="uni1ED5" horiz-adv-x="1173" unicode="ổ"/><glyph d="M743 1759q-49 49 -88 49t-62.5 -27.5t-23.5 -82.5h-116q0 96 54 151.5t157 55.5q82 0 153 -72q53 -49 90 -49t60.5 27.5t23.5 82.5h119q0 -96 -55.5 -150t-155.5 -54q-82 -1 -156 69zM938 1444l-158 147l-153 -147h-135l190 221h197l196 -221h-137zM84 682 q0 307 196.5 507t501.5 200t502 -200t197 -507t-197 -507t-502 -200t-501.5 200t-196.5 507zM1235 682q0 215 -125 354.5t-328 139.5q-205 0 -328.5 -139.5t-123.5 -354.5t124 -354.5t328 -139.5q203 0 328 140.5t125 353.5z" glyph-name="uni1ED6" horiz-adv-x="1566" unicode="Ỗ"/><glyph d="M549 1561q-49 66 -88 65q-37 0 -61.5 -37t-24.5 -110h-117q0 127 54.5 200.5t156.5 73.5q37 0 68.5 -16.5t47 -31.5t38.5 -46q53 -66 90 -66q84 0 84 148h118q0 -127 -54 -201t-156 -74q-37 0 -69 15.5t-48 33t-39 46.5zM743 1139l-157 196l-154 -196h-135l190 295h197 l197 -295h-138zM586 -25q-229 0 -368.5 150.5t-139.5 370t139 369t369 149.5q231 0 370.5 -149.5t139.5 -368.5q0 -221 -139.5 -371t-370.5 -150zM586 166q133 0 209.5 95t76.5 235q0 137 -76.5 232t-209.5 95q-131 0 -208 -95t-77 -232q0 -139 77 -234.5t208 -95.5z" glyph-name="uni1ED7" horiz-adv-x="1173" unicode="ỗ"/><glyph d="M938 1481l-158 196l-153 -196h-135l190 295h197l196 -295h-137zM84 682q0 307 196.5 507t501.5 200t502 -200t197 -507t-197 -507t-502 -200t-501.5 200t-196.5 507zM1235 682q0 215 -125 354.5t-328 139.5q-205 0 -328.5 -139.5t-123.5 -354.5t124 -354.5t328 -139.5 q203 0 328 140.5t125 353.5zM659 -242q0 49 36 85t85 36t84 -36t35 -85q0 -51 -35 -85.5t-84 -34.5t-85 34.5t-36 85.5z" glyph-name="uni1ED8" horiz-adv-x="1566" unicode="Ộ"/><glyph d="M743 1139l-157 196l-154 -196h-135l190 295h197l197 -295h-138zM586 -25q-229 0 -368.5 150.5t-139.5 370t139 369t369 149.5q231 0 370.5 -149.5t139.5 -368.5q0 -221 -139.5 -371t-370.5 -150zM586 166q133 0 209.5 95t76.5 235q0 137 -76.5 232t-209.5 95 q-131 0 -208 -95t-77 -232q0 -139 77 -234.5t208 -95.5zM467 -242q0 49 36 85t85 36t84 -36t35 -85q0 -51 -35 -85.5t-84 -34.5t-85 34.5t-36 85.5z" glyph-name="uni1ED9" horiz-adv-x="1173" unicode="ộ"/><glyph d="M1188 1776l-338 -295h-154l287 295h205zM1499 1362q0 -162 -139 -266q121 -178 121 -414q0 -307 -197 -507t-502 -200t-501.5 200t-196.5 507t196.5 507t501.5 200q324 0 523 -222q78 61 92 140q-8 -4 -27 -4q-39 0 -64.5 27.5t-25.5 68.5q0 43 29.5 73.5t72.5 30.5 q49 0 83 -37.5t34 -103.5zM782 188q203 0 328 140.5t125 353.5q0 215 -125 354.5t-328 139.5q-205 0 -328.5 -139.5t-123.5 -354.5t123.5 -354.5t328.5 -139.5z" glyph-name="uni1EDA" horiz-adv-x="1566" unicode="Ớ"/><glyph d="M993 1434l-338 -295h-153l286 295h205zM1108 1087q0 -150 -125 -253q113 -137 113 -338q0 -221 -139.5 -371t-370.5 -150q-229 0 -368.5 150.5t-139.5 370t139 369t369 149.5q199 0 334 -115q74 63 86 135q-8 -4 -27 -4q-39 0 -64.5 26.5t-25.5 69.5q0 41 29.5 72 t72.5 31q49 0 83 -38t34 -104zM586 166q133 0 209.5 95t76.5 235q0 137 -76.5 232t-209.5 95q-131 0 -208 -95t-77 -232q0 -139 77 -234.5t208 -95.5z" glyph-name="uni1EDB" horiz-adv-x="1173" unicode="ớ"/><glyph d="M856 1481h-154l-337 295h204zM1499 1362q0 -162 -139 -266q121 -178 121 -414q0 -307 -197 -507t-502 -200t-501.5 200t-196.5 507t196.5 507t501.5 200q324 0 523 -222q78 61 92 140q-8 -4 -27 -4q-39 0 -64.5 27.5t-25.5 68.5q0 43 29.5 73.5t72.5 30.5q49 0 83 -37.5 t34 -103.5zM782 188q203 0 328 140.5t125 353.5q0 215 -125 354.5t-328 139.5q-205 0 -328.5 -139.5t-123.5 -354.5t123.5 -354.5t328.5 -139.5z" glyph-name="uni1EDC" horiz-adv-x="1566" unicode="Ờ"/><glyph d="M662 1139h-154l-338 295h205zM1108 1087q0 -150 -125 -253q113 -137 113 -338q0 -221 -139.5 -371t-370.5 -150q-229 0 -368.5 150.5t-139.5 370t139 369t369 149.5q199 0 334 -115q74 63 86 135q-8 -4 -27 -4q-39 0 -64.5 26.5t-25.5 69.5q0 41 29.5 72t72.5 31 q49 0 83 -38t34 -104zM586 166q133 0 209.5 95t76.5 235q0 137 -76.5 232t-209.5 95q-131 0 -208 -95t-77 -232q0 -139 77 -234.5t208 -95.5z" glyph-name="uni1EDD" horiz-adv-x="1173" unicode="ờ"/><glyph d="M766 1708q-70 0 -98 -80l-107 33q51 147 205 147q86 0 143.5 -47t57.5 -141q0 -66 -45 -137h-127q55 61 55 133q0 45 -23.5 68.5t-60.5 23.5zM1499 1362q0 -162 -139 -266q121 -178 121 -414q0 -307 -197 -507t-502 -200t-501.5 200t-196.5 507t196.5 507t501.5 200 q324 0 523 -222q78 61 92 140q-8 -4 -27 -4q-39 0 -64.5 27.5t-25.5 68.5q0 43 29.5 73.5t72.5 30.5q49 0 83 -37.5t34 -103.5zM782 188q203 0 328 140.5t125 353.5q0 215 -125 354.5t-328 139.5q-205 0 -328.5 -139.5t-123.5 -354.5t123.5 -354.5t328.5 -139.5z" glyph-name="uni1EDE" horiz-adv-x="1566" unicode="Ở"/><glyph d="M571 1366q-70 0 -98 -80l-106 33q51 147 204 147q86 0 143.5 -47t57.5 -141q0 -66 -45 -137h-127q55 61 55 133q0 45 -23.5 68.5t-60.5 23.5zM1108 1087q0 -150 -125 -253q113 -137 113 -338q0 -221 -139.5 -371t-370.5 -150q-229 0 -368.5 150.5t-139.5 370t139 369 t369 149.5q199 0 334 -115q74 63 86 135q-8 -4 -27 -4q-39 0 -64.5 26.5t-25.5 69.5q0 41 29.5 72t72.5 31q49 0 83 -38t34 -104zM586 166q133 0 209.5 95t76.5 235q0 137 -76.5 232t-209.5 95q-131 0 -208 -95t-77 -232q0 -139 77 -234.5t208 -95.5z" glyph-name="uni1EDF" horiz-adv-x="1173" unicode="ở"/><glyph d="M655 1636q-37 0 -61.5 -36.5t-24.5 -110.5h-116q0 127 54 200.5t157 73.5q37 0 68.5 -16t47 -31.5t37.5 -46.5q53 -66 90 -65q84 0 84 147h119q0 -127 -54.5 -200.5t-156.5 -73.5q-37 0 -68.5 15t-48 32.5t-39.5 46.5q-49 65 -88 65zM1499 1362q0 -162 -139 -266 q121 -178 121 -414q0 -307 -197 -507t-502 -200t-501.5 200t-196.5 507t196.5 507t501.5 200q324 0 523 -222q78 61 92 140q-8 -4 -27 -4q-39 0 -64.5 27.5t-25.5 68.5q0 43 29.5 73.5t72.5 30.5q49 0 83 -37.5t34 -103.5zM782 188q203 0 328 140.5t125 353.5 q0 215 -125 354.5t-328 139.5q-205 0 -328.5 -139.5t-123.5 -354.5t123.5 -354.5t328.5 -139.5z" glyph-name="uni1EE0" horiz-adv-x="1566" unicode="Ỡ"/><glyph d="M461 1294q-37 0 -61.5 -36.5t-24.5 -110.5h-117q0 127 54.5 200.5t156.5 73.5q37 0 68.5 -16t47 -31.5t38.5 -46.5q53 -66 90 -65q84 0 84 147h118q0 -127 -54 -200.5t-156 -73.5q-37 0 -69 15t-48.5 32.5t-38.5 46.5q-49 65 -88 65zM1108 1087q0 -150 -125 -253 q113 -137 113 -338q0 -221 -139.5 -371t-370.5 -150q-229 0 -368.5 150.5t-139.5 370t139 369t369 149.5q199 0 334 -115q74 63 86 135q-8 -4 -27 -4q-39 0 -64.5 26.5t-25.5 69.5q0 41 29.5 72t72.5 31q49 0 83 -38t34 -104zM586 166q133 0 209.5 95t76.5 235 q0 137 -76.5 232t-209.5 95q-131 0 -208 -95t-77 -232q0 -139 77 -234.5t208 -95.5z" glyph-name="uni1EE1" horiz-adv-x="1173" unicode="ỡ"/><glyph d="M1499 1362q0 -162 -139 -266q121 -178 121 -414q0 -307 -197 -507t-502 -200t-501.5 200t-196.5 507t196.5 507t501.5 200q324 0 523 -222q78 61 92 140q-8 -4 -27 -4q-39 0 -64.5 27.5t-25.5 68.5q0 43 29.5 73.5t72.5 30.5q49 0 83 -37.5t34 -103.5zM782 188 q203 0 328 140.5t125 353.5q0 215 -125 354.5t-328 139.5q-205 0 -328.5 -139.5t-123.5 -354.5t123.5 -354.5t328.5 -139.5zM780 -121q49 0 84 -36t35 -85q0 -51 -35 -85.5t-84 -34.5t-85 34.5t-36 85.5q0 49 36 85t85 36z" glyph-name="uni1EE2" horiz-adv-x="1566" unicode="Ợ"/><glyph d="M1108 1087q0 -150 -125 -253q113 -137 113 -338q0 -221 -139.5 -371t-370.5 -150q-229 0 -368.5 150.5t-139.5 370t139 369t369 149.5q199 0 334 -115q74 63 86 135q-8 -4 -27 -4q-39 0 -64.5 26.5t-25.5 69.5q0 41 29.5 72t72.5 31q49 0 83 -38t34 -104zM586 166 q133 0 209.5 95t76.5 235q0 137 -76.5 232t-209.5 95q-131 0 -208 -95t-77 -232q0 -139 77 -234.5t208 -95.5zM586 -121q49 0 84 -36t35 -85q0 -51 -35 -85.5t-84 -34.5t-85 34.5t-36 85.5q0 49 36 85t85 36z" glyph-name="uni1EE3" horiz-adv-x="1173" unicode="ợ"/><glyph d="M145 539v827h242v-819q0 -166 91 -262.5t259 -96.5t258 96.5t90 262.5v819h242v-825q0 -262 -150.5 -414t-439.5 -152q-291 0 -441.5 152t-150.5 412zM616 -242q0 49 36 85t85 36t84 -36t35 -85q0 -51 -35 -85.5t-84 -34.5t-85 34.5t-36 85.5z" glyph-name="uni1EE4" horiz-adv-x="1472" unicode="Ụ"/><glyph d="M807 0v131q-139 -156 -350 -156q-317 0 -318 314v700h215v-622q0 -109 51.5 -155t147.5 -46q78 0 145.5 37t108.5 92v694h215v-989h-215zM459 -242q0 49 35.5 85t85 36t84 -36t34.5 -85q0 -51 -34.5 -85.5t-84 -34.5t-85 34.5t-35.5 85.5z" glyph-name="uni1EE5" unicode="ụ"/><glyph d="M518 1661q51 147 205 147q86 0 143.5 -47t57.5 -141q0 -66 -45 -137h-127q55 61 55 133q0 45 -23.5 68.5t-60.5 23.5q-70 0 -98 -80zM145 539v827h242v-819q0 -166 91 -262.5t259 -96.5t258 96.5t90 262.5v819h242v-825q0 -262 -150.5 -414t-439.5 -152 q-291 0 -441.5 152t-150.5 412z" glyph-name="uni1EE6" horiz-adv-x="1472" unicode="Ủ"/><glyph d="M360 1319q51 147 205 147q86 0 143.5 -47t57.5 -141q0 -66 -45 -137h-127q55 61 55 133q0 45 -23.5 68.5t-60.5 23.5q-70 0 -98 -80zM807 0v131q-139 -156 -350 -156q-317 0 -318 314v700h215v-622q0 -109 51.5 -155t147.5 -46q78 0 145.5 37t108.5 92v694h215v-989h-215 z" glyph-name="uni1EE7" unicode="ủ"/><glyph d="M1145 1776l-338 -295h-154l287 295h205zM1556 1489q0 -96 -60 -183t-169 -135v-630q0 -262 -150.5 -414t-439.5 -152q-291 0 -441.5 152t-150.5 412v827h242v-819q0 -166 91 -262.5t259 -96.5t258 96.5t90 262.5v819h242v-98q49 29 85 75t42 93q-8 -4 -27 -4 q-39 0 -64.5 26.5t-25.5 69.5q0 41 30 71.5t73 30.5q49 0 82.5 -37.5t33.5 -103.5z" glyph-name="uni1EE8" horiz-adv-x="1472" unicode="Ứ"/><glyph d="M987 1434l-338 -295h-153l286 295h205zM1200 1108q0 -82 -47 -160t-131 -129v-819h-215v131q-139 -156 -350 -156q-317 0 -318 314v700h215v-622q0 -109 51.5 -155t147.5 -46q78 0 145.5 37t108.5 92v694h215v-63q68 63 74 129q-4 -4 -25 -4q-41 0 -66.5 26.5t-25.5 69.5 q0 41 29.5 71.5t72.5 30.5q49 0 84 -37.5t35 -103.5z" glyph-name="uni1EE9" unicode="ứ"/><glyph d="M813 1481h-154l-337 295h204zM1556 1489q0 -96 -60 -183t-169 -135v-630q0 -262 -150.5 -414t-439.5 -152q-291 0 -441.5 152t-150.5 412v827h242v-819q0 -166 91 -262.5t259 -96.5t258 96.5t90 262.5v819h242v-98q49 29 85 75t42 93q-8 -4 -27 -4q-39 0 -64.5 26.5 t-25.5 69.5q0 41 30 71.5t73 30.5q49 0 82.5 -37.5t33.5 -103.5z" glyph-name="uni1EEA" horiz-adv-x="1472" unicode="Ừ"/><glyph d="M655 1139h-153l-338 295h205zM1200 1108q0 -82 -47 -160t-131 -129v-819h-215v131q-139 -156 -350 -156q-317 0 -318 314v700h215v-622q0 -109 51.5 -155t147.5 -46q78 0 145.5 37t108.5 92v694h215v-63q68 63 74 129q-4 -4 -25 -4q-41 0 -66.5 26.5t-25.5 69.5 q0 41 29.5 71.5t72.5 30.5q49 0 84 -37.5t35 -103.5z" glyph-name="uni1EEB" unicode="ừ"/><glyph d="M723 1708q-70 0 -98 -80l-107 33q51 147 205 147q86 0 143.5 -47t57.5 -141q0 -66 -45 -137h-127q55 61 55 133q0 45 -23.5 68.5t-60.5 23.5zM1556 1489q0 -96 -60 -183t-169 -135v-630q0 -262 -150.5 -414t-439.5 -152q-291 0 -441.5 152t-150.5 412v827h242v-819 q0 -166 91 -262.5t259 -96.5t258 96.5t90 262.5v819h242v-98q49 29 85 75t42 93q-8 -4 -27 -4q-39 0 -64.5 26.5t-25.5 69.5q0 41 30 71.5t73 30.5q49 0 82.5 -37.5t33.5 -103.5z" glyph-name="uni1EEC" horiz-adv-x="1472" unicode="Ử"/><glyph d="M565 1366q-70 0 -98 -80l-107 33q51 147 205 147q86 0 143.5 -47t57.5 -141q0 -66 -45 -137h-127q55 61 55 133q0 45 -23.5 68.5t-60.5 23.5zM1200 1108q0 -82 -47 -160t-131 -129v-819h-215v131q-139 -156 -350 -156q-317 0 -318 314v700h215v-622q0 -109 51.5 -155 t147.5 -46q78 0 145.5 37t108.5 92v694h215v-63q68 63 74 129q-4 -4 -25 -4q-41 0 -66.5 26.5t-25.5 69.5q0 41 29.5 71.5t72.5 30.5q49 0 84 -37.5t35 -103.5z" glyph-name="uni1EED" unicode="ử"/><glyph d="M612 1636q-37 0 -61.5 -36.5t-24.5 -110.5h-116q0 127 54 200.5t157 73.5q37 0 68.5 -16t47 -31.5t37.5 -46.5q53 -66 90 -65q84 0 84 147h119q0 -127 -54.5 -200.5t-156.5 -73.5q-37 0 -68.5 15t-48 32.5t-39.5 46.5q-49 65 -88 65zM1556 1489q0 -96 -60 -183t-169 -135 v-630q0 -262 -150.5 -414t-439.5 -152q-291 0 -441.5 152t-150.5 412v827h242v-819q0 -166 91 -262.5t259 -96.5t258 96.5t90 262.5v819h242v-98q49 29 85 75t42 93q-8 -4 -27 -4q-39 0 -64.5 26.5t-25.5 69.5q0 41 30 71.5t73 30.5q49 0 82.5 -37.5t33.5 -103.5z" glyph-name="uni1EEE" horiz-adv-x="1472" unicode="Ữ"/><glyph d="M455 1294q-37 0 -61.5 -36.5t-24.5 -110.5h-117q0 127 54 200.5t157 73.5q37 0 68.5 -16t47 -31.5t37.5 -46.5q53 -66 91 -65q84 0 84 147h118q0 -127 -54 -200.5t-157 -73.5q-37 0 -68.5 15t-48 32.5t-38.5 46.5q-49 65 -88 65zM1200 1108q0 -82 -47 -160t-131 -129 v-819h-215v131q-139 -156 -350 -156q-317 0 -318 314v700h215v-622q0 -109 51.5 -155t147.5 -46q78 0 145.5 37t108.5 92v694h215v-63q68 63 74 129q-4 -4 -25 -4q-41 0 -66.5 26.5t-25.5 69.5q0 41 29.5 71.5t72.5 30.5q49 0 84 -37.5t35 -103.5z" glyph-name="uni1EEF" unicode="ữ"/><glyph d="M1556 1489q0 -96 -60 -183t-169 -135v-630q0 -262 -150.5 -414t-439.5 -152q-291 0 -441.5 152t-150.5 412v827h242v-819q0 -166 91 -262.5t259 -96.5t258 96.5t90 262.5v819h242v-98q49 29 85 75t42 93q-8 -4 -27 -4q-39 0 -64.5 26.5t-25.5 69.5q0 41 30 71.5t73 30.5 q49 0 82.5 -37.5t33.5 -103.5zM737 -121q49 0 84 -36t35 -85q0 -51 -35 -85.5t-84 -34.5t-85 34.5t-36 85.5q0 49 36 85t85 36z" glyph-name="uni1EF0" horiz-adv-x="1472" unicode="Ự"/><glyph d="M1200 1108q0 -82 -47 -160t-131 -129v-819h-215v131q-139 -156 -350 -156q-317 0 -318 314v700h215v-622q0 -109 51.5 -155t147.5 -46q78 0 145.5 37t108.5 92v694h215v-63q68 63 74 129q-4 -4 -25 -4q-41 0 -66.5 26.5t-25.5 69.5q0 41 29.5 71.5t72.5 30.5 q49 0 84 -37.5t35 -103.5zM579.5 -121q49.5 0 84 -36t34.5 -85q0 -51 -34.5 -85.5t-84 -34.5t-85 34.5t-35.5 85.5q0 49 35.5 85t85 36z" glyph-name="uni1EF1" unicode="ự"/><glyph d="M575 1481l-337 295h204l287 -295h-154zM532 0v567l-530 799h274l377 -586l373 586h274l-528 -799v-567h-240z" glyph-name="Ygrave" horiz-adv-x="1304" unicode="Ỳ"/><glyph d="M436 1139l-338 295h205l287 -295h-154zM129 -195q37 -16 82 -16q104 0 141 86l49 113l-405 1001h229l289 -741l289 741h231l-477 -1167q-88 -219 -340 -223q-68 0 -121 14z" glyph-name="ygrave" horiz-adv-x="1030" unicode="ỳ"/><glyph d="M532 0v567l-530 799h274l377 -586l373 586h274l-528 -799v-567h-240zM532 -242q0 49 36 85t85 36t84 -36t35 -85q0 -51 -35 -85.5t-84 -34.5t-85 34.5t-36 85.5z" glyph-name="uni1EF4" horiz-adv-x="1304" unicode="Ỵ"/><glyph d="M129 -195q37 -16 82 -16q104 0 141 86l49 113l-405 1001h229l289 -741l289 741h231l-477 -1167q-88 -219 -340 -223q-68 0 -121 14zM393 -528q0 49 36 84.5t85 35.5t84 -35.5t35 -84.5q0 -51 -35 -86t-84 -35t-85 35t-36 86z" glyph-name="uni1EF5" horiz-adv-x="1030" unicode="ỵ"/><glyph d="M434 1661q51 147 205 147q86 0 143.5 -47t57.5 -141q0 -66 -45 -137h-127q55 61 55 133q0 45 -23.5 68.5t-60.5 23.5q-70 0 -98 -80zM532 0v567l-530 799h274l377 -586l373 586h274l-528 -799v-567h-240z" glyph-name="uni1EF6" horiz-adv-x="1304" unicode="Ỷ"/><glyph d="M295 1319q51 147 205 147q86 0 143 -47t57 -141q0 -66 -45 -137h-127q55 61 56 133q0 45 -23.5 68.5t-60.5 23.5q-70 0 -99 -80zM129 -195q37 -16 82 -16q104 0 141 86l49 113l-405 1001h229l289 -741l289 741h231l-477 -1167q-88 -219 -340 -223q-68 0 -121 14z" glyph-name="uni1EF7" horiz-adv-x="1030" unicode="ỷ"/><glyph d="M616 1571q-49 66 -88 65q-37 0 -61.5 -36.5t-24.5 -110.5h-116q0 127 54 200.5t157 73.5q37 0 68.5 -16t47 -31.5t37.5 -46.5q53 -66 90 -65q84 0 84 147h119q0 -127 -54.5 -200.5t-156.5 -73.5q-37 0 -68.5 15t-48 32.5t-39.5 46.5zM532 0v567l-530 799h274l377 -586 l373 586h274l-528 -799v-567h-240z" glyph-name="uni1EF8" horiz-adv-x="1304" unicode="Ỹ"/><glyph d="M477 1229q-49 66 -88 65q-37 0 -61.5 -36.5t-24.5 -110.5h-117q0 127 54.5 200.5t156.5 73.5q37 0 69 -16t47 -31.5t38 -46.5q53 -66 90 -65q84 0 84 147h119q0 -127 -54.5 -200.5t-156.5 -73.5q-37 0 -69 15t-48 32.5t-39 46.5zM129 -195q37 -16 82 -16q104 0 141 86 l49 113l-405 1001h229l289 -741l289 741h231l-477 -1167q-88 -219 -340 -223q-68 0 -121 14z" glyph-name="uni1EF9" horiz-adv-x="1030" unicode="ỹ"/><glyph glyph-name="uni2000" horiz-adv-x="1024" unicode=" "/><glyph glyph-name="uni2001" horiz-adv-x="2048" unicode=" "/><glyph glyph-name="uni2002" horiz-adv-x="1024" unicode=" "/><glyph glyph-name="uni2003" horiz-adv-x="2048" unicode=" "/><glyph glyph-name="uni2004" horiz-adv-x="681" unicode=" "/><glyph glyph-name="uni2005" horiz-adv-x="512" unicode=" "/><glyph glyph-name="uni2006" horiz-adv-x="342" unicode=" "/><glyph glyph-name="uni2007" horiz-adv-x="1253" unicode=" "/><glyph glyph-name="uni2008" horiz-adv-x="501" unicode=" "/><glyph glyph-name="uni2009" horiz-adv-x="256" unicode=" "/><glyph glyph-name="uni200A" horiz-adv-x="114" unicode=" "/><glyph d="M61 403v185h1092v-185h-1092z" glyph-name="endash" horiz-adv-x="1214" unicode="–"/><glyph d="M61 403v185h1584v-185h-1584z" glyph-name="emdash" horiz-adv-x="1705" unicode="—"/><glyph d="M61 403v185h1092v-185h-1092z" glyph-name="afii00208" horiz-adv-x="1214" unicode="―"/><glyph d="M279 1386l96 -77q-51 -31 -94 -86.5t-54 -106.5q12 4 35 4q53 0 88 -35.5t35 -93t-41 -98.5t-98 -41q-66 0 -113 50t-47 136q0 102 52.5 194.5t140.5 153.5z" glyph-name="quoteleft" horiz-adv-x="499" unicode="‘"/><glyph d="M213 850l-96 80q51 31 94 86t53 106q-18 -6 -35 -6q-53 0 -88 36t-35 93.5t41 99t99 41.5q66 0 113 -50t47 -136q0 -102 -52.5 -195.5t-140.5 -154.5z" glyph-name="quoteright" horiz-adv-x="499" unicode="’"/><glyph d="M213 -272l-96 79q51 31 94 86.5t53 106.5q-18 -6 -35 -6q-53 0 -88 36t-35 93t41 99t99 42q66 0 113 -50t47 -136q0 -102 -52.5 -195.5t-140.5 -154.5z" glyph-name="quotesinglbase" horiz-adv-x="501" unicode="‚"/><glyph d="M254 1386q57 0 98 -41.5t41 -99t-34.5 -93.5t-88.5 -36q-16 0 -34 6q10 -51 53 -106t94 -86l-96 -80q-88 61 -140.5 154.5t-52.5 195.5q0 86 47 136t113 50z" glyph-name="quotereversed" horiz-adv-x="499" unicode="‛"/><glyph d="M285 1386l98 -77q-51 -31 -95 -86.5t-52 -106.5q8 4 34 4q51 0 86 -36.5t35 -92.5q0 -57 -41 -98t-98 -41q-66 0 -112 50t-46 136q0 102 52.5 194.5t138.5 153.5zM664 1386l98 -77q-51 -31 -95 -86.5t-53 -106.5q8 4 35 4q51 0 86 -36.5t35 -92.5q0 -57 -41 -98t-98 -41 q-66 0 -112 50t-46 136q0 102 52.5 194.5t138.5 153.5z" glyph-name="quotedblleft" horiz-adv-x="878" unicode="“"/><glyph d="M213 850l-96 80q51 31 94 86t53 106q-18 -6 -35 -6q-53 0 -88 36t-35 93.5t41 99t99 41.5q66 0 113 -50t47 -136q0 -102 -52.5 -195.5t-140.5 -154.5zM592 850l-96 80q51 31 94 86t53 106q-18 -6 -35 -6q-53 0 -88 36t-35 93.5t41 99t99 41.5q66 0 112.5 -50t46.5 -136 q0 -102 -52 -195.5t-140 -154.5z" glyph-name="quotedblright" horiz-adv-x="878" unicode="”"/><glyph d="M213 -272l-96 79q51 31 94 86.5t53 106.5q-18 -6 -35 -6q-53 0 -88 36t-35 93t41 99t99 42q66 0 113 -50t47 -136q0 -102 -52.5 -195.5t-140.5 -154.5zM592 -272l-96 79q51 31 94 86.5t53 106.5q-18 -6 -35 -6q-53 0 -88 36t-35 93t41 99t99 42q66 0 112.5 -50t46.5 -136 q0 -102 -52 -195.5t-140 -154.5z" glyph-name="quotedblbase" horiz-adv-x="880" unicode="„"/><glyph d="M330 1085l8 -415h-123l10 415l-182 -8v111l182 -6l-10 204h123l-8 -204l182 6v-111z" glyph-name="dagger" horiz-adv-x="555" unicode="†"/><glyph d="M512 1077l-182 8v-413l182 8v-111l-182 6l8 -206h-123l8 206l-180 -6v111l180 -8v413l-180 -8v111l180 -6l-8 204h123l-8 -204l182 6v-111z" glyph-name="daggerdbl" horiz-adv-x="555" unicode="‡"/><glyph d="M368.5 264q-96.5 0 -165 67.5t-68.5 164t68.5 165t165 68.5t165 -68.5t68.5 -165t-68.5 -164t-165 -67.5z" glyph-name="bullet" horiz-adv-x="733" unicode="•"/><glyph d="M247.5 -20q-57.5 0 -99.5 41.5t-42 99.5q0 59 42 101t100 42q59 0 101 -42t42 -101q0 -57 -43 -99t-100.5 -42zM749.5 -20q-57.5 0 -99.5 41.5t-42 99.5q0 59 42 101t99.5 42t100.5 -42t43 -101q0 -57 -43 -99t-100.5 -42zM1251.5 -20q-57.5 0 -99.5 41.5t-42 99.5 q0 59 42 101t99 42q59 0 101.5 -42t42.5 -101q0 -57 -43 -99t-100.5 -42z" glyph-name="ellipsis" horiz-adv-x="1503" unicode="…"/><glyph d="M395 709q-150 0 -244 95t-94 240q0 147 94.5 244.5t243.5 97.5q152 0 247 -97t95 -245q0 -145 -95 -240t-247 -95zM399 0h-135l873 1366h137zM395 1262q-80 0 -130 -59.5t-50 -158.5q0 -94 50 -153.5t130 -59.5t131.5 59.5t51.5 153.5q0 98 -51.5 158t-131.5 60z M1130.5 -25q-149.5 0 -243.5 95.5t-94 240.5q0 147 94 244.5t243.5 97.5t244.5 -98t95 -243.5t-95 -241t-244.5 -95.5zM1865.5 -25q-149.5 0 -243.5 95.5t-94 240.5q0 147 94 244.5t243.5 97.5t245 -98t95.5 -243.5t-95.5 -241t-245 -95.5zM1130.5 528q-79.5 0 -130 -59 t-50.5 -158q0 -94 50.5 -153.5t130 -59.5t131 59.5t51.5 153.5q0 98 -51.5 157.5t-131 59.5zM1866 528q-80 0 -130 -59t-50 -158q0 -94 50 -153.5t130 -59.5t131 59.5t51 153.5q0 98 -51 157.5t-131 59.5z" glyph-name="perthousand" horiz-adv-x="2263" unicode="‰"/><glyph d="M76 819q106 459 121 494q31 74 112 73q51 0 86 -35.5t35 -84.5q0 -27 -8 -45l-256 -439z" glyph-name="minute" horiz-adv-x="466" unicode="′"/><glyph d="M76 819q106 459 121 494q31 74 112 73q51 0 86 -35.5t35 -84.5q0 -27 -8 -45l-256 -439zM436 819q106 459 121 494q31 74 113 73q51 0 86 -35.5t35 -84.5q0 -27 -9 -45l-256 -439z" glyph-name="second" horiz-adv-x="827" unicode="″"/><glyph d="M389 129l-328 369l328 362h203l-328 -362l328 -369h-203z" glyph-name="guilsinglleft" horiz-adv-x="653" unicode="‹"/><glyph d="M264 129h-203l328 369l-328 362h203l328 -362z" glyph-name="guilsinglright" horiz-adv-x="653" unicode="›"/><glyph d="M473 1386q195 0 317.5 -108.5t122.5 -284.5q0 -150 -105.5 -255t-244.5 -165l-10 -155h-186l-39 631h262l-15 -261q121 72 121 205q0 84 -60.5 132.5t-158.5 48.5q-197 0 -313 -144l-137 154q165 202 446 202zM460.5 264q59.5 0 101.5 -42t42 -101.5t-42 -101.5 t-101.5 -42t-101.5 42t-42 101.5t42 101.5t101.5 42z" glyph-name="uni203D" horiz-adv-x="962" unicode="‽"/><glyph d="M41 1159v127h661v-127h-661z" glyph-name="uni203E" horiz-adv-x="743" unicode="‾"/><glyph d="M-215 0h-137l872 1366h139z" glyph-name="fraction" horiz-adv-x="307" unicode="⁄"/><glyph d="M403 848q-170 0 -257 125t-87 299t87 298t257 124q166 0 254 -125t88 -297q0 -174 -88 -299t-254 -125zM403 1561q-92 0 -135 -79t-43 -210q0 -291 178 -291q174 0 175 291q-1 289 -175 289z" glyph-name="uni2070" horiz-adv-x="804" unicode="⁰"/><glyph d="M633 1051v-189h-164v189h-401v114l335 516h230v-499h112v-131h-112zM469 1540l-238 -358h238v358z" glyph-name="uni2074" horiz-adv-x="804" unicode="⁴"/><glyph d="M397 848q-215 0 -319 131l92 108q84 -106 227 -106q76 0 121 41t45 100q0 63 -44 103.5t-118 40.5q-109 0 -182 -80l-117 39v456h570v-133h-404v-231q74 70 191 69q113 0 190.5 -67.5t77.5 -192.5t-91.5 -201.5t-238.5 -76.5z" glyph-name="uni2075" horiz-adv-x="804" unicode="⁵"/><glyph d="M424 848q-180 0 -269 117.5t-89 304.5q0 188 101 306t284 118q143 0 245 -86l-73 -117q-74 70 -172 70q-102 0 -161 -74t-59 -178v-25q37 47 96.5 80t125.5 33q121 0 203.5 -73t82.5 -198q0 -121 -88 -199.5t-227 -78.5zM408 1266q-106 0 -175 -90q6 -82 51.5 -138.5 t131.5 -56.5q72 0 114.5 43t42.5 96q0 72 -47.5 109t-117.5 37z" glyph-name="uni2076" horiz-adv-x="804" unicode="⁶"/><glyph d="M362 862h-182l322 686h-443v133h623v-114z" glyph-name="uni2077" horiz-adv-x="751" unicode="⁷"/><glyph d="M401 848q-139 0 -235 56.5t-96 168.5q0 74 57 132.5t143 78.5q-82 20 -134 69.5t-52 123.5q0 109 94 163t223 54t224.5 -54.5t95.5 -162.5q0 -74 -52.5 -123t-131.5 -70q84 -20 141 -78.5t57 -132.5q0 -111 -96.5 -168t-237.5 -57zM401 1565q-68 0 -110.5 -29t-42.5 -82 q0 -90 153 -117q31 4 59.5 13.5t62.5 37t34 66.5q0 53 -43 82t-113 29zM401 1225q-49 -6 -108.5 -40t-59.5 -95q0 -53 47.5 -84t121 -31t121.5 30.5t48 84.5q0 61 -59.5 96t-110.5 39z" glyph-name="uni2078" horiz-adv-x="804" unicode="⁸"/><glyph d="M383 1694q178 0 267 -119t89 -305q0 -188 -101 -305t-282 -117q-150 0 -245 86l73 117q68 -70 172 -70q100 0 158.5 72.5t58.5 179.5v24q-35 -47 -94 -79.5t-125 -32.5q-121 0 -204.5 71.5t-83.5 198.5q0 119 88 199t229 80zM397 1274q111 0 174 92q-6 80 -50 137.5 t-128 57.5q-74 0 -118 -43t-44 -97q0 -72 48 -109.5t118 -37.5z" glyph-name="uni2079" horiz-adv-x="804" unicode="⁹"/><glyph d="M248 729q-92 98 -145.5 245.5t-53.5 297.5q0 147 53.5 294.5t145.5 248.5l98 -41q-127 -240 -127 -502q0 -266 127 -502z" glyph-name="uni207D" horiz-adv-x="366" unicode="⁽"/><glyph d="M135 729l-96 41q127 242 127 502t-127 502l96 41q92 -100 145.5 -248t53.5 -295q0 -150 -53.5 -296.5t-145.5 -246.5z" glyph-name="uni207E" horiz-adv-x="366" unicode="⁾"/><glyph d="M561 668v393q0 133 -129 133q-98 0 -162 -80v-446h-159v643h159v-86q90 102 232 102q217 0 217 -215v-444h-158z" glyph-name="uni207F" horiz-adv-x="831" unicode="ⁿ"/><glyph d="M403 -313q-170 0 -257 125t-87 299t87 297.5t257 123.5q166 0 254 -124.5t88 -296.5q0 -174 -88 -299t-254 -125zM403 399q-92 0 -135 -78.5t-43 -209.5q0 -291 178 -291q174 0 175 291q-1 288 -175 288z" glyph-name="uni2080" horiz-adv-x="804" unicode="₀"/><glyph d="M252 -299v606l-137 -141l-95 100l254 254h144v-819h-166z" glyph-name="uni2081" horiz-adv-x="540" unicode="₁"/><glyph d="M98 -299v121q262 186 357.5 278.5t95.5 169.5q0 63 -44 96t-110 33q-70 0 -131 -30.5t-94 -73.5l-88 104q113 133 317 133q135 0 224.5 -65.5t89.5 -183.5q0 -104 -91.5 -208t-285.5 -241h383v-133h-623z" glyph-name="uni2082" horiz-adv-x="804" unicode="₂"/><glyph d="M399 -313q-219 0 -325 131l84 106q92 -104 235 -104q80 0 124 31.5t44 85.5q0 117 -194 116q-76 0 -88 -2v133q16 -2 86 -2q182 0 182 109q0 51 -46 79.5t-118 28.5q-127 0 -219 -94l-80 98q119 129 315 129q143 0 227.5 -60t84.5 -161q0 -76 -54.5 -126t-128.5 -62 q72 -6 134.5 -57.5t62.5 -139.5q0 -106 -89.5 -172.5t-236.5 -66.5z" glyph-name="uni2083" horiz-adv-x="804" unicode="₃"/><glyph d="M633 -111v-188h-164v188h-401v115l335 516h230v-500h112v-131h-112zM469 379l-238 -359h238v359z" glyph-name="uni2084" horiz-adv-x="804" unicode="₄"/><glyph d="M397 -313q-215 0 -319 131l92 108q84 -106 227 -106q76 0 121 41t45 100q0 63 -44 103t-118 40q-109 0 -182 -79l-117 38v457h570v-133h-404v-231q74 70 191 69q113 0 190.5 -67.5t77.5 -192.5t-91.5 -201.5t-238.5 -76.5z" glyph-name="uni2085" horiz-adv-x="804" unicode="₅"/><glyph d="M424 -313q-180 0 -269 117.5t-89 304.5q0 188 101 305.5t284 117.5q143 0 245 -86l-73 -116q-74 70 -172 69q-102 0 -161 -73.5t-59 -178.5v-24q37 47 96.5 80t125.5 33q121 0 203.5 -73t82.5 -198q0 -121 -88 -199.5t-227 -78.5zM408 104q-106 0 -175 -90 q6 -82 51.5 -138t131.5 -56q72 0 114.5 43t42.5 96q0 72 -47.5 108.5t-117.5 36.5z" glyph-name="uni2086" horiz-adv-x="804" unicode="₆"/><glyph d="M362 -299h-182l322 686h-443v133h623v-114z" glyph-name="uni2087" horiz-adv-x="751" unicode="₇"/></font>
</defs>
</svg>
