<?xml version="1.0" standalone="no"?>
<!DOCTYPE svg PUBLIC "-//W3C//DTD SVG 1.1//EN" "http://www.w3.org/Graphics/SVG/1.1/DTD/svg11.dtd">
<svg xmlns="http://www.w3.org/2000/svg"><metadata>This SVG WebFont was generated by YouWorkForThem.
Copyright (c) Mark Simonson, 2005. All rights reserved.</metadata><defs><font horiz-adv-x="1220" id="ywftsvg"><font-face ascent="1618" bbox="-848 -815 2572 2210" cap-height="1366" descent="-430" font-family="" font-stretch="normal" font-weight="900" panose-1="2 0 5 6 3 0 0 2 0 4" underline-position="0" underline-thickness="0" unicode-range="U+000D-FB04" units-per-em="2048" x-height="989"/><missing-glyph d="M111 -184v1724h718v-1724h-718zM764 1479h-590v-1602h590v1602z" horiz-adv-x="940"/><glyph d="M1806 1061q-86 0 -146.5 60.5t-60.5 146.5t60.5 146.5t146.5 60.5t146.5 -60.5t60.5 -146.5t-60.5 -146.5t-146.5 -60.5zM178 0v670h-164v319h164v45q0 154 106.5 253t270.5 99q137 0 229 -49l-65 -245q-35 23 -78 22.5t-68.5 -25t-25.5 -67.5v-33h201v-319h-201v-670 h-369zM938 0v670h-164v319h164v45q0 154 106.5 253t270.5 99q137 0 229 -49l-67 -250q-35 27 -82 27q-37 0 -62.5 -23.5t-25.5 -56.5v-45h200v-319h-200v-670h-369zM1991 989v-946q0 -201 -102.5 -322.5t-309.5 -121.5q-74 0 -115 8v297q20 -4 49 -4q109 0 109 143v946h369z " glyph-name="uniE004" horiz-adv-x="2093" unicode="ffj"/><glyph d="M1047 1061q-86 0 -146.5 60.5t-60.5 146.5t60.5 146.5t146.5 60.5t146 -60.5t60 -146.5t-60 -146.5t-146 -60.5zM178 0v670h-164v319h164v45q0 154 106.5 253t270.5 99q137 0 229 -49l-67 -250q-35 27 -82 27q-37 0 -62.5 -23.5t-25.5 -56.5v-45h201v-319h-201v-670h-369 zM1231 989v-946q0 -201 -102.5 -322.5t-309.5 -121.5q-74 0 -114 8v297q20 -4 49 -4q109 0 108 143v946h369z" glyph-name="uniE005" horiz-adv-x="1333" unicode="fj"/><glyph d="M178 0v670h-164v319h164v45q0 154 106.5 253t270.5 99q137 0 229 -49l-65 -245q-35 23 -78 22.5t-68.5 -25t-25.5 -67.5v-33h201v-319h-201v-670h-369zM938 0v670h-164v319h164v45q0 154 106.5 253t270.5 99q137 0 229 -49l-65 -245q-35 23 -78 22.5t-68.5 -25 t-25.5 -67.5v-33h200v-319h-200v-670h-369z" glyph-name="uniFB00" horiz-adv-x="1519" unicode="ff"/><glyph d="M1047 1061q-86 0 -146.5 60.5t-60.5 146.5t60.5 146.5t146.5 60.5t146 -60.5t60 -146.5t-60 -146.5t-146 -60.5zM178 0v670h-164v319h164v45q0 154 106.5 253t270.5 99q137 0 229 -49l-67 -250q-35 27 -82 27q-37 0 -62.5 -23.5t-25.5 -56.5v-45h201v-319h-201v-670h-369 zM862 0v989h369v-989h-369z" glyph-name="uniFB01" horiz-adv-x="1333" unicode="fi"/><glyph d="M178 0v670h-164v319h164v45q0 154 106.5 253t270.5 99q137 0 229 -49l-67 -250q-35 27 -82 27q-37 0 -62.5 -23.5t-25.5 -56.5v-45h201v-319h-201v-670h-369zM862 0v1366h369v-1366h-369z" glyph-name="uniFB02" horiz-adv-x="1333" unicode="fl"/><glyph d="M1806 1061q-86 0 -146.5 60.5t-60.5 146.5t60.5 146.5t146.5 60.5t146.5 -60.5t60.5 -146.5t-60.5 -146.5t-146.5 -60.5zM178 0v670h-164v319h164v45q0 154 106.5 253t270.5 99q137 0 229 -49l-65 -245q-35 23 -78 22.5t-68.5 -25t-25.5 -67.5v-33h201v-319h-201v-670 h-369zM938 0v670h-164v319h164v45q0 154 106.5 253t270.5 99q137 0 229 -49l-67 -250q-35 27 -82 27q-37 0 -62.5 -23.5t-25.5 -56.5v-45h200v-319h-200v-670h-369zM1622 0v989h369v-989h-369z" glyph-name="uniFB03" horiz-adv-x="2093" unicode="ffi"/><glyph d="M178 0v670h-164v319h164v45q0 154 106.5 253t270.5 99q137 0 229 -49l-65 -245q-35 23 -78 22.5t-68.5 -25t-25.5 -67.5v-33h201v-319h-201v-670h-369zM938 0v670h-164v319h164v45q0 154 106.5 253t270.5 99q137 0 229 -49l-67 -250q-35 27 -82 27q-37 0 -62.5 -23.5 t-25.5 -56.5v-45h200v-319h-200v-670h-369zM1622 0v1366h369v-1366h-369z" glyph-name="uniFB04" horiz-adv-x="2093" unicode="ffl"/><glyph d="M178 0v670h-164v319h164v45q0 154 106.5 253t270.5 99q137 0 229 -49l-67 -250q-35 27 -82 27q-37 0 -62.5 -23.5t-25.5 -56.5v-45h201v-319h-201v-670h-369zM862 0v1366h369v-481q106 129 278 129q188 0 312.5 -139.5t124.5 -378.5q0 -246 -124 -383.5t-313 -137.5 q-164 0 -278 129v-104h-369zM1231 367q53 -66 153 -66q78 0 131.5 52.5t53.5 142.5q0 88 -53.5 140t-131.5 52q-98 0 -153 -67v-254z" glyph-name="f_b.liga" horiz-adv-x="1980" unicode="fb"/><glyph d="M178 0v670h-164v319h164v45q0 154 106.5 253t270.5 99q137 0 229 -49l-67 -250q-35 27 -82 27q-37 0 -62.5 -23.5t-25.5 -56.5v-45h201v-319h-201v-670h-369zM1534 0v551q0 137 -143 137q-88 0 -158 -78v-610h-369v1366h369v-489q121 137 340 137q164 0 247 -85t83 -222 v-707h-369z" glyph-name="f_h.liga" horiz-adv-x="2004" unicode="fh"/><glyph d="M178 0v670h-164v319h164v45q0 154 106.5 253t270.5 99q137 0 229 -49l-67 -250q-35 27 -82 27q-37 0 -62.5 -23.5t-25.5 -56.5v-45h201v-319h-201v-670h-369zM1473 0l-170 319l-72 -96v-223h-369v1366h369v-729l227 352h445l-340 -450l362 -539h-452z" glyph-name="f_k.liga" horiz-adv-x="1900" unicode="fk"/><glyph d="M111 -184v1724h718v-1724h-718zM764 1479h-590v-1602h590v1602z" glyph-name=".notdef" horiz-adv-x="940"/><glyph glyph-name="glyph1" horiz-adv-x="0"/><glyph glyph-name="glyph2" horiz-adv-x="681"/><glyph glyph-name="glyph3" horiz-adv-x="0"/><glyph glyph-name="glyph3" horiz-adv-x="0"/><glyph glyph-name="space" horiz-adv-x="522" unicode=" "/><glyph d="M123 508l-55 858h438l-51 -858h-332zM72 195q0 90 64.5 154.5t152.5 64.5t152.5 -64.5t64.5 -154.5q0 -88 -64.5 -153t-152.5 -65t-152.5 65t-64.5 153z" glyph-name="exclam" horiz-adv-x="573" unicode="!"/><glyph d="M182 694q-113 457 -112 504q0 78 55 133t133 55t133 -55t55 -133q0 -20 -28.5 -146t-57.5 -241l-26 -117h-152zM629 694q-113 457 -113 504q0 78 55.5 133t133 55t132 -55t54.5 -133q0 -20 -27.5 -146t-56.5 -241l-29 -117h-149z" glyph-name="quotedbl" horiz-adv-x="960" unicode="&quot;"/><glyph d="M512 0l109 324h-162l-107 -324h-260l109 324h-176l71 223h180l89 270h-179l70 221h184l109 328h260l-109 -328h160l109 328h260l-111 -328h180l-67 -221h-187l-90 -270h187l-70 -223h-192l-107 -324h-260zM784 817h-159l-88 -270h157z" glyph-name="numbersign" horiz-adv-x="1323" unicode="#"/><glyph d="M1262 451q0 -197 -122 -318t-341 -149v-189h-262v187q-303 31 -500 211l215 307q184 -176 440 -176q63 0 107.5 21.5t44.5 57.5q0 39 -44 62.5t-149 42.5q-252 45 -356 98q-213 109 -213 338q0 164 118.5 286t336.5 150v193h262v-197q252 -35 430 -180l-221 -293 q-86 66 -190.5 100.5t-190.5 34.5q-125 0 -125 -71q0 -39 43 -58.5t157 -38.5q90 -16 147.5 -28.5t144.5 -45t138.5 -73.5t90.5 -111.5t39 -160.5z" glyph-name="dollar" horiz-adv-x="1300" unicode="$"/><glyph d="M41 1040q0 147 100.5 246.5t264.5 99.5q166 0 267 -99t101 -247q0 -145 -101.5 -243.5t-266.5 -98.5q-164 0 -264.5 98.5t-100.5 243.5zM268 0l873 1366h200l-874 -1366h-199zM524 1040q0 66 -32.5 97.5t-85.5 31.5q-51 0 -83 -31.5t-32 -97.5q0 -63 31.5 -94t83.5 -31 q53 0 85.5 31t32.5 94zM834 317q0 147 100 247t264 100t265.5 -99.5t101.5 -247.5q0 -145 -101.5 -243.5t-265.5 -98.5t-264 98.5t-100 243.5zM1317 317q0 66 -33 97.5t-86 31.5q-117 0 -117 -129q0 -125 117 -124q119 -1 119 124z" glyph-name="percent" horiz-adv-x="1605" unicode="%"/><glyph d="M1360 0h-455q-4 4 -26.5 27.5t-34.5 40.5q-162 -92 -342 -93q-209 0 -343 106.5t-134 305.5q0 246 286 383q-76 158 -75 279q0 143 121.5 240t314.5 97q166 0 286.5 -84.5t120.5 -224.5q0 -141 -84 -221t-237 -145q14 -20 39.5 -54t36.5 -47l73 -94q66 102 101 217 l284 -135q-88 -180 -192 -307q88 -105 260 -291zM596 1038q0 -57 39 -135q135 66 135 152q0 33 -22.5 54t-57.5 21q-41 0 -67.5 -25.5t-26.5 -66.5zM557 258q43 0 98 21q-76 86 -104 124q-72 96 -100 136q-41 -47 -41 -115q0 -72 43 -119t104 -47z" glyph-name="ampersand" horiz-adv-x="1335" unicode="&amp;"/><glyph d="M182 694q-113 457 -112 504q0 78 55 133t133 55t133 -55t55 -133q0 -20 -28.5 -146t-57.5 -241l-26 -117h-152z" glyph-name="quotesingle" horiz-adv-x="516" unicode="'"/><glyph d="M438 -408q-162 143 -262 399.5t-100 506.5t100 506t262 399l234 -178q-109 -178 -155 -348t-46 -379q0 -207 46 -378t155 -345z" glyph-name="parenleft" horiz-adv-x="708" unicode="("/><glyph d="M238 498q0 209 -46.5 379t-154.5 348l233 178q162 -143 262.5 -399t100.5 -506t-100.5 -506t-262.5 -400l-233 183q109 174 155 345t46 378z" glyph-name="parenright" horiz-adv-x="710" unicode=")"/><glyph d="M289 702l8 216l-180 -115l-82 143l188 98l-188 99l82 143l180 -115l-8 215h166l-11 -215l181 115l84 -143l-191 -99l191 -98l-84 -143l-181 115l11 -216h-166z" glyph-name="asterisk" horiz-adv-x="743" unicode="*"/><glyph d="M641 584v-396h-238v396h-344v215h344v379h238v-379h344v-215h-344z" glyph-name="plus" horiz-adv-x="1044" unicode="+"/><glyph d="M264 -301l-149 121q53 23 110.5 78t75.5 110q-20 -8 -53 -8q-74 0 -126 56.5t-52 142.5q0 88 63.5 151.5t149.5 63.5q98 0 167.5 -72t69.5 -192q0 -271 -256 -451z" glyph-name="comma" horiz-adv-x="575" unicode=","/><glyph d="M61 342v307h492v-307h-492z" glyph-name="hyphen" horiz-adv-x="614" unicode="-"/><glyph d="M70 194.5q0 88.5 65.5 154t153.5 65.5t153.5 -65.5t65.5 -154t-65.5 -154t-153.5 -65.5t-153.5 65.5t-65.5 154z" glyph-name="period" horiz-adv-x="579" unicode="."/><glyph d="M0 -41l485 1448h256l-485 -1448h-256z" glyph-name="slash" horiz-adv-x="741" unicode="/"/><glyph d="M37 682q0 297 157.5 500.5t448.5 203.5t448.5 -203.5t157.5 -500.5q0 -190 -64.5 -347t-204.5 -258.5t-337 -101.5t-337 101.5t-204.5 258.5t-64.5 347zM834 682q0 340 -190.5 340t-190.5 -340q0 -342 190.5 -342t190.5 342z" glyph-name="zero" horiz-adv-x="1286" unicode="0"/><glyph d="M465 0v840l-232 -230l-233 244l522 512h357v-1366h-414z" glyph-name="one" horiz-adv-x="989" unicode="1"/><glyph d="M84 0v322q254 180 374 266t199.5 155.5t95 100t15.5 71.5q0 49 -46 78t-120 29q-184 0 -352 -141l-225 274q111 119 265 175t312 56q264 0 425 -132t161 -339q0 -145 -103.5 -272t-369.5 -283h485v-360h-1116z" glyph-name="two" horiz-adv-x="1255" unicode="2"/><glyph d="M25 188l202 269q76 -66 180.5 -100.5t190.5 -34.5q96 0 147.5 29.5t51.5 74.5q0 43 -43 65.5t-168 22.5q-158 0 -199 -4v350q27 -2 199 -2q188 0 188 82q0 47 -55 72.5t-148 25.5q-186 0 -340 -127l-188 250q205 225 573 225q276 0 423 -102t147 -276q0 -109 -85 -196 t-216 -107q125 -14 224 -100.5t99 -219.5q0 -182 -163.5 -296t-430.5 -114q-195 0 -347 58.5t-242 154.5z" glyph-name="three" horiz-adv-x="1263" unicode="3"/><glyph d="M694 0v219h-657v318l498 829h573v-786h158v-361h-158v-219h-414zM694 1010l-258 -430h258v430z" glyph-name="four" horiz-adv-x="1302" unicode="4"/><glyph d="M66 168l215 272q143 -119 352 -118q96 0 144 36.5t48 92t-45 89t-135 33.5q-154 0 -254 -94l-285 66v821h1045v-344h-651v-217q141 104 305 104q182 0 311 -121.5t129 -320.5q0 -227 -161.5 -359.5t-446.5 -132.5q-358 0 -571 193z" glyph-name="five" horiz-adv-x="1282" unicode="5"/><glyph d="M37 680q0 336 195.5 521t521.5 185q252 0 426 -118l-174 -301q-109 74 -252 73q-123 0 -211 -72.5t-88 -191.5v-4q109 139 317 139q197 0 340 -118.5t143 -325.5q0 -219 -160.5 -355.5t-406.5 -136.5q-322 0 -486.5 195t-164.5 510zM836 446q0 68 -56.5 100t-134.5 32 q-111 0 -192 -56q8 -82 60 -141t157 -59q76 0 121 36.5t45 87.5z" glyph-name="six" horiz-adv-x="1280" unicode="6"/><glyph d="M246 0l432 1006h-641v360h1116v-287l-455 -1079h-452z" glyph-name="seven" horiz-adv-x="1177" unicode="7"/><glyph d="M37 365q0 109 70.5 199.5t189.5 140.5q-238 98 -238 315q0 127 91.5 213t217.5 119.5t277.5 33.5t277.5 -33.5t217 -119.5t91 -213q0 -217 -240 -315q119 -49 190.5 -140.5t71.5 -199.5q0 -133 -91 -223.5t-223 -128.5t-294 -38t-294 38t-223 128.5t-91 223.5zM809 958 q0 41 -44 67t-120 26q-78 0 -122 -26t-44 -67q0 -39 49.5 -68.5t116.5 -39.5q66 10 115 39.5t49 68.5zM834 410q0 45 -57.5 76.5t-131.5 41.5q-74 -10 -131 -41.5t-57 -76.5t51 -72t137 -27q84 0 136.5 27t52.5 72z" glyph-name="eight" horiz-adv-x="1290" unicode="8"/><glyph d="M100 96l174 301q104 -74 252 -73q123 0 211 72.5t88 191.5v4q-109 -139 -317 -139q-197 0 -340 118.5t-143 325.5q0 219 160.5 355.5t406.5 136.5q322 0 486.5 -195t164.5 -510q0 -336 -195.5 -521.5t-521.5 -185.5q-252 0 -426 119zM827 842q-8 82 -60 141t-157 59 q-76 0 -121 -36.5t-45 -87.5q0 -68 56.5 -100t134.5 -32q110 1 192 56z" glyph-name="nine" horiz-adv-x="1280" unicode="9"/><glyph d="M70 784q0 88 65.5 154t153.5 66t153.5 -66t65.5 -154t-65.5 -153.5t-153.5 -65.5t-153.5 65.5t-65.5 153.5zM70 194.5q0 88.5 65.5 154t153.5 65.5t153.5 -65.5t65.5 -154t-65.5 -154t-153.5 -65.5t-153.5 65.5t-65.5 154z" glyph-name="colon" horiz-adv-x="544" unicode=":"/><glyph d="M289 565q-88 0 -153.5 65.5t-65.5 155.5q0 88 64.5 153t154.5 65t154.5 -65t64.5 -153q0 -90 -65.5 -155.5t-153.5 -65.5zM264 -299l-149 121q51 23 109.5 82t76.5 114q-20 -8 -53 -8q-76 0 -127 53.5t-51 137.5q0 88 63.5 151.5t149.5 63.5q98 0 167.5 -72t69.5 -192 q0 -271 -256 -451z" glyph-name="semicolon" horiz-adv-x="575" unicode=";"/><glyph d="M59 553v266l926 369v-256l-684 -248l684 -244v-256z" glyph-name="less" horiz-adv-x="1044" unicode="&lt;"/><glyph d="M59 764v215h926v-215h-926zM59 389v215h926v-215h-926z" glyph-name="equal" horiz-adv-x="1044" unicode="="/><glyph d="M59 184v256l684 244l-684 248v256l926 -369v-266z" glyph-name="greater" horiz-adv-x="1044" unicode=">"/><glyph d="M258 653q0 68 30.5 123t58.5 79t77 58q63 43 63 66q0 43 -79 43q-96 0 -179 -86l-229 264q86 92 208 139t247 47q207 0 328.5 -89t121.5 -240q0 -80 -32.5 -144.5t-63.5 -94.5t-88 -73q-37 -29 -55.5 -44t-35 -40.5t-16.5 -52.5q0 -49 23 -76l-324 -73q-55 75 -55 194z M248 194.5q0 88.5 64.5 154t154.5 65.5t154.5 -65.5t64.5 -154t-64.5 -154t-154.5 -65.5t-154.5 65.5t-64.5 154z" glyph-name="question" horiz-adv-x="921" unicode="?"/><glyph d="M72 500q0 322 245.5 564.5t567.5 242.5q289 0 467 -176.5t178 -428.5q0 -131 -45 -236.5t-115 -166.5t-146.5 -93t-150.5 -32q-172 0 -211 135l-4 15q-104 -150 -264 -150q-150 0 -236 100.5t-86 255.5q0 195 134.5 341.5t310.5 146.5q172 0 250 -115l18 90h324l-95 -444 q-6 -31 -6 -55q0 -78 58 -78q66 0 113.5 76.5t47.5 209.5q0 236 -147 375.5t-403 139.5q-287 0 -500 -213t-213 -498q0 -240 161.5 -400.5t405.5 -160.5q190 0 367 110l49 -69q-201 -129 -426 -129q-279 0 -464 185.5t-185 457.5zM885 512l39 195q-39 57 -119 57 q-90 0 -145.5 -61.5t-55.5 -143.5q0 -59 35 -95t94 -36q86 0 152 84z" glyph-name="at" horiz-adv-x="1603" unicode="@"/><glyph d="M1042 0l-53 176h-524l-53 -176h-449l504 1366h520l504 -1366h-449zM727 1001l-156 -481h312z" glyph-name="A" horiz-adv-x="1454" unicode="A"/><glyph d="M111 0v1366h829q197 0 301.5 -106.5t104.5 -241.5q0 -125 -66 -208t-168 -105q113 -16 186.5 -109.5t73.5 -224.5q0 -154 -104.5 -262.5t-298.5 -108.5h-858zM524 858h320q33 0 57.5 25.5t24.5 62.5q0 35 -24.5 59.5t-57.5 24.5h-320v-172zM524 336h332q43 0 69.5 26.5 t26.5 65.5t-26.5 66.5t-69.5 27.5h-332v-186z" glyph-name="B" horiz-adv-x="1427" unicode="B"/><glyph d="M778 -25q-317 0 -529 198t-212 509t212 509t529 198q252 0 404.5 -115t226.5 -283l-356 -166q-27 84 -103 141.5t-172 57.5q-139 0 -230 -98.5t-91 -243.5t91 -243.5t230 -98.5q96 0 172 57.5t103 141.5l356 -164q-33 -76 -82 -140.5t-124 -126t-184.5 -97.5t-240.5 -36z " glyph-name="C" horiz-adv-x="1427" unicode="C"/><glyph d="M111 0v1366h610q332 0 540.5 -181t208.5 -500.5t-208.5 -502t-538.5 -182.5h-612zM524 360h197q150 0 240 94.5t90 229.5q0 145 -84 233.5t-244 88.5h-199v-646z" glyph-name="D" horiz-adv-x="1507" unicode="D"/><glyph d="M111 0v1366h1036v-344h-623v-160h609v-344h-609v-174h623v-344h-1036z" glyph-name="E" unicode="E"/><glyph d="M111 0v1366h1036v-344h-623v-160h609v-344h-609v-518h-413z" glyph-name="F" horiz-adv-x="1212" unicode="F"/><glyph d="M37 681.5q0 319.5 216 513.5t535 194q221 0 371 -94.5t230 -241.5l-349 -179q-35 66 -101.5 108t-150.5 42q-147 0 -239 -98.5t-92 -243.5t92 -243.5t239 -98.5q139 0 224 61v60h-264v340h665v-549q-250 -276 -625 -277q-319 0 -535 193.5t-216 513z" glyph-name="G" horiz-adv-x="1486" unicode="G"/><glyph d="M1014 0v522h-490v-522h-413v1366h413v-483h490v483h413v-1366h-413z" glyph-name="H" horiz-adv-x="1538" unicode="H"/><glyph d="M111 0v1366h413v-1366h-413z" glyph-name="I" horiz-adv-x="634" unicode="I"/><glyph d="M0 86l168 315q90 -61 176 -61q68 0 110 41t42 113v872h413v-879q0 -256 -141 -384t-387 -128q-238 0 -381 111z" glyph-name="J" horiz-adv-x="1019" unicode="J"/><glyph d="M907 0l-307 481l-76 -102v-379h-413v1366h413v-512l359 512h506l-517 -635l539 -731h-504z" glyph-name="K" horiz-adv-x="1374" unicode="K"/><glyph d="M111 0v1366h413v-1006h518v-360h-931z" glyph-name="L" horiz-adv-x="1097" unicode="L"/><glyph d="M1319 0v862l-305 -862h-185l-305 862v-862h-413v1366h571l240 -696l239 696h572v-1366h-414z" glyph-name="M" horiz-adv-x="1843" unicode="M"/><glyph d="M1028 0l-504 733v-733h-413v1366h426l475 -688v688h413v-1366h-397z" glyph-name="N" horiz-adv-x="1536" unicode="N"/><glyph d="M37 682q0 311 214 509t533.5 198t533.5 -198t214 -509t-214 -509t-533.5 -198t-533.5 198t-214 509zM1112 682q0 145 -91 243.5t-236.5 98.5t-236.5 -98.5t-91 -243.5t91 -243.5t236.5 -98.5t236.5 98.5t91 243.5z" glyph-name="O" horiz-adv-x="1568" unicode="O"/><glyph d="M111 0v1366h729q231 0 361 -134t130 -335q0 -199 -130 -329t-361 -130h-316v-438h-413zM911 901q0 53 -35.5 87t-89.5 34h-262v-240h262q53 0 89 33t36 86z" glyph-name="P" horiz-adv-x="1355" unicode="P"/><glyph d="M1532 682q0 -272 -170 -463l74 -92l-287 -229l-96 120q-123 -43 -269 -43q-319 0 -533 198t-214 509t214 509t533.5 198t533.5 -198t214 -509zM784 340h13l-113 141l287 230l121 -154q20 55 20 125q0 145 -91 243.5t-236.5 98.5t-236.5 -98.5t-91 -243.5t91 -243.5 t236 -98.5z" glyph-name="Q" horiz-adv-x="1568" unicode="Q"/><glyph d="M862 0l-188 438h-150v-438h-413v1366h729q231 0 361 -134t130 -335q0 -160 -72.5 -262.5t-173.5 -151.5l248 -483h-471zM911 903q0 53 -40 86t-95 33h-252v-240h252q55 0 95 33t40 88z" glyph-name="R" horiz-adv-x="1388" unicode="R"/><glyph d="M6 193l215 307q184 -176 441 -176q63 0 107 21.5t44 57.5q0 39 -44 62.5t-148 42.5q-252 45 -357 98q-213 109 -213 338q0 184 149.5 313t417.5 129q346 0 580 -190l-221 -293q-86 66 -190.5 100.5t-190.5 34.5q-125 0 -125 -71q0 -39 43 -58.5t158 -38.5 q90 -16 147.5 -28.5t144.5 -45t138 -73.5t90 -111.5t39 -160.5q0 -225 -156.5 -350.5t-433.5 -125.5q-393 1 -635 218z" glyph-name="S" horiz-adv-x="1255" unicode="S"/><glyph d="M403 0v1006h-366v360h1145v-360h-365v-1006h-414z" glyph-name="T" horiz-adv-x="1218" unicode="T"/><glyph d="M111 561v805h419v-791q0 -106 58.5 -170.5t179.5 -64.5q119 0 177.5 65.5t58.5 169.5v791h419v-803q0 -268 -161.5 -428t-493.5 -160t-494.5 159t-162.5 427z" glyph-name="U" horiz-adv-x="1533" unicode="U"/><glyph d="M467 0l-504 1366h469l295 -920l295 920h469l-504 -1366h-520z" glyph-name="V" horiz-adv-x="1454" unicode="V"/><glyph d="M1153 0l-176 774l-176 -774h-434l-392 1366h463l176 -836l207 836h312l206 -836l174 836h465l-391 -1366h-434z" glyph-name="W" horiz-adv-x="1953" unicode="W"/><glyph d="M950 0l-250 418l-249 -418h-488l457 700l-426 666h485l221 -389l218 389h489l-426 -664l457 -702h-488z" glyph-name="X" horiz-adv-x="1400" unicode="X"/><glyph d="M475 0v543l-512 823h465l254 -461l250 461h465l-508 -823v-543h-414z" glyph-name="Y" horiz-adv-x="1359" unicode="Y"/><glyph d="M74 0v328l520 678h-520v360h1067v-326l-523 -680h537v-360h-1081z" glyph-name="Z" horiz-adv-x="1228" unicode="Z"/><glyph d="M111 -389v1778h501v-234h-245v-1311h245v-233h-501z" glyph-name="bracketleft" horiz-adv-x="649" unicode="["/><glyph d="M0 1407h256l485 -1448h-256z" glyph-name="backslash" horiz-adv-x="741" unicode="\"/><glyph d="M37 -389v233h246v1311h-246v234h502v-1778h-502z" glyph-name="bracketright" horiz-adv-x="649" unicode="]"/><glyph d="M625 682l-164 440l-162 -440h-260l293 684h264l287 -684h-258z" glyph-name="asciicircum" horiz-adv-x="921" unicode="^"/><glyph d="M-6 -315v233h1167v-233h-1167z" glyph-name="underscore" horiz-adv-x="1155" unicode="_"/><glyph d="M317 1139l-317 295h317l246 -295h-246z" glyph-name="grave" horiz-adv-x="563" unicode="`"/><glyph d="M674 0v94q-41 -53 -124 -86t-175 -33q-127 0 -233.5 85t-106.5 241q0 88 31.5 150.5t84 94.5t107.5 46t117 14q213 0 299 -108v112q0 53 -48 88t-137 35q-147 0 -274 -96l-125 227q186 150 467 150q98 0 180 -19.5t154 -63.5t111.5 -129t39.5 -204v-598h-368zM674 268v56 q-37 53 -146 53q-129 0 -129 -82q0 -80 129 -80q109 0 146 53z" glyph-name="a" horiz-adv-x="1144" unicode="a"/><glyph d="M102 0v1366h369v-481q106 129 279 129q188 0 312 -139.5t124 -378.5q0 -246 -124 -383.5t-312 -137.5q-164 0 -279 129v-104h-369zM471 367q53 -66 154 -66q78 0 131 52.5t53 142.5q0 88 -53.5 140t-130.5 52q-98 0 -154 -67v-254z" glyph-name="b" unicode="b"/><glyph d="M35 496q0 231 157.5 374.5t397.5 143.5q154 0 262.5 -56.5t157.5 -130.5l-238 -223q-55 84 -166 84q-82 0 -138 -50t-56 -142.5t56 -143.5t138 -51q106 0 166 86l238 -225q-49 -74 -158 -130.5t-262 -56.5q-240 0 -397.5 144t-157.5 377z" glyph-name="c" horiz-adv-x="1028" unicode="c"/><glyph d="M750 0v104q-115 -129 -279 -129q-188 0 -312 137.5t-124 383.5q0 240 124 379t312 139q172 0 279 -129v481h368v-1366h-368zM750 369v254q-53 66 -154 65q-78 0 -131 -52t-53 -140q0 -90 53 -142.5t131 -52.5q99 0 154 68z" glyph-name="d" unicode="d"/><glyph d="M35 496q0 219 151.5 368.5t386.5 149.5q223 0 368.5 -150.5t145.5 -406.5v-76h-671q16 -53 72.5 -89t144.5 -36q135 0 223 70l152 -228q-70 -59 -186.5 -91t-235.5 -32q-238 0 -394.5 141.5t-156.5 379.5zM573 733q-129 0 -161 -119h325q-29 119 -164 119z" glyph-name="e" horiz-adv-x="1112" unicode="e"/><glyph d="M178 0v670h-164v319h164v45q0 154 106.5 253t270.5 99q137 0 229 -49l-65 -245q-35 23 -78 22.5t-68.5 -25t-25.5 -67.5v-33h201v-319h-201v-670h-369z" glyph-name="f" horiz-adv-x="759" unicode="f"/><glyph d="M68 -254l155 262q109 -109 295 -108q88 0 159 46t71 160v54q-117 -133 -279 -133q-190 0 -312 126t-122 367q0 238 122 366t312 128q170 0 279 -129v104h368v-883q0 -123 -40 -217t-99 -147t-142 -87t-159 -45t-158 -11q-264 0 -450 147zM748 416v209q-25 29 -69 46 t-83 17q-82 0 -133 -41t-51 -127t51 -127t133 -41q39 0 83 17.5t69 46.5z" glyph-name="g" horiz-adv-x="1218" unicode="g"/><glyph d="M774 0v551q0 137 -143 137q-88 0 -158 -78v-610h-369v1366h369v-489q121 137 340 137q164 0 247 -85t83 -222v-707h-369z" glyph-name="h" horiz-adv-x="1245" unicode="h"/><glyph d="M287 1061q-86 0 -146.5 60.5t-60.5 146.5t60.5 146.5t146.5 60.5t146.5 -60.5t60.5 -146.5t-60.5 -146.5t-146.5 -60.5zM102 0v989h369v-989h-369z" glyph-name="i" horiz-adv-x="573" unicode="i"/><glyph d="M287 1061q-86 0 -146.5 60.5t-60.5 146.5t60.5 146.5t146.5 60.5t146.5 -60.5t60.5 -146.5t-60.5 -146.5t-146.5 -60.5zM471 989v-946q0 -201 -102.5 -322.5t-309.5 -121.5q-74 0 -114 8v297q20 -4 49 -4q109 0 108 143v946h369z" glyph-name="j" horiz-adv-x="573" unicode="j"/><glyph d="M713 0l-170 319l-72 -96v-223h-369v1366h369v-729l227 352h445l-340 -450l362 -539h-452z" glyph-name="k" horiz-adv-x="1140" unicode="k"/><glyph d="M102 0v1366h369v-1366h-369z" glyph-name="l" horiz-adv-x="573" unicode="l"/><glyph d="M1366 0v578q0 49 -27.5 79.5t-85.5 30.5q-84 0 -151 -78v-610h-369v578q0 111 -112 110q-82 0 -150 -78v-610h-369v989h369v-112q39 49 129 93t199 44q221 0 284 -174q47 72 140.5 123t206.5 51q141 0 223 -74t82 -223v-717h-369z" glyph-name="m" horiz-adv-x="1837" unicode="m"/><glyph d="M772 0v547q0 141 -143 141q-88 0 -158 -78v-610h-369v989h369v-112q121 137 340 137q164 0 247 -87t83 -225v-702h-369z" glyph-name="n" horiz-adv-x="1243" unicode="n"/><glyph d="M590 -25q-254 0 -404.5 152t-150.5 369t150.5 367.5t404.5 150.5t405.5 -150.5t151.5 -367.5t-151.5 -369t-405.5 -152zM590 301q84 0 131 54.5t47 140.5q0 84 -47 138t-131 54q-82 0 -129 -54t-47 -138q0 -86 47 -140.5t129 -54.5z" glyph-name="o" horiz-adv-x="1181" unicode="o"/><glyph d="M471 -377h-369v1366h369v-104q109 129 279 129q190 0 312 -136.5t122 -381.5q0 -248 -122 -384.5t-312 -136.5q-166 0 -279 129v-481zM807 496q0 88 -53.5 140t-130.5 52q-39 0 -83 -18.5t-69 -48.5v-252q23 -29 69 -48.5t83 -19.5q78 0 131 52.5t53 142.5z" glyph-name="p" horiz-adv-x="1218" unicode="p"/><glyph d="M1116 -377h-368v481q-113 -129 -279 -129q-190 0 -312 136.5t-122 384.5q0 246 122 382t312 136q170 0 279 -129v104h368v-1366zM748 369v252q-25 31 -69 49t-83 18q-78 0 -131 -52t-53 -140q0 -90 53 -142.5t131 -52.5q37 0 83 19.5t69 48.5z" glyph-name="q" horiz-adv-x="1218" unicode="q"/><glyph d="M102 0v989h369v-112q47 55 134 96t169 41v-352q-31 10 -84 10q-162 0 -219 -70v-602h-369z" glyph-name="r" horiz-adv-x="798" unicode="r"/><glyph d="M18 127l148 248q59 -47 167.5 -86t188.5 -39q98 0 99 47q0 23 -32 35t-108 22q-53 6 -76.5 10.5t-78 16.5t-83 25.5t-69.5 38t-61.5 54t-37 76t-16.5 101.5q0 141 118 239.5t325 98.5q236 0 428 -127l-135 -240q-51 41 -130 72t-161 31q-92 0 -92 -43q0 -20 26.5 -32.5 t100.5 -23.5q53 -8 77.5 -12t80 -16.5t85 -26.5t71.5 -40t64.5 -57.5t39 -78.5t16.5 -105q0 -150 -127 -245t-342 -95q-135 0 -270.5 42t-215.5 110z" glyph-name="s" horiz-adv-x="1003" unicode="s"/><glyph d="M518 -25q-166 0 -253 79t-87 233v383h-164v319h164v271h369v-271h201v-319h-201v-277q0 -39 22.5 -65.5t59.5 -26.5q55 0 73 18l66 -278q-74 -66 -250 -66z" glyph-name="t" horiz-adv-x="782" unicode="t"/><glyph d="M770 0v111q-123 -135 -340 -136q-164 0 -246 86t-82 222v706h369v-549q0 -139 143 -139q86 0 156 78v610h369v-989h-369z" glyph-name="u" horiz-adv-x="1241" unicode="u"/><glyph d="M352 0l-383 989h389l189 -565l190 565h389l-383 -989h-391z" glyph-name="v" horiz-adv-x="1095" unicode="v"/><glyph d="M985 0l-162 553l-159 -553h-402l-287 989h379l131 -545l174 545h330l172 -545l131 545h381l-287 -989h-401z" glyph-name="w" horiz-adv-x="1648" unicode="w"/><glyph d="M688 0l-153 262l-158 -262h-402l324 508l-303 481h403l133 -231l134 231h403l-303 -481l326 -508h-404z" glyph-name="x" horiz-adv-x="1067" unicode="x"/><glyph d="M143 -57q33 -18 78 -19q111 0 129 39l8 21l-389 1005h389l189 -565l190 565h389l-430 -1112q-61 -160 -171.5 -216t-288.5 -62q-88 0 -144 16z" glyph-name="y" horiz-adv-x="1095" unicode="y"/><glyph d="M68 0v270l348 400h-348v319h852v-258l-357 -412h365v-319h-860z" glyph-name="z" horiz-adv-x="995" unicode="z"/><glyph d="M489 -389q-156 0 -267 102.5t-111 274.5v284q0 59 -28 95t-79 36v193q51 0 79 36t28 95v283q0 172 111.5 275.5t266.5 103.5h123v-234h-123q-53 0 -87.5 -39t-34.5 -104v-326q0 -145 -95 -186q94 -41 95 -187v-323q0 -66 35.5 -106t86.5 -40h123v-233h-123z" glyph-name="braceleft" horiz-adv-x="647" unicode="{"/><glyph d="M111 -41v1448h233v-1448h-233z" glyph-name="bar" horiz-adv-x="454" unicode="|"/><glyph d="M35 -156h123q51 0 87 40t36 106v323q0 145 94 187q-94 41 -94 186v326q0 66 -35 104.5t-88 38.5h-123v234h123q156 0 267.5 -103.5t111.5 -275.5v-283q0 -59 27.5 -95t78.5 -36v-193q-51 0 -78.5 -35.5t-27.5 -95.5v-284q0 -172 -112 -274.5t-267 -102.5h-123v233z" glyph-name="braceright" horiz-adv-x="647" unicode="}"/><glyph d="M1010 1337q-8 -106 -23.5 -185t-49.5 -161t-97.5 -126t-155.5 -44q-61 0 -106.5 20.5t-72 62.5t-38.5 69.5t-27 79.5q-10 37 -16 53t-17.5 31.5t-27.5 15.5q-66 0 -86 -332l-242 27q8 104 24.5 185t50.5 162t98.5 126t154.5 45q51 0 91 -16.5t63.5 -37t44 -59.5 t27.5 -60.5t20 -64.5q14 -51 26.5 -73.5t32.5 -22.5q68 0 88 334z" glyph-name="asciitilde" horiz-adv-x="1060" unicode="~"/><glyph glyph-name="uni00A0" horiz-adv-x="522" unicode=" "/><glyph d="M285 1014q88 0 152.5 -64.5t64.5 -152.5q0 -90 -64.5 -154.5t-152.5 -64.5t-152.5 64.5t-64.5 154.5q0 88 64.5 152.5t152.5 64.5zM119 481h332l55 -858h-438z" glyph-name="exclamdown" horiz-adv-x="573" unicode="¡"/><glyph d="M606 301q106 0 166 86l238 -225q-88 -131 -283 -172v-195h-258v191q-195 37 -314.5 173t-119.5 336.5t119.5 336t314.5 172.5v153h258v-158q197 -41 283 -172l-238 -223q-55 84 -166 84q-82 0 -138 -50t-56 -142.5t56 -143.5t138 -51z" glyph-name="cent" horiz-adv-x="1028" unicode="¢"/><glyph d="M1008 408l157 -326q-98 -106 -327 -107q-100 0 -246 54q-84 33 -129 32q-102 0 -234 -75l-135 270q174 96 174 197q0 41 -18 100h-197v223h80q-47 94 -47 166q0 139 87 244.5t206 152.5t242 47q205 0 334.5 -63t203.5 -203l-328 -188q-43 123 -157 123q-59 0 -97 -35 t-38 -86t41 -150q2 0 2 -4q0 -2 2 -4h274v-223h-223q-4 -49 -36 -101.5t-75 -74.5q39 14 94 14q53 0 130 -26q66 -25 104 -25q107 0 156 68z" glyph-name="sterling" horiz-adv-x="1189" unicode="£"/><glyph d="M1221 682q0 -147 -74 -272l139 -136l-213 -213l-155 150q-119 -49 -254 -49q-141 0 -256 51l-152 -152l-215 213l139 140q-72 121 -71 268q0 152 73 270l-141 142l215 213l156 -156q115 49 252 49q135 0 254 -49l155 156l213 -213l-139 -142q74 -118 74 -270zM664 487 q90 0 140 54.5t50 140.5q0 84 -50 138t-140 54q-88 0 -138.5 -54t-50.5 -138q0 -86 50.5 -140.5t138.5 -54.5z" glyph-name="currency" horiz-adv-x="1327" unicode="¤"/><glyph d="M1397 1366l-375 -608h291v-215h-424v-109h424v-215h-424v-219h-414v219h-424v215h424v109h-424v215h291l-379 608h465l254 -461l250 461h465z" glyph-name="yen" horiz-adv-x="1359" unicode="¥"/><glyph d="M111 760v647h233v-647h-233zM111 -41v647h233v-647h-233z" glyph-name="brokenbar" horiz-adv-x="454" unicode="¦"/><glyph d="M819 426q154 -76 154 -252q0 -158 -132 -249t-337 -91q-281 0 -479 164l141 229q63 -55 157.5 -99t180.5 -44q117 0 117 55q0 18 -12.5 31.5t-41 25t-51 16.5t-70.5 15q-66 12 -104.5 22.5t-100 36t-95 57.5t-60.5 88t-27 128q0 88 52.5 152.5t111.5 95.5 q-164 76 -164 266q0 135 127 224t314 89q274 0 428 -133l-133 -215q-123 98 -277 99q-106 0 -106 -56q0 -16 11 -26.5t38.5 -19.5t48 -13t65.5 -12q70 -12 108 -21.5t101.5 -34t98.5 -55.5t62.5 -85t27.5 -126q0 -80 -41 -150.5t-113 -111.5zM500 719q-88 -16 -88 -98 q0 -88 129 -111q70 29 69 100q1 86 -110 109z" glyph-name="section" horiz-adv-x="1024" unicode="§"/><glyph d="M221 1083q-78 0 -130 52.5t-52 130t52 130t130 52.5t130 -52.5t52 -130t-52 -130t-130 -52.5zM664 1083q-76 0 -129.5 53.5t-53.5 129t53.5 129t129.5 53.5q78 0 131 -53.5t53 -129t-53 -129t-131 -53.5z" glyph-name="dieresis" horiz-adv-x="886" unicode="¨"/><glyph d="M797 -25q-293 0 -500 207t-207 500t207 500t500 207t499.5 -207t206.5 -500t-206.5 -500t-499.5 -207zM797 1303q-256 0 -438.5 -182.5t-182.5 -438.5t182.5 -438.5t438.5 -182.5t438 182.5t182 438.5t-182 438.5t-438 182.5zM1124 397q-123 -143 -311 -143 q-178 0 -302 123t-124 307t124 305t302 121q188 0 307 -139l-76 -76q-88 119 -231 119q-133 0 -223 -93.5t-90 -236.5q0 -141 91 -237.5t222 -96.5q143 0 234 121z" glyph-name="copyright" horiz-adv-x="1593" unicode="©"/><glyph d="M461 668v59q-59 -76 -197 -76q-86 0 -154.5 55.5t-68.5 156t67.5 152.5t155.5 52q139 0 197 -68v50q0 39 -30 63.5t-87 24.5q-96 0 -176 -74l-90 168q129 96 313 96q330 0 330 -285v-374h-260zM461 848v31q-23 37 -86 36q-78 0 -78 -53t78 -53q63 0 86 39z" glyph-name="ordfeminine" horiz-adv-x="802" unicode="ª"/><glyph d="M389 129l-328 369l328 362h328l-328 -362l328 -369h-328zM870 129l-327 369l327 362h328l-328 -362l328 -369h-328z" glyph-name="guillemotleft" horiz-adv-x="1259" unicode="«"/><glyph d="M985 389h-221v375h-705v215h926v-590z" glyph-name="logicalnot" horiz-adv-x="1079" unicode="¬"/><glyph d="M61 342v307h492v-307h-492z" glyph-name="uni00AD" horiz-adv-x="614" unicode="­"/><glyph d="M506 518q-180 0 -307 127t-127 307.5t127 307t307 126.5q182 0 308 -125.5t126 -308.5q0 -180 -127 -307t-307 -127zM505.5 1315q-151.5 0 -257 -105.5t-105.5 -257.5q0 -150 106.5 -256t256 -106t256 106.5t106.5 255.5q0 152 -105.5 257.5t-257 105.5zM623 702 l-129 197h-80v-197h-76v498h203q74 0 121 -42t47 -109q0 -72 -46.5 -110t-80.5 -38l133 -199h-92zM541 1137h-127v-172h127q41 0 65.5 22.5t24.5 61.5q0 41 -24.5 64.5t-65.5 23.5z" glyph-name="registered" horiz-adv-x="1011" unicode="®"/><glyph d="M0 1128v199h743v-199h-743z" glyph-name="macron" horiz-adv-x="743" unicode="¯"/><glyph d="M338 778q-125 0 -214 88t-89 215t89 216t214 89t215 -89t90 -216q0 -125 -89 -214t-216 -89zM338 1202q-49 0 -83 -36t-34 -85t34 -82.5t83 -33.5t85 33.5t36 82.5t-36 85t-85 36z" glyph-name="degree" horiz-adv-x="677" unicode="°"/><glyph d="M641 672v-396h-238v396h-344v215h344v379h238v-379h344v-215h-344zM59 0v215h926v-215h-926z" glyph-name="plusminus" horiz-adv-x="1044" unicode="±"/><glyph d="M86 862v195q197 137 284 202.5t108.5 91t21.5 52.5q0 78 -103 78q-61 0 -122.5 -31t-94.5 -68l-135 172q133 139 358 140q170 0 268.5 -73t98.5 -196q0 -80 -62.5 -155.5t-232.5 -194.5h303v-213h-692z" glyph-name="uni00B2" horiz-adv-x="833" unicode="²"/><glyph d="M414 848q-244 0 -367 127l127 178q47 -47 112.5 -69.5t116.5 -22.5q113 0 113 53q0 37 -35 47t-114 10q-88 0 -101 -2v209q18 -2 99 -2q78 0 107.5 11.5t29.5 42.5q0 51 -117 51q-123 0 -209 -80l-119 158q129 135 359 135q174 0 264 -62.5t90 -165.5q0 -63 -50 -115.5 t-132 -66.5q76 -6 136 -58t60 -132q0 -109 -102 -177.5t-268 -68.5z" glyph-name="uni00B3" horiz-adv-x="833" unicode="³"/><glyph d="M246 1139h-246l246 295h317z" glyph-name="acute" horiz-adv-x="563" unicode="´"/><glyph d="M471 -377h-369v1366h369v-549q0 -139 143 -139q86 0 156 78v610h369v-624q0 -31 20.5 -47.5t48.5 -16.5q20 0 39 6l23 -311q-68 -20 -160 -21q-248 0 -319 179q-33 -82 -95.5 -130.5t-144.5 -48.5q-47 0 -80 17v-369z" glyph-name="uni00B5" horiz-adv-x="1269" unicode="µ"/><glyph d="M711 -205v1407h-140v-1407h-163v867q-145 0 -249 103t-104 248.5t103.5 249t249.5 103.5h466v-1571h-163z" glyph-name="paragraph" horiz-adv-x="919" unicode="¶"/><glyph d="M289 283q-88 0 -152.5 64.5t-64.5 152.5q0 90 64.5 154.5t152.5 64.5t152.5 -64.5t64.5 -154.5q0 -88 -64.5 -152.5t-152.5 -64.5z" glyph-name="periodcentered" horiz-adv-x="579" unicode="·"/><glyph d="M0 -340l63 131q88 -61 170 -61q86 0 86 49q0 35 -43 35q-33 0 -53 -25l-121 70l62 164h164l-52 -119q31 18 70 18q57 0 98 -42t41 -107q0 -84 -69.5 -133.5t-171.5 -49.5q-158 0 -244 70z" glyph-name="cedilla" horiz-adv-x="485" unicode="¸"/><glyph d="M295 862v477l-143 -141l-152 160l334 323h231v-819h-270z" glyph-name="uni00B9" horiz-adv-x="688" unicode="¹"/><glyph d="M41 989q0 139 102.5 238.5t270.5 99.5q172 0 273 -99.5t101 -238.5t-101 -238.5t-273 -99.5q-168 0 -270.5 99.5t-102.5 238.5zM522 989q0 129 -108 129q-104 0 -105 -129q0 -133 105 -133q108 0 108 133z" glyph-name="ordmasculine" horiz-adv-x="829" unicode="º"/><glyph d="M389 129h-328l328 369l-328 362h328l328 -362zM870 129h-327l327 369l-327 362h327l328 -362z" glyph-name="guillemotright" horiz-adv-x="1259" unicode="»"/><glyph d="M295 547v477l-143 -141l-152 159l334 324h231v-819h-270zM535 0h-199l872 1366h201zM1665 145v-145h-268v145h-404v179l293 495h379v-465h96v-209h-96zM1397 596l-140 -242h140v242z" glyph-name="onequarter" horiz-adv-x="1787" unicode="¼"/><glyph d="M295 547v477l-143 -141l-152 159l334 324h231v-819h-270zM535 0h-199l872 1366h201zM1143 0v195q197 137 283.5 202.5t108 91t21.5 52.5q0 78 -102 77q-61 0 -122.5 -30.5t-94.5 -67.5l-135 172q133 139 358 139q170 0 268.5 -72.5t98.5 -195.5q0 -80 -62.5 -155.5 t-232.5 -194.5h303v-213h-692z" glyph-name="onehalf" horiz-adv-x="1890" unicode="½"/><glyph d="M414 532q-244 0 -367 127l127 179q47 -47 112.5 -70t116.5 -23q113 0 113 54q0 37 -35 47t-114 10q-88 0 -101 -2v209q18 -2 99 -2q78 0 107.5 11t29.5 42q0 51 -117 51q-123 0 -209 -80l-119 158q129 135 359 135q174 0 264 -62.5t90 -164.5q0 -63 -50 -115.5 t-132 -66.5q76 -6 136 -58.5t60 -132.5q0 -109 -102 -177.5t-268 -68.5zM680 0h-199l873 1366h200zM1810 145v-145h-268v145h-403v179l293 495h378v-465h97v-209h-97zM1542 596l-139 -242h139v242z" glyph-name="threequarters" horiz-adv-x="1933" unicode="¾"/><glyph d="M674 795q0 -90 -64.5 -155t-154.5 -65t-154.5 65t-64.5 155t64.5 154.5t154.5 64.5t154.5 -64.5t64.5 -154.5zM664 336q0 -68 -31 -123t-58.5 -78.5t-76.5 -58.5q-63 -43 -64 -66q0 -43 80 -43q96 0 178 86l230 -264q-86 -92 -208 -139t-247 -47q-207 0 -329 89t-122 240 q0 78 33 143.5t63.5 94.5t88.5 74q37 29 55 44t34.5 40.5t16.5 52.5q0 49 -22 76l323 73q56 -75 56 -194z" glyph-name="questiondown" horiz-adv-x="821" unicode="¿"/><glyph d="M608 1481l-317 295h317l246 -295h-246zM1042 0l-53 176h-524l-53 -176h-449l504 1366h520l504 -1366h-449zM727 1001l-156 -481h312z" glyph-name="Agrave" horiz-adv-x="1454" unicode="À"/><glyph d="M842 1481h-246l246 295h317zM1042 0l-53 176h-524l-53 -176h-449l504 1366h520l504 -1366h-449zM727 1001l-156 -481h312z" glyph-name="Aacute" horiz-adv-x="1454" unicode="Á"/><glyph d="M858 1481l-131 149l-125 -149h-215l180 295h320l186 -295h-215zM1042 0l-53 176h-524l-53 -176h-449l504 1366h520l504 -1366h-449zM727 1001l-156 -481h312z" glyph-name="Acircumflex" horiz-adv-x="1454" unicode="Â"/><glyph d="M676 1534q-45 31 -66 31q-49 0 -49 -76h-182q0 274 242 274q74 0 159 -57q47 -31 66 -31q49 0 49 76h182q0 -274 -241 -274q-74 0 -160 57zM1042 0l-53 176h-524l-53 -176h-449l504 1366h520l504 -1366h-449zM727 1001l-156 -481h312z" glyph-name="Atilde" horiz-adv-x="1454" unicode="Ã"/><glyph d="M506 1425q-76 0 -129 53.5t-53 129t53 129t129 53.5t129 -53.5t53 -129t-53 -129t-129 -53.5zM948 1425q-76 0 -129 53.5t-53 129t53 129t129 53.5q78 0 131.5 -53.5t53.5 -129t-53.5 -129t-131.5 -53.5zM1042 0l-53 176h-524l-53 -176h-449l504 1366h520l504 -1366h-449 zM727 1001l-156 -481h312z" glyph-name="Adieresis" horiz-adv-x="1454" unicode="Ä"/><glyph d="M500 1634.5q0 94.5 67.5 162t161.5 67.5t159.5 -67.5t65.5 -162t-65.5 -162t-159.5 -67.5t-161.5 67.5t-67.5 162zM799 1634.5q0 28.5 -20.5 50t-49.5 21.5t-50.5 -21.5t-21.5 -50t21.5 -50t50.5 -21.5t49.5 21.5t20.5 50zM1042 0l-53 176h-524l-53 -176h-449l504 1366 h520l504 -1366h-449zM727 1001l-156 -481h312z" glyph-name="Aring" horiz-adv-x="1454" unicode="Å"/><glyph d="M928 0v176h-436l-93 -176h-450l809 1366h1206v-344h-623v-160h609v-344h-609v-174h623v-344h-1036zM928 1001l-252 -481h252v481z" glyph-name="AE" horiz-adv-x="2025" unicode="Æ"/><glyph d="M778 340q96 0 172 57.5t103 141.5l356 -164q-43 -98 -107.5 -176t-185.5 -144.5t-274 -77.5l-33 -73q31 18 70 18q57 0 98 -42t41 -107q0 -84 -69.5 -133.5t-172.5 -49.5q-158 0 -244 70l64 131q88 -61 170 -61q86 0 86 49q0 35 -43 35q-33 0 -53 -25l-121 70l45 123 q-281 31 -462 223t-181 477q0 311 212 509t529 198q252 0 404.5 -115t226.5 -283l-356 -166q-27 84 -103 141.5t-172 57.5q-139 0 -230 -98.5t-91 -243.5t91 -243.5t230 -98.5z" glyph-name="Ccedilla" horiz-adv-x="1427" unicode="Ç"/><glyph d="M524 1481l-317 295h317l246 -295h-246zM111 0v1366h1036v-344h-623v-160h609v-344h-609v-174h623v-344h-1036z" glyph-name="Egrave" unicode="È"/><glyph d="M758 1481h-246l246 295h317zM111 0v1366h1036v-344h-623v-160h609v-344h-609v-174h623v-344h-1036z" glyph-name="Eacute" unicode="É"/><glyph d="M774 1481l-131 149l-125 -149h-215l180 295h320l186 -295h-215zM111 0v1366h1036v-344h-623v-160h609v-344h-609v-174h623v-344h-1036z" glyph-name="Ecircumflex" unicode="Ê"/><glyph d="M422 1425q-78 0 -130 53.5t-52 129t52 129t130 53.5t130 -53.5t52 -129t-52 -129t-130 -53.5zM864 1425q-76 0 -129 53.5t-53 129t53 129t129 53.5q78 0 131.5 -53.5t53.5 -129t-53.5 -129t-131.5 -53.5zM111 0v1366h1036v-344h-623v-160h609v-344h-609v-174h623v-344 h-1036z" glyph-name="Edieresis" unicode="Ë"/><glyph d="M199 1481l-318 295h318l245 -295h-245zM111 0v1366h413v-1366h-413z" glyph-name="Igrave" horiz-adv-x="634" unicode="Ì"/><glyph d="M432 1481h-246l246 295h318zM111 0v1366h413v-1366h-413z" glyph-name="Iacute" horiz-adv-x="634" unicode="Í"/><glyph d="M449 1481l-132 149l-124 -149h-216l181 295h319l187 -295h-215zM111 0v1366h413v-1366h-413z" glyph-name="Icircumflex" horiz-adv-x="634" unicode="Î"/><glyph d="M96 1425q-76 0 -129 53.5t-53 129t53 129t129 53.5t129.5 -53.5t53.5 -129t-53.5 -129t-129.5 -53.5zM539 1425q-76 0 -129.5 53.5t-53.5 129t53.5 129t129.5 53.5q78 0 131 -53.5t53 -129t-53 -129t-131 -53.5zM111 0v1366h413v-1366h-413z" glyph-name="Idieresis" horiz-adv-x="634" unicode="Ï"/><glyph d="M764 1366q332 0 540.5 -181t208.5 -500.5t-208.5 -502t-538.5 -182.5h-612v520h-140v326h140v520h610zM764 360q150 0 240 94.5t90 229.5q0 145 -84 233.5t-244 88.5h-199v-160h264v-326h-264v-160h197z" glyph-name="Eth" horiz-adv-x="1550" unicode="Ð"/><glyph d="M717 1534q-45 31 -66 31q-49 0 -49 -76h-182q0 274 242 274q74 0 159 -57q47 -31 66 -31q49 0 49 76h182q0 -274 -241 -274q-74 0 -160 57zM1028 0l-504 733v-733h-413v1366h426l475 -688v688h413v-1366h-397z" glyph-name="Ntilde" horiz-adv-x="1536" unicode="Ñ"/><glyph d="M666 1481l-318 295h318l245 -295h-245zM37 682q0 311 214 509t533.5 198t533.5 -198t214 -509t-214 -509t-533.5 -198t-533.5 198t-214 509zM1112 682q0 145 -91 243.5t-236.5 98.5t-236.5 -98.5t-91 -243.5t91 -243.5t236.5 -98.5t236.5 98.5t91 243.5z" glyph-name="Ograve" horiz-adv-x="1568" unicode="Ò"/><glyph d="M899 1481h-246l246 295h318zM37 682q0 311 214 509t533.5 198t533.5 -198t214 -509t-214 -509t-533.5 -198t-533.5 198t-214 509zM1112 682q0 145 -91 243.5t-236.5 98.5t-236.5 -98.5t-91 -243.5t91 -243.5t236.5 -98.5t236.5 98.5t91 243.5z" glyph-name="Oacute" horiz-adv-x="1568" unicode="Ó"/><glyph d="M915 1481l-131 149l-125 -149h-215l181 295h319l186 -295h-215zM37 682q0 311 214 509t533.5 198t533.5 -198t214 -509t-214 -509t-533.5 -198t-533.5 198t-214 509zM1112 682q0 145 -91 243.5t-236.5 98.5t-236.5 -98.5t-91 -243.5t91 -243.5t236.5 -98.5t236.5 98.5 t91 243.5z" glyph-name="Ocircumflex" horiz-adv-x="1568" unicode="Ô"/><glyph d="M733 1534q-45 31 -65 31q-49 0 -50 -76h-182q0 274 242 274q74 0 160 -57q47 -31 65 -31q49 0 49 76h183q0 -274 -242 -274q-74 0 -160 57zM37 682q0 311 214 509t533.5 198t533.5 -198t214 -509t-214 -509t-533.5 -198t-533.5 198t-214 509zM1112 682q0 145 -91 243.5 t-236.5 98.5t-236.5 -98.5t-91 -243.5t91 -243.5t236.5 -98.5t236.5 98.5t91 243.5z" glyph-name="Otilde" horiz-adv-x="1568" unicode="Õ"/><glyph d="M563 1425q-76 0 -129 53.5t-53 129t53 129t129 53.5t129 -53.5t53 -129t-53 -129t-129 -53.5zM1006 1425q-76 0 -129.5 53.5t-53.5 129t53.5 129t129.5 53.5q78 0 131 -53.5t53 -129t-53 -129t-131 -53.5zM37 682q0 311 214 509t533.5 198t533.5 -198t214 -509t-214 -509 t-533.5 -198t-533.5 198t-214 509zM1112 682q0 145 -91 243.5t-236.5 98.5t-236.5 -98.5t-91 -243.5t91 -243.5t236.5 -98.5t236.5 98.5t91 243.5z" glyph-name="Odieresis" horiz-adv-x="1568" unicode="Ö"/><glyph d="M522 532l-272 -274l-154 152l275 274l-275 274l154 152l272 -274l275 274l151 -152l-272 -274l272 -274l-151 -152z" glyph-name="multiply" horiz-adv-x="1044" unicode="×"/><glyph d="M1327 1184q205 -201 205 -502q0 -311 -214 -509t-534 -198q-223 0 -401 101l-64 -76h-282l178 209q-178 190 -178 473q0 311 214 509t533 198q201 0 365 -82l51 59h283zM457 682q0 -84 30 -154l408 480q-55 16 -111 16q-145 0 -236 -98.5t-91 -243.5zM784 340 q145 0 236.5 98.5t91.5 243.5q0 102 -49 190l-426 -499q69 -33 147 -33z" glyph-name="Oslash" horiz-adv-x="1568" unicode="Ø"/><glyph d="M649 1481l-317 295h317l246 -295h-246zM111 561v805h419v-791q0 -106 58.5 -170.5t179.5 -64.5q119 0 177.5 65.5t58.5 169.5v791h419v-803q0 -268 -161.5 -428t-493.5 -160t-494.5 159t-162.5 427z" glyph-name="Ugrave" horiz-adv-x="1533" unicode="Ù"/><glyph d="M883 1481h-246l246 295h317zM111 561v805h419v-791q0 -106 58.5 -170.5t179.5 -64.5q119 0 177.5 65.5t58.5 169.5v791h419v-803q0 -268 -161.5 -428t-493.5 -160t-494.5 159t-162.5 427z" glyph-name="Uacute" horiz-adv-x="1533" unicode="Ú"/><glyph d="M899 1481l-131 149l-125 -149h-215l180 295h320l186 -295h-215zM111 561v805h419v-791q0 -106 58.5 -170.5t179.5 -64.5q119 0 177.5 65.5t58.5 169.5v791h419v-803q0 -268 -161.5 -428t-493.5 -160t-494.5 159t-162.5 427z" glyph-name="Ucircumflex" horiz-adv-x="1533" unicode="Û"/><glyph d="M547 1425q-76 0 -129 53.5t-53 129t53 129t129 53.5t129 -53.5t53 -129t-53 -129t-129 -53.5zM989 1425q-76 0 -129 53.5t-53 129t53 129t129 53.5q78 0 131.5 -53.5t53.5 -129t-53.5 -129t-131.5 -53.5zM111 561v805h419v-791q0 -106 58.5 -170.5t179.5 -64.5 q119 0 177.5 65.5t58.5 169.5v791h419v-803q0 -268 -161.5 -428t-493.5 -160t-494.5 159t-162.5 427z" glyph-name="Udieresis" horiz-adv-x="1533" unicode="Ü"/><glyph d="M797 1481h-246l246 295h317zM475 0v543l-512 823h465l254 -461l250 461h465l-508 -823v-543h-414z" glyph-name="Yacute" horiz-adv-x="1359" unicode="Ý"/><glyph d="M111 0v1366h413v-197h316q231 0 361 -135t130 -335.5t-130 -333t-361 -132.5h-316v-233h-413zM911 700.5q0 55.5 -37.5 90t-105.5 34.5h-244v-247h244q70 0 106.5 33.5t36.5 89z" glyph-name="Thorn" horiz-adv-x="1355" unicode="Þ"/><glyph d="M942 -25q-250 0 -424 148l141 252q41 -51 124 -88t159 -37q90 0 90 43q0 29 -119 53q-61 12 -94 20.5t-91 34t-91 57t-58.5 89t-25.5 133.5q0 61 27.5 116.5t54.5 81t70 58.5q53 43 53 59q0 66 -115 66q-78 0 -124 -36t-46 -101v-924h-369v924q0 195 146.5 328.5 t400.5 133.5q195 0 340.5 -92t145.5 -241q0 -70 -31 -128.5t-56.5 -83t-74.5 -63.5q-70 -55 -70 -76q0 -27 86 -40q8 -2 15 -3q59 -8 95 -15t97.5 -31.5t96 -57.5t62 -95.5t27.5 -144.5q0 -154 -124.5 -247t-317.5 -93z" glyph-name="germandbls" horiz-adv-x="1409" unicode="ß"/><glyph d="M449 1139l-318 295h318l245 -295h-245zM674 0v94q-41 -53 -124 -86t-175 -33q-127 0 -233.5 85t-106.5 241q0 88 31.5 150.5t84 94.5t107.5 46t117 14q213 0 299 -108v112q0 53 -48 88t-137 35q-147 0 -274 -96l-125 227q186 150 467 150q98 0 180 -19.5t154 -63.5 t111.5 -129t39.5 -204v-598h-368zM674 268v56q-37 53 -146 53q-129 0 -129 -82q0 -80 129 -80q109 0 146 53z" glyph-name="agrave" horiz-adv-x="1144" unicode="à"/><glyph d="M682 1139h-246l246 295h317zM674 0v94q-41 -53 -124 -86t-175 -33q-127 0 -233.5 85t-106.5 241q0 88 31.5 150.5t84 94.5t107.5 46t117 14q213 0 299 -108v112q0 53 -48 88t-137 35q-147 0 -274 -96l-125 227q186 150 467 150q98 0 180 -19.5t154 -63.5t111.5 -129 t39.5 -204v-598h-368zM674 268v56q-37 53 -146 53q-129 0 -129 -82q0 -80 129 -80q109 0 146 53z" glyph-name="aacute" horiz-adv-x="1144" unicode="á"/><glyph d="M698 1139l-131 149l-125 -149h-215l181 295h319l186 -295h-215zM674 0v94q-41 -53 -124 -86t-175 -33q-127 0 -233.5 85t-106.5 241q0 88 31.5 150.5t84 94.5t107.5 46t117 14q213 0 299 -108v112q0 53 -48 88t-137 35q-147 0 -274 -96l-125 227q186 150 467 150 q98 0 180 -19.5t154 -63.5t111.5 -129t39.5 -204v-598h-368zM674 268v56q-37 53 -146 53q-129 0 -129 -82q0 -80 129 -80q109 0 146 53z" glyph-name="acircumflex" horiz-adv-x="1144" unicode="â"/><glyph d="M516 1192q-45 31 -65 31q-49 0 -50 -76h-182q0 274 242 274q74 0 160 -57q47 -31 65 -31q49 0 49 76h183q0 -274 -242 -274q-74 0 -160 57zM674 0v94q-41 -53 -124 -86t-175 -33q-127 0 -233.5 85t-106.5 241q0 88 31.5 150.5t84 94.5t107.5 46t117 14q213 0 299 -108 v112q0 53 -48 88t-137 35q-147 0 -274 -96l-125 227q186 150 467 150q98 0 180 -19.5t154 -63.5t111.5 -129t39.5 -204v-598h-368zM674 268v56q-37 53 -146 53q-129 0 -129 -82q0 -80 129 -80q109 0 146 53z" glyph-name="atilde" horiz-adv-x="1144" unicode="ã"/><glyph d="M346 1083q-76 0 -129 52.5t-53 130t53 130t129 52.5t129 -52.5t53 -130t-53 -130t-129 -52.5zM788 1083q-76 0 -129 53.5t-53 129t53.5 129t128.5 53.5q78 0 131.5 -53.5t53.5 -129t-53.5 -129t-131.5 -53.5zM674 0v94q-41 -53 -124 -86t-175 -33q-127 0 -233.5 85 t-106.5 241q0 88 31.5 150.5t84 94.5t107.5 46t117 14q213 0 299 -108v112q0 53 -48 88t-137 35q-147 0 -274 -96l-125 227q186 150 467 150q98 0 180 -19.5t154 -63.5t111.5 -129t39.5 -204v-598h-368zM674 268v56q-37 53 -146 53q-129 0 -129 -82q0 -80 129 -80 q109 0 146 53z" glyph-name="adieresis" horiz-adv-x="1144" unicode="ä"/><glyph d="M340 1292q0 94 67.5 162t162 68t160 -68t65.5 -162t-65.5 -161.5t-160 -67.5t-162 67.5t-67.5 161.5zM639 1292.5q0 28.5 -20.5 50t-49 21.5t-50 -21.5t-21.5 -50t21.5 -50t50 -21.5t49 21.5t20.5 50zM674 0v94q-41 -53 -124 -86t-175 -33q-127 0 -233.5 85t-106.5 241 q0 88 31.5 150.5t84 94.5t107.5 46t117 14q213 0 299 -108v112q0 53 -48 88t-137 35q-147 0 -274 -96l-125 227q186 150 467 150q98 0 180 -19.5t154 -63.5t111.5 -129t39.5 -204v-598h-368zM674 268v56q-37 53 -146 53q-129 0 -129 -82q0 -80 129 -80q109 0 146 53z" glyph-name="aring" horiz-adv-x="1144" unicode="å"/><glyph d="M1065 381q55 -117 213 -117q121 0 201 70l159 -236q-70 -59 -183.5 -91t-219.5 -32q-217 0 -358 134q-158 -133 -406 -134q-193 0 -314.5 80t-121.5 240q0 158 98 239.5t248 81.5q96 0 182 -28.5t129 -77.5v100q0 53 -50 87t-142 34q-156 0 -285 -96l-125 229 q186 150 467 150q213 0 320 -121q135 121 348 121q209 0 351 -151.5t142 -405.5v-76h-653zM1368 614q-29 119 -156 119q-121 0 -151 -119h307zM692 322q-43 55 -155 55q-55 0 -96.5 -18.5t-41.5 -53.5t36 -52t79 -17q72 0 125 25.5t53 53.5v7z" glyph-name="ae" horiz-adv-x="1742" unicode="æ"/><glyph d="M606 301q106 0 166 86l238 -225q-45 -68 -139.5 -121t-229.5 -64l-31 -73q31 18 70 18q57 0 98 -42t41 -107q0 -84 -69.5 -133.5t-171.5 -49.5q-158 0 -244 70l63 131q88 -61 170 -61q86 0 86 49q0 35 -43 35q-33 0 -53 -25l-121 70l47 125q-199 31 -323.5 169 t-124.5 343q0 231 157.5 374.5t397.5 143.5q154 0 262.5 -56.5t157.5 -130.5l-238 -223q-55 84 -166 84q-82 0 -138 -50t-56 -142.5t56 -143.5t138 -51z" glyph-name="ccedilla" horiz-adv-x="1028" unicode="ç"/><glyph d="M455 1139l-318 295h318l245 -295h-245zM35 496q0 219 151.5 368.5t386.5 149.5q223 0 368.5 -150.5t145.5 -406.5v-76h-671q16 -53 72.5 -89t144.5 -36q135 0 223 70l152 -228q-70 -59 -186.5 -91t-235.5 -32q-238 0 -394.5 141.5t-156.5 379.5zM573 733 q-129 0 -161 -119h325q-29 119 -164 119z" glyph-name="egrave" horiz-adv-x="1112" unicode="è"/><glyph d="M688 1139h-246l246 295h318zM35 496q0 219 151.5 368.5t386.5 149.5q223 0 368.5 -150.5t145.5 -406.5v-76h-671q16 -53 72.5 -89t144.5 -36q135 0 223 70l152 -228q-70 -59 -186.5 -91t-235.5 -32q-238 0 -394.5 141.5t-156.5 379.5zM573 733q-129 0 -161 -119h325 q-29 119 -164 119z" glyph-name="eacute" horiz-adv-x="1112" unicode="é"/><glyph d="M705 1139l-132 149l-124 -149h-216l181 295h319l187 -295h-215zM35 496q0 219 151.5 368.5t386.5 149.5q223 0 368.5 -150.5t145.5 -406.5v-76h-671q16 -53 72.5 -89t144.5 -36q135 0 223 70l152 -228q-70 -59 -186.5 -91t-235.5 -32q-238 0 -394.5 141.5t-156.5 379.5z M573 733q-129 0 -161 -119h325q-29 119 -164 119z" glyph-name="ecircumflex" horiz-adv-x="1112" unicode="ê"/><glyph d="M352 1083q-78 0 -130 52.5t-52 130t52 130t130 52.5t130.5 -52.5t52.5 -130t-52.5 -130t-130.5 -52.5zM795 1083q-76 0 -129.5 53.5t-53.5 129t53.5 129t129.5 53.5q78 0 131 -53.5t53 -129t-53 -129t-131 -53.5zM35 496q0 219 151.5 368.5t386.5 149.5 q223 0 368.5 -150.5t145.5 -406.5v-76h-671q16 -53 72.5 -89t144.5 -36q135 0 223 70l152 -228q-70 -59 -186.5 -91t-235.5 -32q-238 0 -394.5 141.5t-156.5 379.5zM573 733q-129 0 -161 -119h325q-29 119 -164 119z" glyph-name="edieresis" horiz-adv-x="1112" unicode="ë"/><glyph d="M168 1139l-318 295h318l246 -295h-246zM102 0v989h369v-989h-369z" glyph-name="igrave" horiz-adv-x="573" unicode="ì"/><glyph d="M401 1139h-245l245 295h318zM102 0v989h369v-989h-369z" glyph-name="iacute" horiz-adv-x="573" unicode="í"/><glyph d="M418 1139l-131 149l-125 -149h-215l180 295h319l187 -295h-215zM102 0v989h369v-989h-369z" glyph-name="icircumflex" horiz-adv-x="573" unicode="î"/><glyph d="M65.5 1083q-77.5 0 -130 52.5t-52.5 130t52.5 130t130 52.5t130 -52.5t52.5 -130t-52.5 -130t-130 -52.5zM508 1083q-76 0 -129 53.5t-53 129t53 129t129 53.5q78 0 131 -53.5t53 -129t-53 -129t-131 -53.5zM102 0v989h369v-989h-369z" glyph-name="idieresis" horiz-adv-x="573" unicode="ï"/><glyph d="M825 1192q322 -299 322 -664q0 -254 -147.5 -403.5t-409.5 -149.5q-250 0 -402.5 128t-152.5 337q0 205 124 334t302 129q219 0 332 -196q-45 145 -316 329l-305 -135l-66 160l199 86q-18 12 -54 32.5t-42 24.5l197 293q158 -94 274 -184l203 88l67 -154zM590 301 q84 0 131 38t47 101.5t-47 101.5t-131 38q-82 0 -129 -38t-47 -101.5t47 -101.5t129 -38z" glyph-name="eth" horiz-adv-x="1181" unicode="ð"/><glyph d="M569 1192q-45 31 -65 31q-49 0 -49 -76h-183q0 274 242 274q74 0 160 -57q47 -31 65 -31q49 0 49 76h183q0 -274 -242 -274q-74 0 -160 57zM772 0v547q0 141 -143 141q-88 0 -158 -78v-610h-369v989h369v-112q121 137 340 137q164 0 247 -87t83 -225v-702h-369z" glyph-name="ntilde" horiz-adv-x="1243" unicode="ñ"/><glyph d="M471 1139l-317 295h317l246 -295h-246zM590 -25q-254 0 -404.5 152t-150.5 369t150.5 367.5t404.5 150.5t405.5 -150.5t151.5 -367.5t-151.5 -369t-405.5 -152zM590 301q84 0 131 54.5t47 140.5q0 84 -47 138t-131 54q-82 0 -129 -54t-47 -138q0 -86 47 -140.5t129 -54.5 z" glyph-name="ograve" horiz-adv-x="1181" unicode="ò"/><glyph d="M705 1139h-246l246 295h317zM590 -25q-254 0 -404.5 152t-150.5 369t150.5 367.5t404.5 150.5t405.5 -150.5t151.5 -367.5t-151.5 -369t-405.5 -152zM590 301q84 0 131 54.5t47 140.5q0 84 -47 138t-131 54q-82 0 -129 -54t-47 -138q0 -86 47 -140.5t129 -54.5z" glyph-name="oacute" horiz-adv-x="1181" unicode="ó"/><glyph d="M721 1139l-131 149l-125 -149h-215l180 295h320l186 -295h-215zM590 -25q-254 0 -404.5 152t-150.5 369t150.5 367.5t404.5 150.5t405.5 -150.5t151.5 -367.5t-151.5 -369t-405.5 -152zM590 301q84 0 131 54.5t47 140.5q0 84 -47 138t-131 54q-82 0 -129 -54t-47 -138 q0 -86 47 -140.5t129 -54.5z" glyph-name="ocircumflex" horiz-adv-x="1181" unicode="ô"/><glyph d="M539 1192q-45 31 -66 31q-49 0 -49 -76h-182q0 274 241 274q74 0 160 -57q47 -31 66 -31q49 0 49 76h182q0 -274 -242 -274q-73 0 -159 57zM590 -25q-254 0 -404.5 152t-150.5 369t150.5 367.5t404.5 150.5t405.5 -150.5t151.5 -367.5t-151.5 -369t-405.5 -152zM590 301 q84 0 131 54.5t47 140.5q0 84 -47 138t-131 54q-82 0 -129 -54t-47 -138q0 -86 47 -140.5t129 -54.5z" glyph-name="otilde" horiz-adv-x="1181" unicode="õ"/><glyph d="M368.5 1083q-77.5 0 -130 52.5t-52.5 130t52.5 130t130 52.5t130 -52.5t52.5 -130t-52.5 -130t-130 -52.5zM811 1083q-76 0 -129 53.5t-53 129t53 129t129 53.5q78 0 131 -53.5t53 -129t-53 -129t-131 -53.5zM590 -25q-254 0 -404.5 152t-150.5 369t150.5 367.5 t404.5 150.5t405.5 -150.5t151.5 -367.5t-151.5 -369t-405.5 -152zM590 301q84 0 131 54.5t47 140.5q0 84 -47 138t-131 54q-82 0 -129 -54t-47 -138q0 -86 47 -140.5t129 -54.5z" glyph-name="odieresis" horiz-adv-x="1181" unicode="ö"/><glyph d="M522.5 877q-63.5 0 -109.5 46t-46 111q0 63 45 108.5t110.5 45.5t110.5 -45t45 -109q0 -66 -46 -111.5t-109.5 -45.5zM59 584v215h928v-215h-928zM522.5 193q-63.5 0 -109.5 45t-46 110.5t46 110.5t109.5 45t109.5 -45t46 -110.5t-46 -110.5t-109.5 -45z" glyph-name="divide" horiz-adv-x="1046" unicode="÷"/><glyph d="M1147 989l-133 -145q133 -145 133 -348q0 -217 -151.5 -369t-405.5 -152q-172 0 -301 74l-45 -49h-209l133 145q-133 145 -133 351q0 217 150.5 367.5t404.5 150.5q168 0 299 -72l43 47h215zM414 496q0 -41 8 -68l229 252q-37 8 -61 8q-82 0 -129 -54t-47 -138zM768 496 q0 33 -10 67l-230 -252q31 -10 62 -10q84 0 131 54.5t47 140.5z" glyph-name="oslash" horiz-adv-x="1181" unicode="ø"/><glyph d="M502 1139l-318 295h318l246 -295h-246zM770 0v111q-123 -135 -340 -136q-164 0 -246 86t-82 222v706h369v-549q0 -139 143 -139q86 0 156 78v610h369v-989h-369z" glyph-name="ugrave" horiz-adv-x="1241" unicode="ù"/><glyph d="M735 1139h-246l246 295h318zM770 0v111q-123 -135 -340 -136q-164 0 -246 86t-82 222v706h369v-549q0 -139 143 -139q86 0 156 78v610h369v-989h-369z" glyph-name="uacute" horiz-adv-x="1241" unicode="ú"/><glyph d="M752 1139l-131 149l-125 -149h-215l180 295h319l187 -295h-215zM770 0v111q-123 -135 -340 -136q-164 0 -246 86t-82 222v706h369v-549q0 -139 143 -139q86 0 156 78v610h369v-989h-369z" glyph-name="ucircumflex" horiz-adv-x="1241" unicode="û"/><glyph d="M399.5 1083q-75.5 0 -129 52.5t-53.5 130t53.5 130t129 52.5t129 -52.5t53.5 -130t-53.5 -130t-129 -52.5zM842 1083q-76 0 -129.5 53.5t-53.5 129t53.5 129t129.5 53.5q78 0 131 -53.5t53 -129t-53 -129t-131 -53.5zM770 0v111q-123 -135 -340 -136q-164 0 -246 86 t-82 222v706h369v-549q0 -139 143 -139q86 0 156 78v610h369v-989h-369z" glyph-name="udieresis" horiz-adv-x="1241" unicode="ü"/><glyph d="M662 1139h-246l246 295h317zM143 -57q33 -18 78 -19q111 0 129 39l8 21l-389 1005h389l189 -565l190 565h389l-430 -1112q-61 -160 -171.5 -216t-288.5 -62q-88 0 -144 16z" glyph-name="yacute" horiz-adv-x="1095" unicode="ý"/><glyph d="M471 104v-481h-369v1743h369v-481q109 129 279 129q190 0 312 -136.5t122 -381.5q0 -248 -122 -384.5t-312 -136.5q-166 0 -279 129zM807 496q0 88 -53.5 140t-130.5 52q-39 0 -83 -18.5t-69 -48.5v-252q23 -29 69 -48.5t83 -19.5q78 0 131 52.5t53 142.5z" glyph-name="thorn" horiz-adv-x="1218" unicode="þ"/><glyph d="M325.5 1083q-75.5 0 -129 52.5t-53.5 130t53.5 130t129 52.5t129 -52.5t53.5 -130t-53.5 -130t-129 -52.5zM768 1083q-76 0 -129 53.5t-53 129t53 129t129 53.5q78 0 131 -53.5t53 -129t-53 -129t-131 -53.5zM143 -57q33 -18 78 -19q111 0 129 39l8 21l-389 1005h389 l189 -565l190 565h389l-430 -1112q-61 -160 -171.5 -216t-288.5 -62q-88 0 -144 16z" glyph-name="ydieresis" horiz-adv-x="1095" unicode="ÿ"/><glyph d="M354 1470v199h744v-199h-744zM1042 0l-53 176h-524l-53 -176h-449l504 1366h520l504 -1366h-449zM727 1001l-156 -481h312z" glyph-name="Amacron" horiz-adv-x="1454" unicode="Ā"/><glyph d="M195 1128v199h743v-199h-743zM674 0v94q-41 -53 -124 -86t-175 -33q-127 0 -233.5 85t-106.5 241q0 88 31.5 150.5t84 94.5t107.5 46t117 14q213 0 299 -108v112q0 53 -48 88t-137 35q-147 0 -274 -96l-125 227q186 150 467 150q98 0 180 -19.5t154 -63.5t111.5 -129 t39.5 -204v-598h-368zM674 268v56q-37 53 -146 53q-129 0 -129 -82q0 -80 129 -80q109 0 146 53z" glyph-name="amacron" horiz-adv-x="1144" unicode="ā"/><glyph d="M727 1468q-223 0 -360 181l155 127q78 -109 205 -109q129 0 205 109l153 -127q-133 -181 -358 -181zM1042 0l-53 176h-524l-53 -176h-449l504 1366h520l504 -1366h-449zM727 1001l-156 -481h312z" glyph-name="Abreve" horiz-adv-x="1454" unicode="Ă"/><glyph d="M567 1126q-223 0 -360 181l155 127q78 -109 205 -109q129 0 205 109l154 -127q-134 -181 -359 -181zM674 0v94q-41 -53 -124 -86t-175 -33q-127 0 -233.5 85t-106.5 241q0 88 31.5 150.5t84 94.5t107.5 46t117 14q213 0 299 -108v112q0 53 -48 88t-137 35 q-147 0 -274 -96l-125 227q186 150 467 150q98 0 180 -19.5t154 -63.5t111.5 -129t39.5 -204v-598h-368zM674 268v56q-37 53 -146 53q-129 0 -129 -82q0 -80 129 -80q109 0 146 53z" glyph-name="abreve" horiz-adv-x="1144" unicode="ă"/><glyph d="M1405 0q-88 -8 -133 -41t-45 -78q0 -27 19.5 -43t47.5 -16q25 0 49 10l56 -172q-84 -41 -219 -41q-66 0 -122.5 14.5t-102.5 57.5t-46 108q0 129 230 201h-97l-53 176h-524l-53 -176h-449l504 1366h520l504 -1366h-86zM571 520h312l-156 481z" glyph-name="Aogonek" horiz-adv-x="1454" unicode="Ą"/><glyph d="M1042 0q-88 -8 -133 -41t-45 -78q0 -27 19.5 -43t48.5 -16q25 0 49 10l55 -172q-84 -41 -219 -41q-66 0 -122 14.5t-102 57.5t-46 108q0 129 229 201h-102v94q-41 -53 -124 -86t-175 -33q-127 0 -233.5 85t-106.5 241q0 88 31.5 150.5t84 94.5t107.5 46t117 14 q213 0 299 -108v112q0 53 -48 88t-137 35q-147 0 -274 -96l-125 227q186 150 467 150q98 0 180 -19.5t154 -63.5t111.5 -129t39.5 -204v-598zM674 268v56q-37 53 -146 53q-129 0 -129 -82q0 -80 129 -80q109 0 146 53z" glyph-name="aogonek" horiz-adv-x="1144" unicode="ą"/><glyph d="M893 1481h-246l246 295h317zM778 -25q-317 0 -529 198t-212 509t212 509t529 198q252 0 404.5 -115t226.5 -283l-356 -166q-27 84 -103 141.5t-172 57.5q-139 0 -230 -98.5t-91 -243.5t91 -243.5t230 -98.5q96 0 172 57.5t103 141.5l356 -164q-33 -76 -82 -140.5 t-124 -126t-184.5 -97.5t-240.5 -36z" glyph-name="Cacute" horiz-adv-x="1427" unicode="Ć"/><glyph d="M694 1139h-245l245 295h318zM35 496q0 231 157.5 374.5t397.5 143.5q154 0 262.5 -56.5t157.5 -130.5l-238 -223q-55 84 -166 84q-82 0 -138 -50t-56 -142.5t56 -143.5t138 -51q106 0 166 86l238 -225q-49 -74 -158 -130.5t-262 -56.5q-240 0 -397.5 144t-157.5 377z" glyph-name="cacute" horiz-adv-x="1028" unicode="ć"/><glyph d="M909 1481l-131 149l-125 -149h-215l180 295h320l186 -295h-215zM778 -25q-317 0 -529 198t-212 509t212 509t529 198q252 0 404.5 -115t226.5 -283l-356 -166q-27 84 -103 141.5t-172 57.5q-139 0 -230 -98.5t-91 -243.5t91 -243.5t230 -98.5q96 0 172 57.5t103 141.5 l356 -164q-33 -76 -82 -140.5t-124 -126t-184.5 -97.5t-240.5 -36z" glyph-name="Ccircumflex" horiz-adv-x="1427" unicode="Ĉ"/><glyph d="M711 1139l-131 149l-125 -149h-215l180 295h319l187 -295h-215zM35 496q0 231 157.5 374.5t397.5 143.5q154 0 262.5 -56.5t157.5 -130.5l-238 -223q-55 84 -166 84q-82 0 -138 -50t-56 -142.5t56 -143.5t138 -51q106 0 166 86l238 -225q-49 -74 -158 -130.5t-262 -56.5 q-240 0 -397.5 144t-157.5 377z" glyph-name="ccircumflex" horiz-adv-x="1028" unicode="ĉ"/><glyph d="M596 1610q0 76 53 129t129 53q74 0 127 -53t53 -129t-53 -129.5t-127 -53.5q-76 0 -129 53.5t-53 129.5zM778 -25q-317 0 -529 198t-212 509t212 509t529 198q252 0 404.5 -115t226.5 -283l-356 -166q-27 84 -103 141.5t-172 57.5q-139 0 -230 -98.5t-91 -243.5 t91 -243.5t230 -98.5q96 0 172 57.5t103 141.5l356 -164q-33 -76 -82 -140.5t-124 -126t-184.5 -97.5t-240.5 -36z" glyph-name="Cdotaccent" horiz-adv-x="1427" unicode="Ċ"/><glyph d="M397 1267.5q0 75.5 53.5 129t129.5 53.5q74 0 127 -53.5t53 -129t-53.5 -129t-126.5 -53.5q-76 0 -129.5 53.5t-53.5 129zM35 496q0 231 157.5 374.5t397.5 143.5q154 0 262.5 -56.5t157.5 -130.5l-238 -223q-55 84 -166 84q-82 0 -138 -50t-56 -142.5t56 -143.5t138 -51 q106 0 166 86l238 -225q-49 -74 -158 -130.5t-262 -56.5q-240 0 -397.5 144t-157.5 377z" glyph-name="cdotaccent" horiz-adv-x="1028" unicode="ċ"/><glyph d="M618 1481l-186 295h215l131 -150l125 150h215l-180 -295h-320zM778 -25q-317 0 -529 198t-212 509t212 509t529 198q252 0 404.5 -115t226.5 -283l-356 -166q-27 84 -103 141.5t-172 57.5q-139 0 -230 -98.5t-91 -243.5t91 -243.5t230 -98.5q96 0 172 57.5t103 141.5 l356 -164q-33 -76 -82 -140.5t-124 -126t-184.5 -97.5t-240.5 -36z" glyph-name="Ccaron" horiz-adv-x="1427" unicode="Č"/><glyph d="M420 1139l-187 295h216l131 -150l125 150h215l-181 -295h-319zM35 496q0 231 157.5 374.5t397.5 143.5q154 0 262.5 -56.5t157.5 -130.5l-238 -223q-55 84 -166 84q-82 0 -138 -50t-56 -142.5t56 -143.5t138 -51q106 0 166 86l238 -225q-49 -74 -158 -130.5t-262 -56.5 q-240 0 -397.5 144t-157.5 377z" glyph-name="ccaron" horiz-adv-x="1028" unicode="č"/><glyph d="M590 1481l-187 295h215l132 -150l124 150h216l-181 -295h-319zM111 0v1366h610q332 0 540.5 -181t208.5 -500.5t-208.5 -502t-538.5 -182.5h-612zM524 360h197q150 0 240 94.5t90 229.5q0 145 -84 233.5t-244 88.5h-199v-646z" glyph-name="Dcaron" horiz-adv-x="1507" unicode="Ď"/><glyph d="M1327 854l-113 90q39 18 83 62.5t57 87.5q-10 -6 -39 -7q-57 0 -95 39t-38 103q0 68 47 115t112 47q74 0 126.5 -53.5t52.5 -145.5q0 -203 -193 -338zM750 0v104q-115 -129 -279 -129q-188 0 -312 137.5t-124 383.5q0 240 124 379t312 139q172 0 279 -129v481h368v-1366 h-368zM750 369v254q-53 66 -154 65q-78 0 -131 -52t-53 -140q0 -90 53 -142.5t131 -52.5q99 0 154 68z" glyph-name="dcaron" horiz-adv-x="1507" unicode="ď"/><glyph d="M764 1366q332 0 540.5 -181t208.5 -500.5t-208.5 -502t-538.5 -182.5h-612v520h-140v326h140v520h610zM764 360q150 0 240 94.5t90 229.5q0 145 -84 233.5t-244 88.5h-199v-160h264v-326h-264v-160h197z" glyph-name="Dcroat" horiz-adv-x="1550" unicode="Đ"/><glyph d="M1219 1266v-199h-101v-1067h-368v104q-115 -129 -279 -129q-188 0 -312 137.5t-124 383.5q0 240 124 379t312 139q172 0 279 -129v182h-275v199h275v100h368v-100h101zM750 369v254q-53 66 -154 65q-78 0 -131 -52t-53 -140q0 -90 53 -142.5t131 -52.5q99 0 154 68z" glyph-name="dcroat" horiz-adv-x="1232" unicode="đ"/><glyph d="M270 1470v199h744v-199h-744zM111 0v1366h1036v-344h-623v-160h609v-344h-609v-174h623v-344h-1036z" glyph-name="Emacron" unicode="Ē"/><glyph d="M201 1128v199h743v-199h-743zM35 496q0 219 151.5 368.5t386.5 149.5q223 0 368.5 -150.5t145.5 -406.5v-76h-671q16 -53 72.5 -89t144.5 -36q135 0 223 70l152 -228q-70 -59 -186.5 -91t-235.5 -32q-238 0 -394.5 141.5t-156.5 379.5zM573 733q-129 0 -161 -119h325 q-29 119 -164 119z" glyph-name="emacron" horiz-adv-x="1112" unicode="ē"/><glyph d="M643 1468q-223 0 -360 181l155 127q78 -109 205 -109q129 0 205 109l153 -127q-133 -181 -358 -181zM111 0v1366h1036v-344h-623v-160h609v-344h-609v-174h623v-344h-1036z" glyph-name="Ebreve" unicode="Ĕ"/><glyph d="M573 1126q-223 0 -360 181l156 127q78 -109 204 -109q129 0 205 109l154 -127q-134 -181 -359 -181zM35 496q0 219 151.5 368.5t386.5 149.5q223 0 368.5 -150.5t145.5 -406.5v-76h-671q16 -53 72.5 -89t144.5 -36q135 0 223 70l152 -228q-70 -59 -186.5 -91t-235.5 -32 q-238 0 -394.5 141.5t-156.5 379.5zM573 733q-129 0 -161 -119h325q-29 119 -164 119z" glyph-name="ebreve" horiz-adv-x="1112" unicode="ĕ"/><glyph d="M461 1610q0 76 53 129t129 53q74 0 127 -53t53 -129t-53 -129.5t-127 -53.5q-76 0 -129 53.5t-53 129.5zM111 0v1366h1036v-344h-623v-160h609v-344h-609v-174h623v-344h-1036z" glyph-name="Edotaccent" unicode="Ė"/><glyph d="M391 1267.5q0 75.5 53.5 129t128.5 53.5q74 0 127.5 -53.5t53.5 -129t-53.5 -129t-127.5 -53.5q-76 0 -129 53.5t-53 129zM35 496q0 219 151.5 368.5t386.5 149.5q223 0 368.5 -150.5t145.5 -406.5v-76h-671q16 -53 72.5 -89t144.5 -36q135 0 223 70l152 -228 q-70 -59 -186.5 -91t-235.5 -32q-238 0 -394.5 141.5t-156.5 379.5zM573 733q-129 0 -161 -119h325q-29 119 -164 119z" glyph-name="edotaccent" horiz-adv-x="1112" unicode="ė"/><glyph d="M1147 1022h-623v-160h609v-344h-609v-174h623v-344q-88 -8 -133 -41t-45 -78q0 -27 19.5 -43t47.5 -16q25 0 49 10l56 -172q-84 -41 -219 -41q-66 0 -122.5 14.5t-102.5 57.5t-46 108q0 129 230 201h-770v1366h1036v-344z" glyph-name="Eogonek" unicode="Ę"/><glyph d="M586 -25q-238 0 -394.5 141.5t-156.5 379.5q0 219 151.5 368.5t386.5 149.5q223 0 368.5 -150.5t145.5 -406.5v-76h-671q16 -51 71.5 -88t141.5 -37q47 0 119.5 20.5t107.5 49.5l152 -228q-82 -55 -127 -114.5t-45 -102.5q0 -27 19 -43t48 -16q25 0 49 10l56 -172 q-84 -41 -220 -41q-66 0 -122 14.5t-102 57.5t-46 108q0 125 154 181q-57 -5 -86 -5zM573 733q-129 0 -161 -119h325q-29 119 -164 119z" glyph-name="eogonek" horiz-adv-x="1112" unicode="ę"/><glyph d="M483 1481l-186 295h215l131 -150l125 150h215l-180 -295h-320zM111 0v1366h1036v-344h-623v-160h609v-344h-609v-174h623v-344h-1036z" glyph-name="Ecaron" unicode="Ě"/><glyph d="M414 1139l-187 295h215l131 -150l125 150h215l-180 -295h-319zM35 496q0 219 151.5 368.5t386.5 149.5q223 0 368.5 -150.5t145.5 -406.5v-76h-671q16 -53 72.5 -89t144.5 -36q135 0 223 70l152 -228q-70 -59 -186.5 -91t-235.5 -32q-238 0 -394.5 141.5t-156.5 379.5z M573 733q-129 0 -161 -119h325q-29 119 -164 119z" glyph-name="ecaron" horiz-adv-x="1112" unicode="ě"/><glyph d="M920 1481l-132 149l-124 -149h-215l180 295h319l187 -295h-215zM37 681.5q0 319.5 216 513.5t535 194q221 0 371 -94.5t230 -241.5l-349 -179q-35 66 -101.5 108t-150.5 42q-147 0 -239 -98.5t-92 -243.5t92 -243.5t239 -98.5q139 0 224 61v60h-264v340h665v-549 q-250 -276 -625 -277q-319 0 -535 193.5t-216 513z" glyph-name="Gcircumflex" horiz-adv-x="1486" unicode="Ĝ"/><glyph d="M748 1139l-132 149l-124 -149h-216l181 295h319l187 -295h-215zM68 -254l155 262q109 -109 295 -108q88 0 159 46t71 160v54q-117 -133 -279 -133q-190 0 -312 126t-122 367q0 238 122 366t312 128q170 0 279 -129v104h368v-883q0 -123 -40 -217t-99 -147t-142 -87 t-159 -45t-158 -11q-264 0 -450 147zM748 416v209q-25 29 -69 46t-83 17q-82 0 -133 -41t-51 -127t51 -127t133 -41q39 0 83 17.5t69 46.5z" glyph-name="gcircumflex" horiz-adv-x="1218" unicode="ĝ"/><glyph d="M788 1468q-223 0 -360 181l156 127q78 -109 204 -109q129 0 205 109l154 -127q-134 -181 -359 -181zM37 681.5q0 319.5 216 513.5t535 194q221 0 371 -94.5t230 -241.5l-349 -179q-35 66 -101.5 108t-150.5 42q-147 0 -239 -98.5t-92 -243.5t92 -243.5t239 -98.5 q139 0 224 61v60h-264v340h665v-549q-250 -276 -625 -277q-319 0 -535 193.5t-216 513z" glyph-name="Gbreve" horiz-adv-x="1486" unicode="Ğ"/><glyph d="M616 1126q-223 0 -360 181l156 127q78 -109 204 -109q129 0 205 109l154 -127q-134 -181 -359 -181zM68 -254l155 262q109 -109 295 -108q88 0 159 46t71 160v54q-117 -133 -279 -133q-190 0 -312 126t-122 367q0 238 122 366t312 128q170 0 279 -129v104h368v-883 q0 -123 -40 -217t-99 -147t-142 -87t-159 -45t-158 -11q-264 0 -450 147zM748 416v209q-25 29 -69 46t-83 17q-82 0 -133 -41t-51 -127t51 -127t133 -41q39 0 83 17.5t69 46.5z" glyph-name="gbreve" horiz-adv-x="1218" unicode="ğ"/><glyph d="M606 1610q0 76 53.5 129t128.5 53q74 0 127.5 -53t53.5 -129t-53.5 -129.5t-127.5 -53.5q-76 0 -129 53.5t-53 129.5zM37 681.5q0 319.5 216 513.5t535 194q221 0 371 -94.5t230 -241.5l-349 -179q-35 66 -101.5 108t-150.5 42q-147 0 -239 -98.5t-92 -243.5t92 -243.5 t239 -98.5q139 0 224 61v60h-264v340h665v-549q-250 -276 -625 -277q-319 0 -535 193.5t-216 513z" glyph-name="Gdotaccent" horiz-adv-x="1486" unicode="Ġ"/><glyph d="M434 1267.5q0 75.5 53.5 129t128.5 53.5q74 0 127.5 -53.5t53.5 -129t-53.5 -129t-127.5 -53.5q-76 0 -129 53.5t-53 129zM68 -254l155 262q109 -109 295 -108q88 0 159 46t71 160v54q-117 -133 -279 -133q-190 0 -312 126t-122 367q0 238 122 366t312 128 q170 0 279 -129v104h368v-883q0 -123 -40 -217t-99 -147t-142 -87t-159 -45t-158 -11q-264 0 -450 147zM748 416v209q-25 29 -69 46t-83 17q-82 0 -133 -41t-51 -127t51 -127t133 -41q39 0 83 17.5t69 46.5z" glyph-name="gdotaccent" horiz-adv-x="1218" unicode="ġ"/><glyph d="M37 681.5q0 319.5 216 513.5t535 194q221 0 371 -94.5t230 -241.5l-349 -179q-35 66 -101.5 108t-150.5 42q-147 0 -239 -98.5t-92 -243.5t92 -243.5t239 -98.5q139 0 224 61v60h-264v340h665v-549q-250 -276 -625 -277q-319 0 -535 193.5t-216 513zM774 -623l-112 91 q39 18 82.5 62t56.5 87q-8 -6 -39 -6q-57 0 -95 39t-38 102q0 68 47 115t112 47q74 0 126.5 -53.5t52.5 -145.5q0 -203 -193 -338z" glyph-name="Gcommaaccent" horiz-adv-x="1486" unicode="Ģ"/><glyph d="M621 1602l112 -91q-37 -12 -83 -53t-54 -80q2 0 6 1t8 1q59 0 106.5 -44t47.5 -107q0 -68 -48 -116t-116 -48q-59 0 -111.5 43t-52.5 145q1 220 185 349zM68 -254l155 262q109 -109 295 -108q88 0 159 46t71 160v54q-117 -133 -279 -133q-190 0 -312 126t-122 367 q0 238 122 366t312 128q170 0 279 -129v104h368v-883q0 -123 -40 -217t-99 -147t-142 -87t-159 -45t-158 -11q-264 0 -450 147zM748 416v209q-25 29 -69 46t-83 17q-82 0 -133 -41t-51 -127t51 -127t133 -41q39 0 83 17.5t69 46.5z" glyph-name="gcommaaccent" horiz-adv-x="1218" unicode="ģ"/><glyph d="M901 1481l-131 149l-125 -149h-215l180 295h320l186 -295h-215zM1014 0v522h-490v-522h-413v1366h413v-483h490v483h413v-1366h-413z" glyph-name="Hcircumflex" horiz-adv-x="1538" unicode="Ĥ"/><glyph d="M754 1481l-131 149l-125 -149h-215l180 295h319l187 -295h-215zM774 0v551q0 137 -143 137q-88 0 -158 -78v-610h-369v1366h369v-489q121 137 340 137q164 0 247 -85t83 -222v-707h-369z" glyph-name="hcircumflex" horiz-adv-x="1245" unicode="ĥ"/><glyph d="M1552 1225v-199h-110v-1026h-414v522h-489v-522h-414v1026h-111v199h111v141h414v-141h489v141h414v-141h110zM1028 883v143h-489v-143h489z" glyph-name="Hbar" horiz-adv-x="1566" unicode="Ħ"/><glyph d="M823 1014q164 0 247 -85t83 -222v-707h-369v551q0 137 -143 137q-88 0 -158 -78v-610h-368v1067h-101v199h101v100h368v-100h275v-199h-275v-190q121 137 340 137z" glyph-name="hbar" horiz-adv-x="1255" unicode="ħ"/><glyph d="M266 1534q-45 31 -65 31q-49 0 -49 -76h-183q0 274 242 274q74 0 160 -57q47 -31 65 -31q49 0 49 76h183q0 -274 -242 -274q-74 0 -160 57zM111 0v1366h413v-1366h-413z" glyph-name="Itilde" horiz-adv-x="634" unicode="Ĩ"/><glyph d="M236 1192q-45 31 -66 31q-49 0 -49 -76h-182q0 274 241 274q74 0 160 -57q47 -31 66 -31q49 0 49 76h182q0 -274 -242 -274q-73 0 -159 57zM102 0v989h369v-989h-369z" glyph-name="itilde" horiz-adv-x="573" unicode="ĩ"/><glyph d="M-55 1470v199h743v-199h-743zM111 0v1366h413v-1366h-413z" glyph-name="Imacron" horiz-adv-x="634" unicode="Ī"/><glyph d="M-86 1128v199h743v-199h-743zM102 0v989h369v-989h-369z" glyph-name="imacron" horiz-adv-x="573" unicode="ī"/><glyph d="M317 1468q-223 0 -360 181l156 127q78 -109 204 -109q129 0 205 109l154 -127q-134 -181 -359 -181zM111 0v1366h413v-1366h-413z" glyph-name="Ibreve" horiz-adv-x="634" unicode="Ĭ"/><glyph d="M287 1126q-223 0 -361 181l156 127q78 -109 205 -109q129 0 205 109l153 -127q-133 -181 -358 -181zM102 0v989h369v-989h-369z" glyph-name="ibreve" horiz-adv-x="573" unicode="ĭ"/><glyph d="M524 0q-88 -8 -133 -41t-45 -78q0 -27 19.5 -43t48.5 -16q25 0 49 10l55 -172q-84 -41 -219 -41q-66 0 -122 14.5t-102 57.5t-46 108q0 129 229 201h-147v1366h413v-1366z" glyph-name="Iogonek" horiz-adv-x="634" unicode="Į"/><glyph d="M287 1061q-86 0 -146.5 60.5t-60.5 146.5t60.5 146.5t146.5 60.5t146.5 -60.5t60.5 -146.5t-60.5 -146.5t-146.5 -60.5zM102 0v989h369v-989q-88 -8 -133 -41t-45 -78q0 -27 19.5 -43t47.5 -16q25 0 50 10l55 -172q-84 -41 -219 -41q-66 0 -122 14.5t-102.5 57.5 t-46.5 108q0 129 230 201h-103z" glyph-name="iogonek" horiz-adv-x="573" unicode="į"/><glyph d="M135 1610q0 76 53.5 129t128.5 53q74 0 127.5 -53t53.5 -129t-53.5 -129.5t-127.5 -53.5q-76 0 -129 53.5t-53 129.5zM111 0v1366h413v-1366h-413z" glyph-name="Idotaccent" horiz-adv-x="634" unicode="İ"/><glyph d="M102 0v989h369v-989h-369z" glyph-name="dotlessi" horiz-adv-x="573" unicode="ı"/><glyph d="M111 0v1366h413v-1366h-413zM635 86l168 315q90 -61 176 -61q68 0 109.5 41t41.5 113v872h414v-879q0 -256 -141 -384t-387 -128q-238 0 -381 111z" glyph-name="IJ" horiz-adv-x="1654" unicode="Ĳ"/><glyph d="M287 1061q-86 0 -146.5 60.5t-60.5 146.5t60.5 146.5t146.5 60.5t146.5 -60.5t60.5 -146.5t-60.5 -146.5t-146.5 -60.5zM860 1061q-86 0 -146.5 60.5t-60.5 146.5t60.5 146.5t146.5 60.5t146.5 -60.5t60.5 -146.5t-60.5 -146.5t-146.5 -60.5zM102 0v989h369v-989h-369z M1044 989v-946q0 -201 -102 -322.5t-309 -121.5q-74 0 -115 8v297q20 -4 49 -4q109 0 109 143v946h368z" glyph-name="ij" horiz-adv-x="1146" unicode="ĳ"/><glyph d="M838 1481l-131 149l-125 -149h-215l180 295h319l187 -295h-215zM0 86l168 315q90 -61 176 -61q68 0 110 41t42 113v872h413v-879q0 -256 -141 -384t-387 -128q-238 0 -381 111z" glyph-name="Jcircumflex" horiz-adv-x="1019" unicode="Ĵ"/><glyph d="M418 1139l-131 149l-125 -149h-215l180 295h319l187 -295h-215zM-55 -393v297q20 -4 49 -4q109 0 108 143v946h369v-946q0 -201 -102.5 -322.5t-309.5 -121.5q-73 0 -114 8z" glyph-name="jcircumflex" horiz-adv-x="573" unicode="ĵ"/><glyph d="M907 0l-307 481l-76 -102v-379h-413v1366h413v-512l359 512h506l-517 -635l539 -731h-504zM690 -623l-112 91q39 18 83 62t56 87q-8 -6 -39 -6q-57 0 -95 39t-38 102q0 68 47 115t113 47q74 0 126 -53.5t52 -145.5q0 -203 -193 -338z" glyph-name="Kcommaaccent" horiz-adv-x="1374" unicode="Ķ"/><glyph d="M713 0l-170 319l-72 -96v-223h-369v1366h369v-729l227 352h445l-340 -450l362 -539h-452zM553 -623l-113 91q39 18 83 62t57 87q-8 -6 -39 -6q-57 0 -95 39t-38 102q0 68 47 115t112 47q74 0 126 -53.5t52 -145.5q1 -203 -192 -338z" glyph-name="kcommaaccent" horiz-adv-x="1140" unicode="ķ"/><glyph d="M713 0l-170 319l-72 -96v-223h-369v989h369v-352l227 352h445l-340 -450l362 -539h-452z" glyph-name="kgreenlandic" horiz-adv-x="1140" unicode="ĸ"/><glyph d="M692 1481h-246l246 295h318zM111 0v1366h413v-1006h518v-360h-931z" glyph-name="Lacute" horiz-adv-x="1097" unicode="Ĺ"/><glyph d="M401 1481h-245l245 295h318zM102 0v1366h369v-1366h-369z" glyph-name="lacute" horiz-adv-x="573" unicode="ĺ"/><glyph d="M111 0v1366h413v-1006h518v-360h-931zM563 -623l-112 91q39 18 83 62t56 87q-8 -6 -39 -6q-57 0 -95 39t-38 102q0 68 47 115t113 47q74 0 126 -53.5t52 -145.5q0 -203 -193 -338z" glyph-name="Lcommaaccent" horiz-adv-x="1097" unicode="Ļ"/><glyph d="M102 0v1366h369v-1366h-369zM272 -623l-112 91q39 18 83 62t56 87q-8 -6 -39 -6q-57 0 -95 39t-38 102q0 68 47 115t113 47q74 0 126 -53.5t52 -145.5q0 -203 -193 -338z" glyph-name="lcommaaccent" horiz-adv-x="573" unicode="ļ"/><glyph d="M803 858l-113 90q39 18 83 62.5t56 87.5q-10 -6 -38 -6q-57 0 -95.5 38.5t-38.5 102.5q0 68 47.5 115t112.5 47q74 0 126 -53.5t52 -145.5q1 -203 -192 -338zM111 0v1366h413v-1006h518v-360h-931z" glyph-name="Lcaron" horiz-adv-x="1097" unicode="Ľ"/><glyph d="M680 864l-113 90q39 18 83 62.5t57 87.5q-10 -6 -39 -6q-57 0 -95 39t-38 102q0 68 47 115t112 47q74 0 126 -53.5t52 -145.5q1 -203 -192 -338zM102 0v1366h369v-1366h-369z" glyph-name="lcaron" horiz-adv-x="856" unicode="ľ"/><glyph d="M111 0v1366h413v-1006h518v-360h-931zM936 483q-88 0 -152.5 64.5t-64.5 152.5q0 90 64.5 155t152.5 65t152.5 -64.5t64.5 -155.5q0 -88 -64.5 -152.5t-152.5 -64.5z" glyph-name="Ldot" horiz-adv-x="1226" unicode="Ŀ"/><glyph d="M102 0v1366h369v-1366h-369zM760 283q-88 0 -152.5 64.5t-64.5 152.5q0 90 64.5 154.5t152.5 64.5t152.5 -64.5t64.5 -154.5q0 -88 -64.5 -152.5t-152.5 -64.5z" glyph-name="ldot" horiz-adv-x="946" unicode="ŀ"/><glyph d="M543 360h518v-360h-932v399l-115 -65v328l115 65v639h414v-399l114 65v-330l-114 -65v-277z" glyph-name="Lslash" horiz-adv-x="1116" unicode="Ł"/><glyph d="M662 999v-256l-140 -79v-664h-368v449l-140 -80v258l140 80v659h368v-446z" glyph-name="lslash" horiz-adv-x="675" unicode="ł"/><glyph d="M883 1481h-246l246 295h317zM1028 0l-504 733v-733h-413v1366h426l475 -688v688h413v-1366h-397z" glyph-name="Nacute" horiz-adv-x="1536" unicode="Ń"/><glyph d="M735 1139h-246l246 295h318zM772 0v547q0 141 -143 141q-88 0 -158 -78v-610h-369v989h369v-112q121 137 340 137q164 0 247 -87t83 -225v-702h-369z" glyph-name="nacute" horiz-adv-x="1243" unicode="ń"/><glyph d="M1028 0l-504 733v-733h-413v1366h426l475 -688v688h413v-1366h-397zM754 -623l-113 91q39 18 83 62t56 87q-10 -6 -39 -6q-57 0 -95 39t-38 102q0 68 47 115t113 47q74 0 126 -53.5t52 -145.5q1 -203 -192 -338z" glyph-name="Ncommaaccent" horiz-adv-x="1536" unicode="Ņ"/><glyph d="M772 0v547q0 141 -143 141q-88 0 -158 -78v-610h-369v989h369v-112q121 137 340 137q164 0 247 -87t83 -225v-702h-369zM606 -623l-112 91q39 18 83 62t56 87q-10 -6 -39 -6q-57 0 -95 39t-38 102q0 68 47 115t113 47q74 0 126 -53.5t52 -145.5q0 -203 -193 -338z" glyph-name="ncommaaccent" horiz-adv-x="1243" unicode="ņ"/><glyph d="M608 1481l-186 295h215l131 -150l125 150h215l-180 -295h-320zM1028 0l-504 733v-733h-413v1366h426l475 -688v688h413v-1366h-397z" glyph-name="Ncaron" horiz-adv-x="1536" unicode="Ň"/><glyph d="M461 1139l-187 295h215l132 -150l124 150h216l-181 -295h-319zM772 0v547q0 141 -143 141q-88 0 -158 -78v-610h-369v989h369v-112q121 137 340 137q164 0 247 -87t83 -225v-702h-369z" glyph-name="ncaron" horiz-adv-x="1243" unicode="ň"/><glyph d="M197 1071l-113 90q39 18 83 62.5t56 87.5q-8 -6 -39 -6q-57 0 -95 38.5t-38 102.5q0 68 47 115t113 47q74 0 126 -53.5t52 -145.5q1 -203 -192 -338zM772 0v547q0 141 -143 141q-88 0 -158 -78v-610h-369v989h369v-112q121 137 340 137q164 0 247 -87t83 -225v-702h-369z " glyph-name="napostrophe" horiz-adv-x="1243" unicode="ŉ"/><glyph d="M1012 1366h413v-1255q0 -256 -141 -384t-387 -128q-238 0 -381 110l168 316q90 -61 176 -62q98 0 137 80l-473 649v-692h-413v1366h426l475 -647v647z" glyph-name="Eng" horiz-adv-x="1536" unicode="Ŋ"/><glyph d="M1141 43q0 -201 -102.5 -322.5t-309.5 -121.5q-74 0 -115 8v297q20 -4 50 -4q109 0 108 143v504q0 141 -143 141q-88 0 -158 -78v-610h-369v989h369v-112q121 137 340 137q164 0 247 -87t83 -225v-659z" glyph-name="eng" horiz-adv-x="1243" unicode="ŋ"/><glyph d="M412 1470v199h743v-199h-743zM37 682q0 311 214 509t533.5 198t533.5 -198t214 -509t-214 -509t-533.5 -198t-533.5 198t-214 509zM1112 682q0 145 -91 243.5t-236.5 98.5t-236.5 -98.5t-91 -243.5t91 -243.5t236.5 -98.5t236.5 98.5t91 243.5z" glyph-name="Omacron" horiz-adv-x="1568" unicode="Ō"/><glyph d="M217 1128v199h744v-199h-744zM590 -25q-254 0 -404.5 152t-150.5 369t150.5 367.5t404.5 150.5t405.5 -150.5t151.5 -367.5t-151.5 -369t-405.5 -152zM590 301q84 0 131 54.5t47 140.5q0 84 -47 138t-131 54q-82 0 -129 -54t-47 -138q0 -86 47 -140.5t129 -54.5z" glyph-name="omacron" horiz-adv-x="1181" unicode="ō"/><glyph d="M784 1468q-223 0 -360 181l156 127q78 -109 204 -109q129 0 205 109l154 -127q-134 -181 -359 -181zM37 682q0 311 214 509t533.5 198t533.5 -198t214 -509t-214 -509t-533.5 -198t-533.5 198t-214 509zM1112 682q0 145 -91 243.5t-236.5 98.5t-236.5 -98.5t-91 -243.5 t91 -243.5t236.5 -98.5t236.5 98.5t91 243.5z" glyph-name="Obreve" horiz-adv-x="1568" unicode="Ŏ"/><glyph d="M590 1126q-223 0 -361 181l156 127q78 -109 205 -109q129 0 205 109l153 -127q-133 -181 -358 -181zM590 -25q-254 0 -404.5 152t-150.5 369t150.5 367.5t404.5 150.5t405.5 -150.5t151.5 -367.5t-151.5 -369t-405.5 -152zM590 301q84 0 131 54.5t47 140.5q0 84 -47 138 t-131 54q-82 0 -129 -54t-47 -138q0 -86 47 -140.5t129 -54.5z" glyph-name="obreve" horiz-adv-x="1181" unicode="ŏ"/><glyph d="M725 1481h-205l164 295h277zM1044 1481h-204l164 295h276zM37 682q0 311 214 509t533.5 198t533.5 -198t214 -509t-214 -509t-533.5 -198t-533.5 198t-214 509zM1112 682q0 145 -91 243.5t-236.5 98.5t-236.5 -98.5t-91 -243.5t91 -243.5t236.5 -98.5t236.5 98.5 t91 243.5z" glyph-name="Ohungarumlaut" horiz-adv-x="1568" unicode="Ő"/><glyph d="M530 1139h-204l163 295h277zM850 1139h-205l164 295h276zM590 -25q-254 0 -404.5 152t-150.5 369t150.5 367.5t404.5 150.5t405.5 -150.5t151.5 -367.5t-151.5 -369t-405.5 -152zM590 301q84 0 131 54.5t47 140.5q0 84 -47 138t-131 54q-82 0 -129 -54t-47 -138 q0 -86 47 -140.5t129 -54.5z" glyph-name="ohungarumlaut" horiz-adv-x="1181" unicode="ő"/><glyph d="M1077 0v74q-125 -98 -340 -99q-303 0 -501.5 197t-198.5 510t198.5 508.5t501.5 195.5q217 0 340 -94v74h1037v-344h-623v-160h608v-344h-608v-174h623v-344h-1037zM1077 881q-82 141 -276 141q-158 0 -251 -96.5t-93 -243.5t93 -244.5t251 -97.5q90 0 163.5 39 t112.5 106v396z" glyph-name="OE" horiz-adv-x="2174" unicode="Œ"/><glyph d="M1149 381q61 -127 223 -127q125 0 209 70l160 -226q-70 -59 -186.5 -91t-235.5 -32q-123 0 -205 41t-162 115q-156 -156 -362 -156q-254 0 -404.5 152t-150.5 369t150.5 367.5t404.5 150.5q195 0 364 -158q150 158 353 158q223 0 368.5 -150.5t145.5 -406.5v-76h-672z M1470 614q-29 121 -163 121q-131 0 -162 -121h325zM590 688q-78 0 -127 -50t-49 -142q0 -94 49 -145.5t127 -51.5t128 51t50 145.5t-50 143.5t-128 49z" glyph-name="oe" horiz-adv-x="1845" unicode="œ"/><glyph d="M819 1481h-246l246 295h318zM862 0l-188 438h-150v-438h-413v1366h729q231 0 361 -134t130 -335q0 -160 -72.5 -262.5t-173.5 -151.5l248 -483h-471zM911 903q0 53 -40 86t-95 33h-252v-240h252q55 0 95 33t40 88z" glyph-name="Racute" horiz-adv-x="1388" unicode="Ŕ"/><glyph d="M555 1139h-246l246 295h317zM102 0v989h369v-112q47 55 134 96t169 41v-352q-31 10 -84 10q-162 0 -219 -70v-602h-369z" glyph-name="racute" horiz-adv-x="798" unicode="ŕ"/><glyph d="M862 0l-188 438h-150v-438h-413v1366h729q231 0 361 -134t130 -335q0 -160 -72.5 -262.5t-173.5 -151.5l248 -483h-471zM911 903q0 53 -40 86t-95 33h-252v-240h252q55 0 95 33t40 88zM690 -623l-112 91q39 18 83 62t56 87q-8 -6 -39 -6q-57 0 -95 39t-38 102 q0 68 47 115t113 47q74 0 126 -53.5t52 -145.5q0 -203 -193 -338z" glyph-name="Rcommaaccent" horiz-adv-x="1388" unicode="Ŗ"/><glyph d="M102 0v989h369v-112q47 55 134 96t169 41v-352q-31 10 -84 10q-162 0 -219 -70v-602h-369zM279 -623l-113 91q39 18 83 62t56 87q-8 -6 -39 -6q-57 0 -95 39t-38 102q0 68 47 115t113 47q74 0 126 -53.5t52 -145.5q1 -203 -192 -338z" glyph-name="rcommaaccent" horiz-adv-x="798" unicode="ŗ"/><glyph d="M545 1481l-187 295h215l132 -150l124 150h215l-180 -295h-319zM862 0l-188 438h-150v-438h-413v1366h729q231 0 361 -134t130 -335q0 -160 -72.5 -262.5t-173.5 -151.5l248 -483h-471zM911 903q0 53 -40 86t-95 33h-252v-240h252q55 0 95 33t40 88z" glyph-name="Rcaron" horiz-adv-x="1388" unicode="Ř"/><glyph d="M281 1139l-187 295h215l131 -150l125 150h215l-180 -295h-319zM102 0v989h369v-112q47 55 134 96t169 41v-352q-31 10 -84 10q-162 0 -219 -70v-602h-369z" glyph-name="rcaron" horiz-adv-x="798" unicode="ř"/><glyph d="M733 1481h-246l246 295h318zM6 193l215 307q184 -176 441 -176q63 0 107 21.5t44 57.5q0 39 -44 62.5t-148 42.5q-252 45 -357 98q-213 109 -213 338q0 184 149.5 313t417.5 129q346 0 580 -190l-221 -293q-86 66 -190.5 100.5t-190.5 34.5q-125 0 -125 -71 q0 -39 43 -58.5t158 -38.5q90 -16 147.5 -28.5t144.5 -45t138 -73.5t90 -111.5t39 -160.5q0 -225 -156.5 -350.5t-433.5 -125.5q-393 1 -635 218z" glyph-name="Sacute" horiz-adv-x="1255" unicode="Ś"/><glyph d="M616 1139h-245l245 295h318zM18 127l148 248q59 -47 167.5 -86t188.5 -39q98 0 99 47q0 23 -32 35t-108 22q-53 6 -76.5 10.5t-78 16.5t-83 25.5t-69.5 38t-61.5 54t-37 76t-16.5 101.5q0 141 118 239.5t325 98.5q236 0 428 -127l-135 -240q-51 41 -130 72t-161 31 q-92 0 -92 -43q0 -20 26.5 -32.5t100.5 -23.5q53 -8 77.5 -12t80 -16.5t85 -26.5t71.5 -40t64.5 -57.5t39 -78.5t16.5 -105q0 -150 -127 -245t-342 -95q-135 0 -270.5 42t-215.5 110z" glyph-name="sacute" horiz-adv-x="1003" unicode="ś"/><glyph d="M750 1481l-132 149l-124 -149h-215l180 295h319l187 -295h-215zM6 193l215 307q184 -176 441 -176q63 0 107 21.5t44 57.5q0 39 -44 62.5t-148 42.5q-252 45 -357 98q-213 109 -213 338q0 184 149.5 313t417.5 129q346 0 580 -190l-221 -293q-86 66 -190.5 100.5 t-190.5 34.5q-125 0 -125 -71q0 -39 43 -58.5t158 -38.5q90 -16 147.5 -28.5t144.5 -45t138 -73.5t90 -111.5t39 -160.5q0 -225 -156.5 -350.5t-433.5 -125.5q-393 1 -635 218z" glyph-name="Scircumflex" horiz-adv-x="1255" unicode="Ŝ"/><glyph d="M633 1139l-131 149l-125 -149h-215l180 295h320l186 -295h-215zM18 127l148 248q59 -47 167.5 -86t188.5 -39q98 0 99 47q0 23 -32 35t-108 22q-53 6 -76.5 10.5t-78 16.5t-83 25.5t-69.5 38t-61.5 54t-37 76t-16.5 101.5q0 141 118 239.5t325 98.5q236 0 428 -127 l-135 -240q-51 41 -130 72t-161 31q-92 0 -92 -43q0 -20 26.5 -32.5t100.5 -23.5q53 -8 77.5 -12t80 -16.5t85 -26.5t71.5 -40t64.5 -57.5t39 -78.5t16.5 -105q0 -150 -127 -245t-342 -95q-135 0 -270.5 42t-215.5 110z" glyph-name="scircumflex" horiz-adv-x="1003" unicode="ŝ"/><glyph d="M1231 451q0 -217 -145.5 -341t-405.5 -135l-31 -71q31 18 70 18q57 0 98 -42t41 -107q0 -84 -69.5 -133.5t-172.5 -49.5q-158 0 -243 70l63 131q88 -61 170 -61q86 0 86 49q0 35 -43 35q-33 0 -53 -25l-121 70l45 123q-311 29 -514 211l215 307q184 -176 441 -176 q63 0 107 21.5t44 57.5q0 39 -44 62.5t-148 42.5q-252 45 -357 98q-213 109 -213 338q0 184 149.5 313t417.5 129q346 0 580 -190l-221 -293q-86 66 -190.5 100.5t-190.5 34.5q-125 0 -125 -71q0 -39 43 -58.5t158 -38.5q90 -16 147.5 -28.5t144.5 -45t138 -73.5t90 -111.5 t39 -160.5z" glyph-name="Scedilla" horiz-adv-x="1255" unicode="Ş"/><glyph d="M973 315q0 -139 -109.5 -231t-298.5 -107l-33 -73q31 18 70 18q57 0 98 -42t41 -107q0 -84 -69.5 -133.5t-171.5 -49.5q-158 0 -244 70l63 131q88 -61 170 -61q86 0 86 49q0 35 -43 35q-33 0 -53 -25l-121 70l45 123q-244 31 -385 145l148 248q59 -47 167.5 -86 t188.5 -39q98 0 99 47q0 23 -32 35t-108 22q-53 6 -76.5 10.5t-78 16.5t-83 25.5t-69.5 38t-61.5 54t-37 76t-16.5 101.5q0 141 118 239.5t325 98.5q236 0 428 -127l-135 -240q-51 41 -130 72t-161 31q-92 0 -92 -43q0 -20 26.5 -32.5t100.5 -23.5q53 -8 77.5 -12t80 -16.5 t85 -26.5t71.5 -40t64.5 -57.5t39 -79t16.5 -104.5z" glyph-name="scedilla" horiz-adv-x="1003" unicode="ş"/><glyph d="M459 1481l-187 295h215l131 -150l125 150h215l-180 -295h-319zM6 193l215 307q184 -176 441 -176q63 0 107 21.5t44 57.5q0 39 -44 62.5t-148 42.5q-252 45 -357 98q-213 109 -213 338q0 184 149.5 313t417.5 129q346 0 580 -190l-221 -293q-86 66 -190.5 100.5 t-190.5 34.5q-125 0 -125 -71q0 -39 43 -58.5t158 -38.5q90 -16 147.5 -28.5t144.5 -45t138 -73.5t90 -111.5t39 -160.5q0 -225 -156.5 -350.5t-433.5 -125.5q-393 1 -635 218z" glyph-name="Scaron" horiz-adv-x="1255" unicode="Š"/><glyph d="M342 1139l-186 295h215l131 -150l125 150h215l-180 -295h-320zM18 127l148 248q59 -47 167.5 -86t188.5 -39q98 0 99 47q0 23 -32 35t-108 22q-53 6 -76.5 10.5t-78 16.5t-83 25.5t-69.5 38t-61.5 54t-37 76t-16.5 101.5q0 141 118 239.5t325 98.5q236 0 428 -127 l-135 -240q-51 41 -130 72t-161 31q-92 0 -92 -43q0 -20 26.5 -32.5t100.5 -23.5q53 -8 77.5 -12t80 -16.5t85 -26.5t71.5 -40t64.5 -57.5t39 -78.5t16.5 -105q0 -150 -127 -245t-342 -95q-135 0 -270.5 42t-215.5 110z" glyph-name="scaron" horiz-adv-x="1003" unicode="š"/><glyph d="M403 0v1006h-366v360h1145v-360h-365v-1006h-414zM596 -623l-113 91q39 18 83 62t57 87q-8 -6 -39 -6q-57 0 -95 39t-38 102q0 68 47 115t112 47q74 0 126 -53.5t52 -145.5q1 -203 -192 -338z" glyph-name="Tcommaaccent" horiz-adv-x="1218" unicode="Ţ"/><glyph d="M518 -25q-166 0 -253 79t-87 233v383h-164v319h164v271h369v-271h201v-319h-201v-277q0 -39 22.5 -65.5t59.5 -26.5q55 0 73 18l66 -278q-74 -66 -250 -66zM373 -623l-113 91q39 18 83 62t56 87q-10 -6 -39 -6q-57 0 -95 39t-38 102q0 68 47.5 115t112.5 47 q74 0 126 -53.5t52 -145.5q1 -203 -192 -338z" glyph-name="tcommaaccent" horiz-adv-x="782" unicode="ţ"/><glyph d="M451 1481l-187 295h215l131 -150l125 150h215l-180 -295h-319zM403 0v1006h-366v360h1145v-360h-365v-1006h-414z" glyph-name="Tcaron" horiz-adv-x="1218" unicode="Ť"/><glyph d="M786 1071l-112 90q39 18 83 62.5t56 87.5q-8 -6 -39 -6q-57 0 -95 38.5t-38 102.5q0 68 47 115t113 47q74 0 126 -53.5t52 -145.5q0 -203 -193 -338zM518 -25q-166 0 -253 79t-87 233v383h-164v319h164v271h369v-271h201v-319h-201v-277q0 -39 22.5 -65.5t59.5 -26.5 q55 0 73 18l66 -278q-74 -66 -250 -66z" glyph-name="tcaron" horiz-adv-x="915" unicode="ť"/><glyph d="M1182 1006h-365v-334h242v-199h-242v-473h-414v473h-237v199h237v334h-366v360h1145v-360z" glyph-name="Tbar" horiz-adv-x="1218" unicode="Ŧ"/><glyph d="M702 319l66 -278q-74 -66 -250 -66q-166 0 -253 79t-87 233v104h-164v199h164v80h-164v319h164v271h369v-271h201v-319h-201v-80h137v-199h-137q0 -39 22.5 -64.5t59.5 -25.5q55 0 73 18z" glyph-name="tbar" horiz-adv-x="782" unicode="ŧ"/><glyph d="M717 1534q-45 31 -66 31q-49 0 -49 -76h-182q0 274 242 274q74 0 159 -57q47 -31 66 -31q49 0 49 76h182q0 -274 -241 -274q-74 0 -160 57zM111 561v805h419v-791q0 -106 58.5 -170.5t179.5 -64.5q119 0 177.5 65.5t58.5 169.5v791h419v-803q0 -268 -161.5 -428 t-493.5 -160t-494.5 159t-162.5 427z" glyph-name="Utilde" horiz-adv-x="1533" unicode="Ũ"/><glyph d="M569 1192q-45 31 -65 31q-49 0 -49 -76h-183q0 274 242 274q74 0 160 -57q47 -31 65 -31q49 0 49 76h183q0 -274 -242 -274q-74 0 -160 57zM770 0v111q-123 -135 -340 -136q-164 0 -246 86t-82 222v706h369v-549q0 -139 143 -139q86 0 156 78v610h369v-989h-369z" glyph-name="utilde" horiz-adv-x="1241" unicode="ũ"/><glyph d="M395 1470v199h744v-199h-744zM111 561v805h419v-791q0 -106 58.5 -170.5t179.5 -64.5q119 0 177.5 65.5t58.5 169.5v791h419v-803q0 -268 -161.5 -428t-493.5 -160t-494.5 159t-162.5 427z" glyph-name="Umacron" horiz-adv-x="1533" unicode="Ū"/><glyph d="M248 1128v199h743v-199h-743zM770 0v111q-123 -135 -340 -136q-164 0 -246 86t-82 222v706h369v-549q0 -139 143 -139q86 0 156 78v610h369v-989h-369z" glyph-name="umacron" horiz-adv-x="1241" unicode="ū"/><glyph d="M768 1468q-223 0 -360 181l155 127q78 -109 205 -109q129 0 205 109l153 -127q-133 -181 -358 -181zM111 561v805h419v-791q0 -106 58.5 -170.5t179.5 -64.5q119 0 177.5 65.5t58.5 169.5v791h419v-803q0 -268 -161.5 -428t-493.5 -160t-494.5 159t-162.5 427z" glyph-name="Ubreve" horiz-adv-x="1533" unicode="Ŭ"/><glyph d="M621 1126q-223 0 -361 181l156 127q78 -109 205 -109q129 0 204 109l154 -127q-133 -181 -358 -181zM770 0v111q-123 -135 -340 -136q-164 0 -246 86t-82 222v706h369v-549q0 -139 143 -139q86 0 156 78v610h369v-989h-369z" glyph-name="ubreve" horiz-adv-x="1241" unicode="ŭ"/><glyph d="M541 1634.5q0 94.5 67.5 162t161.5 67.5t159.5 -67.5t65.5 -162t-65.5 -162t-159.5 -67.5t-161.5 67.5t-67.5 162zM840 1634.5q0 28.5 -20.5 50t-49.5 21.5t-50.5 -21.5t-21.5 -50t21.5 -50t50.5 -21.5t49.5 21.5t20.5 50zM111 561v805h419v-791q0 -106 58.5 -170.5 t179.5 -64.5q119 0 177.5 65.5t58.5 169.5v791h419v-803q0 -268 -161.5 -428t-493.5 -160t-494.5 159t-162.5 427z" glyph-name="Uring" horiz-adv-x="1533" unicode="Ů"/><glyph d="M393 1292q0 94 67.5 162t162 68t160 -68t65.5 -162t-65.5 -161.5t-160 -67.5t-162 67.5t-67.5 161.5zM692 1292.5q0 28.5 -20.5 50t-49 21.5t-50 -21.5t-21.5 -50t21.5 -50t50 -21.5t49 21.5t20.5 50zM770 0v111q-123 -135 -340 -136q-164 0 -246 86t-82 222v706h369 v-549q0 -139 143 -139q86 0 156 78v610h369v-989h-369z" glyph-name="uring" horiz-adv-x="1241" unicode="ů"/><glyph d="M709 1481h-205l164 295h276zM1028 1481h-205l164 295h277zM111 561v805h419v-791q0 -106 58.5 -170.5t179.5 -64.5q119 0 177.5 65.5t58.5 169.5v791h419v-803q0 -268 -161.5 -428t-493.5 -160t-494.5 159t-162.5 427z" glyph-name="Uhungarumlaut" horiz-adv-x="1533" unicode="Ű"/><glyph d="M561 1139h-205l164 295h277zM881 1139h-205l164 295h276zM770 0v111q-123 -135 -340 -136q-164 0 -246 86t-82 222v706h369v-549q0 -139 143 -139q86 0 156 78v610h369v-989h-369z" glyph-name="uhungarumlaut" horiz-adv-x="1241" unicode="ű"/><glyph d="M111 561v805h419v-791q0 -106 58.5 -170.5t179.5 -64.5q119 0 177.5 65.5t58.5 169.5v791h419v-803q0 -395 -309 -526q-106 -45 -144 -80t-38 -76q0 -27 19.5 -43t47.5 -16q25 0 50 10l55 -172q-84 -41 -219 -41q-66 0 -122 14.5t-102.5 57.5t-46.5 108q0 115 160 176h-6 q-332 0 -494.5 159t-162.5 427z" glyph-name="Uogonek" horiz-adv-x="1533" unicode="Ų"/><glyph d="M1139 0q-88 -8 -133 -41t-45 -78q0 -27 19 -43t48 -16q25 0 49 10l56 -172q-84 -41 -220 -41q-66 0 -122 14.5t-102 57.5t-46 108q0 129 229 201h-102v111q-123 -135 -340 -136q-164 0 -246 86t-82 222v706h369v-549q0 -139 143 -139q86 0 156 78v610h369v-989z" glyph-name="uogonek" horiz-adv-x="1241" unicode="ų"/><glyph d="M1108 1481l-131 149l-125 -149h-215l180 295h320l186 -295h-215zM1153 0l-176 774l-176 -774h-434l-392 1366h463l176 -836l207 836h312l206 -836l174 836h465l-391 -1366h-434z" glyph-name="Wcircumflex" horiz-adv-x="1953" unicode="Ŵ"/><glyph d="M954 1139l-131 149l-125 -149h-215l181 295h319l186 -295h-215zM985 0l-162 553l-159 -553h-402l-287 989h379l131 -545l174 545h330l172 -545l131 545h381l-287 -989h-401z" glyph-name="wcircumflex" horiz-adv-x="1648" unicode="ŵ"/><glyph d="M813 1481l-131 149l-125 -149h-215l180 295h320l186 -295h-215zM475 0v543l-512 823h465l254 -461l250 461h465l-508 -823v-543h-414z" glyph-name="Ycircumflex" horiz-adv-x="1359" unicode="Ŷ"/><glyph d="M678 1139l-131 149l-125 -149h-215l180 295h320l186 -295h-215zM143 -57q33 -18 78 -19q111 0 129 39l8 21l-389 1005h389l189 -565l190 565h389l-430 -1112q-61 -160 -171.5 -216t-288.5 -62q-88 0 -144 16z" glyph-name="ycircumflex" horiz-adv-x="1095" unicode="ŷ"/><glyph d="M461 1425q-76 0 -129 53.5t-53 129t53 129t129 53.5t129 -53.5t53 -129t-53 -129t-129 -53.5zM903 1425q-76 0 -129 53.5t-53 129t53 129t129 53.5q78 0 131 -53.5t53 -129t-53 -129t-131 -53.5zM475 0v543l-512 823h465l254 -461l250 461h465l-508 -823v-543h-414z" glyph-name="Ydieresis" horiz-adv-x="1359" unicode="Ÿ"/><glyph d="M729 1481h-246l246 295h318zM74 0v328l520 678h-520v360h1067v-326l-523 -680h537v-360h-1081z" glyph-name="Zacute" horiz-adv-x="1228" unicode="Ź"/><glyph d="M612 1139h-245l245 295h318zM68 0v270l348 400h-348v319h852v-258l-357 -412h365v-319h-860z" glyph-name="zacute" horiz-adv-x="995" unicode="ź"/><glyph d="M432 1610q0 76 53.5 129t128.5 53q74 0 127.5 -53t53.5 -129t-53.5 -129.5t-127.5 -53.5q-76 0 -129 53.5t-53 129.5zM74 0v328l520 678h-520v360h1067v-326l-523 -680h537v-360h-1081z" glyph-name="Zdotaccent" horiz-adv-x="1228" unicode="Ż"/><glyph d="M315 1267.5q0 75.5 53.5 129t129.5 53.5q74 0 127 -53.5t53 -129t-53.5 -129t-126.5 -53.5q-76 0 -129.5 53.5t-53.5 129zM68 0v270l348 400h-348v319h852v-258l-357 -412h365v-319h-860z" glyph-name="zdotaccent" horiz-adv-x="995" unicode="ż"/><glyph d="M455 1481l-187 295h215l131 -150l125 150h215l-180 -295h-319zM74 0v328l520 678h-520v360h1067v-326l-523 -680h537v-360h-1081z" glyph-name="Zcaron" horiz-adv-x="1228" unicode="Ž"/><glyph d="M338 1139l-186 295h215l131 -150l125 150h215l-181 -295h-319zM68 0v270l348 400h-348v319h852v-258l-357 -412h365v-319h-860z" glyph-name="zcaron" horiz-adv-x="995" unicode="ž"/><glyph d="M178 0v670h-164v319h164v45q0 154 106.5 253t270.5 99q137 0 229 -49l-65 -245q-35 23 -78 22.5t-68.5 -25t-25.5 -67.5v-1022h-369z" glyph-name="longs" horiz-adv-x="759" unicode="ſ"/><glyph d="M729 1389q319 0 535.5 -194t216.5 -513q0 -315 -210 -511t-501 -196q-346 0 -545.5 218.5t-199.5 619.5h1013q-37 96 -117.5 153.5t-191.5 57.5q-86 0 -152.5 -50t-99.5 -120l-348 178q74 152 224.5 254.5t375.5 102.5zM739 336q193 0 279 158h-539q23 -72 93.5 -115 t166.5 -43z" glyph-name="uni018F" horiz-adv-x="1517" unicode="Ə"/><glyph d="M-20 -330l174 787h-82v319h151l58 260q33 154 161.5 252t292.5 98q195 0 289 -100l-145 -301q-31 41 -88 41q-37 0 -67 -22.5t-40 -63.5l-37 -164h178v-319h-247l-177 -787h-421z" glyph-name="florin" horiz-adv-x="976" unicode="ƒ"/><glyph d="M1012 1366h413v-1366h-397l-504 733v-622q0 -256 -141 -384t-387 -128q-109 0 -191 22l66 338q41 -16 88 -16q68 0 110 41t42 112v1270h426l475 -688v688z" glyph-name="uni019D" horiz-adv-x="1536" unicode="Ɲ"/><glyph d="M1567 1366q0 -168 -154 -285q119 -174 119 -399q0 -311 -214 -509t-533.5 -198t-533.5 198t-214 509t214 509t533 198q338 0 553 -215q63 49 86 106q-10 -6 -34 -6q-49 0 -83 34.5t-34 90.5q0 57 41 99t98 42q66 0 111 -47t45 -127zM784.5 340q145.5 0 236.5 98.5 t91 243.5t-91 243.5t-236.5 98.5t-236.5 -98.5t-91 -243.5t91 -243.5t236.5 -98.5z" glyph-name="Ohorn" horiz-adv-x="1568" unicode="Ơ"/><glyph d="M1182 1094q0 -162 -144 -277q109 -141 109 -321q0 -217 -151.5 -369t-405.5 -152t-404.5 152t-150.5 369t150.5 367.5t404.5 150.5q213 0 362 -113q63 49 86 107q-10 -6 -34 -7q-49 0 -83 35t-34 90q0 57 41 99.5t98 42.5q66 0 111 -47t45 -127zM590 301q84 0 131 54.5 t47 140.5q0 84 -47 138t-131 54q-82 0 -129 -54t-47 -138q0 -86 47 -140.5t129 -54.5z" glyph-name="ohorn" horiz-adv-x="1181" unicode="ơ"/><glyph d="M1636 1485q0 -90 -54 -179t-159 -145v-598q0 -268 -161.5 -428t-493.5 -160t-494.5 159t-162.5 427v805h419v-791q0 -106 58.5 -170.5t179.5 -64.5q119 0 177.5 65.5t58.5 169.5v791h419v-61q51 45 70 94q-10 -6 -35 -6q-49 0 -83 34.5t-34 90.5q0 57 41 99t99 42 q66 0 110.5 -47t44.5 -127z" glyph-name="Uhorn" horiz-adv-x="1533" unicode="Ư"/><glyph d="M1284 1135q0 -166 -145 -279v-856h-369v111q-123 -135 -340 -136q-164 0 -246 86t-82 222v706h369v-549q0 -139 143 -139q86 0 156 78v610h334q29 33 37 60q-10 -6 -35 -7q-49 0 -83 35t-34 90q0 57 41 99.5t98 42.5q66 0 111 -47t45 -127z" glyph-name="uhorn" horiz-adv-x="1241" unicode="ư"/><glyph d="M629 1481l-187 295h215l131 -150l125 150h215l-180 -295h-319zM37 681.5q0 319.5 216 513.5t535 194q221 0 371 -94.5t230 -241.5l-349 -179q-35 66 -101.5 108t-150.5 42q-147 0 -239 -98.5t-92 -243.5t92 -243.5t239 -98.5q139 0 224 61v60h-264v340h665v-549 q-250 -276 -625 -277q-319 0 -535 193.5t-216 513z" glyph-name="Gcaron" horiz-adv-x="1486" unicode="Ǧ"/><glyph d="M457 1139l-187 295h215l131 -150l125 150h215l-180 -295h-319zM68 -254l155 262q109 -109 295 -108q88 0 159 46t71 160v54q-117 -133 -279 -133q-190 0 -312 126t-122 367q0 238 122 366t312 128q170 0 279 -129v104h368v-883q0 -123 -40 -217t-99 -147t-142 -87 t-159 -45t-158 -11q-264 0 -450 147zM748 416v209q-25 29 -69 46t-83 17q-82 0 -133 -41t-51 -127t51 -127t133 -41q39 0 83 17.5t69 46.5z" glyph-name="gcaron" horiz-adv-x="1218" unicode="ǧ"/><glyph d="M901 -16q-92 -33 -92 -103q0 -27 19.5 -43t48.5 -16q25 0 49 10l55 -172q-84 -41 -219 -41q-66 0 -122 14.5t-102 57.5t-46 108q0 117 180 183q-279 37 -457 228t-178 472q0 311 214 509t533.5 198t533.5 -198t214 -509q0 -281 -176 -471t-455 -227zM457 682 q0 -145 91 -243.5t236.5 -98.5t236.5 98.5t91 243.5t-91 243.5t-236.5 98.5t-236.5 -98.5t-91 -243.5z" glyph-name="uni01EA" horiz-adv-x="1568" unicode="Ǫ"/><glyph d="M680 -18q-88 -33 -88 -101q0 -27 19.5 -43t47.5 -16q25 0 50 10l55 -172q-84 -41 -219 -41q-66 0 -122 14.5t-102.5 57.5t-46.5 108q0 119 191 187q-201 37 -315.5 180t-114.5 330q0 217 150.5 367.5t404.5 150.5t405.5 -150.5t151.5 -367.5q0 -197 -126 -342t-341 -172z M590 688q-82 0 -129 -54t-47 -138q0 -86 47 -140.5t129 -54.5q84 0 131 54.5t47 140.5q0 84 -47 138t-131 54z" glyph-name="uni01EB" horiz-adv-x="1181" unicode="ǫ"/><glyph d="M842 1915h-246l246 295h317zM500 1634.5q0 94.5 67.5 162t161.5 67.5t159.5 -67.5t65.5 -162t-65.5 -162t-159.5 -67.5t-161.5 67.5t-67.5 162zM799 1634.5q0 28.5 -20.5 50t-49.5 21.5t-50.5 -21.5t-21.5 -50t21.5 -50t50.5 -21.5t49.5 21.5t20.5 50zM1042 0l-53 176 h-524l-53 -176h-449l504 1366h520l504 -1366h-449zM727 1001l-156 -481h312z" glyph-name="Aringacute" horiz-adv-x="1454" unicode="Ǻ"/><glyph d="M682 1573h-246l246 295h317zM340 1292q0 94 67.5 162t162 68t160 -68t65.5 -162t-65.5 -161.5t-160 -67.5t-162 67.5t-67.5 161.5zM639 1292.5q0 28.5 -20.5 50t-49 21.5t-50 -21.5t-21.5 -50t21.5 -50t50 -21.5t49 21.5t20.5 50zM674 0v94q-41 -53 -124 -86t-175 -33 q-127 0 -233.5 85t-106.5 241q0 88 31.5 150.5t84 94.5t107.5 46t117 14q213 0 299 -108v112q0 53 -48 88t-137 35q-147 0 -274 -96l-125 227q186 150 467 150q98 0 180 -19.5t154 -63.5t111.5 -129t39.5 -204v-598h-368zM674 268v56q-37 53 -146 53q-129 0 -129 -82 q0 -80 129 -80q109 0 146 53z" glyph-name="aringacute" horiz-adv-x="1144" unicode="ǻ"/><glyph d="M1245 1481h-246l246 295h318zM928 0v176h-436l-93 -176h-450l809 1366h1206v-344h-623v-160h609v-344h-609v-174h623v-344h-1036zM928 1001l-252 -481h252v481z" glyph-name="AEacute" horiz-adv-x="2025" unicode="Ǽ"/><glyph d="M989 1139h-246l246 295h318zM1065 381q55 -117 213 -117q121 0 201 70l159 -236q-70 -59 -183.5 -91t-219.5 -32q-217 0 -358 134q-158 -133 -406 -134q-193 0 -314.5 80t-121.5 240q0 158 98 239.5t248 81.5q96 0 182 -28.5t129 -77.5v100q0 53 -50 87t-142 34 q-156 0 -285 -96l-125 229q186 150 467 150q213 0 320 -121q135 121 348 121q209 0 351 -151.5t142 -405.5v-76h-653zM1368 614q-29 119 -156 119q-121 0 -151 -119h307zM692 322q-43 55 -155 55q-55 0 -96.5 -18.5t-41.5 -53.5t36 -52t79 -17q72 0 125 25.5t53 53.5v7z" glyph-name="aeacute" horiz-adv-x="1742" unicode="ǽ"/><glyph d="M1202 1776l-317 -295h-246l246 295h317zM1327 1184q205 -201 205 -502q0 -311 -214 -509t-534 -198q-223 0 -401 101l-64 -76h-282l178 209q-178 190 -178 473q0 311 214 509t533 198q201 0 365 -82l51 59h283zM457 682q0 -84 30 -154l408 480q-55 16 -111 16 q-145 0 -236 -98.5t-91 -243.5zM784 340q145 0 236.5 98.5t91.5 243.5q0 102 -49 190l-426 -499q69 -33 147 -33z" glyph-name="Oslashacute" horiz-adv-x="1568" unicode="Ǿ"/><glyph d="M1022 1434l-317 -295h-246l246 295h317zM1147 989l-133 -145q133 -145 133 -348q0 -217 -151.5 -369t-405.5 -152q-172 0 -301 74l-45 -49h-209l133 145q-133 145 -133 351q0 217 150.5 367.5t404.5 150.5q168 0 299 -72l43 47h215zM414 496q0 -41 8 -68l229 252 q-37 8 -61 8q-82 0 -129 -54t-47 -138zM768 496q0 33 -10 67l-230 -252q31 -10 62 -10q84 0 131 54.5t47 140.5z" glyph-name="oslashacute" horiz-adv-x="1181" unicode="ǿ"/><glyph d="M6 193l215 307q184 -176 441 -176q63 0 107 21.5t44 57.5q0 39 -44 62.5t-148 42.5q-252 45 -357 98q-213 109 -213 338q0 184 149.5 313t417.5 129q346 0 580 -190l-221 -293q-86 66 -190.5 100.5t-190.5 34.5q-125 0 -125 -71q0 -39 43 -58.5t158 -38.5 q90 -16 147.5 -28.5t144.5 -45t138 -73.5t90 -111.5t39 -160.5q0 -225 -156.5 -350.5t-433.5 -125.5q-393 1 -635 218zM604 -623l-112 91q39 18 82.5 62t56.5 87q-8 -6 -39 -6q-57 0 -95 39t-38 102q0 68 47 115t112 47q74 0 126.5 -53.5t52.5 -145.5q0 -203 -193 -338z" glyph-name="Scommaaccent" horiz-adv-x="1255" unicode="Ș"/><glyph d="M18 127l148 248q59 -47 167.5 -86t188.5 -39q98 0 99 47q0 23 -32 35t-108 22q-53 6 -76.5 10.5t-78 16.5t-83 25.5t-69.5 38t-61.5 54t-37 76t-16.5 101.5q0 141 118 239.5t325 98.5q236 0 428 -127l-135 -240q-51 41 -130 72t-161 31q-92 0 -92 -43q0 -20 26.5 -32.5 t100.5 -23.5q53 -8 77.5 -12t80 -16.5t85 -26.5t71.5 -40t64.5 -57.5t39 -78.5t16.5 -105q0 -150 -127 -245t-342 -95q-135 0 -270.5 42t-215.5 110zM487 -623l-112 91q39 18 83 62t56 87q-8 -6 -39 -6q-57 0 -95 39t-38 102q0 68 47 115t113 47q74 0 126 -53.5t52 -145.5 q0 -203 -193 -338z" glyph-name="scommaaccent" horiz-adv-x="1003" unicode="ș"/><glyph d="M403 0v1006h-366v360h1145v-360h-365v-1006h-414zM596 -623l-113 91q39 18 83 62t57 87q-8 -6 -39 -6q-57 0 -95 39t-38 102q0 68 47 115t112 47q74 0 126 -53.5t52 -145.5q1 -203 -192 -338z" glyph-name="uni021A" horiz-adv-x="1218" unicode="Ț"/><glyph d="M518 -25q-166 0 -253 79t-87 233v383h-164v319h164v271h369v-271h201v-319h-201v-277q0 -39 22.5 -65.5t59.5 -26.5q55 0 73 18l66 -278q-74 -66 -250 -66zM373 -623l-113 91q39 18 83 62t56 87q-10 -6 -39 -6q-57 0 -95 39t-38 102q0 68 47.5 115t112.5 47 q74 0 126 -53.5t52 -145.5q1 -203 -192 -338z" glyph-name="uni021B" horiz-adv-x="782" unicode="ț"/><glyph d="M309 1470v199h744v-199h-744zM475 0v543l-512 823h465l254 -461l250 461h465l-508 -823v-543h-414z" glyph-name="uni0232" horiz-adv-x="1359" unicode="Ȳ"/><glyph d="M174 1128v199h744v-199h-744zM143 -57q33 -18 78 -19q111 0 129 39l8 21l-389 1005h389l189 -565l190 565h389l-430 -1112q-61 -160 -171.5 -216t-288.5 -62q-88 0 -144 16z" glyph-name="uni0233" horiz-adv-x="1095" unicode="ȳ"/><glyph d="M-55 -393v297q20 -4 49 -4q109 0 108 143v946h369v-946q0 -201 -102.5 -322.5t-309.5 -121.5q-73 0 -114 8z" glyph-name="uni0237" horiz-adv-x="573" unicode="ȷ"/><glyph d="M1077 494q0 -219 -151.5 -369t-386.5 -150q-223 0 -368.5 150.5t-145.5 406.5v76h671q-16 51 -71.5 88t-141.5 37q-47 0 -119.5 -20.5t-107.5 -48.5l-152 227q70 59 187 91t235 32q238 0 394.5 -141t156.5 -379zM539 256q129 0 161 119h-325q29 -119 164 -119z" glyph-name="uni0259" horiz-adv-x="1112" unicode="ə"/><glyph d="M811 1014q164 0 247 -87t83 -225v-702h-369v547q0 141 -143 141q-88 0 -158 -78v-567q0 -201 -102.5 -322.5t-309.5 -121.5q-74 0 -114 8v297q20 -4 49 -4q109 0 108 143v946h369v-112q121 137 340 137z" glyph-name="uni0272" horiz-adv-x="1243" unicode="ɲ"/><glyph d="M526 668v356q0 84 -92 84q-51 0 -94 -43v-397h-258v888h258v-315q78 86 225 86q111 0 166 -57.5t55 -147.5v-454h-260z" glyph-name="uni02B0" horiz-adv-x="868" unicode="ʰ"/><glyph d="M264 672l-149 121q51 23 109.5 82t76.5 114q-20 -8 -53 -8q-76 0 -127 53t-51 137q0 88 63.5 151.5t149.5 63.5q98 0 167.5 -71.5t69.5 -192.5q0 -270 -256 -450z" glyph-name="afii57929" horiz-adv-x="575" unicode="ʼ"/><glyph d="M471 1139l-131 149l-125 -149h-215l180 295h320l186 -295h-215z" glyph-name="circumflex" horiz-adv-x="686" unicode="ˆ"/><glyph d="M186 1139l-186 295h215l131 -150l125 150h215l-180 -295h-320z" glyph-name="caron" horiz-adv-x="686" unicode="ˇ"/><glyph d="M0 1210v199h743v-199h-743z" glyph-name="uni02C9" horiz-adv-x="743" unicode="ˉ"/><glyph d="M317 1139l-317 295h317l246 -295h-246z" glyph-name="uni02CB" horiz-adv-x="563" unicode="ˋ"/><glyph d="M360 1126q-223 0 -360 181l156 127q78 -109 204 -109q129 0 205 109l154 -127q-134 -181 -359 -181z" glyph-name="breve" horiz-adv-x="718" unicode="˘"/><glyph d="M10 1267.5q0 75.5 53.5 129t129.5 53.5q74 0 127 -53.5t53 -129t-53.5 -129t-126.5 -53.5q-76 0 -129.5 53.5t-53.5 129z" glyph-name="dotaccent" horiz-adv-x="382" unicode="˙"/><glyph d="M41 1292q0 94 67.5 162t162 68t160 -68t65.5 -162t-65.5 -161.5t-160 -67.5t-162 67.5t-67.5 161.5zM340 1292.5q0 28.5 -20.5 50t-49 21.5t-50 -21.5t-21.5 -50t21.5 -50t50 -21.5t49 21.5t20.5 50z" glyph-name="ring" horiz-adv-x="536" unicode="˚"/><glyph d="M500 -340q-84 -41 -219 -41q-66 0 -122.5 14.5t-102.5 57.5t-46 108q0 141 281 215l215 -14q-88 -8 -133 -41t-45 -78q0 -27 19.5 -43t47.5 -16q25 0 49 10z" glyph-name="ogonek" horiz-adv-x="516" unicode="˛"/><glyph d="M297 1192q-45 31 -66 31q-49 0 -49 -76h-182q0 274 242 274q74 0 159 -57q47 -31 66 -31q49 0 49 76h182q0 -274 -241 -274q-74 0 -160 57z" glyph-name="tilde" horiz-adv-x="698" unicode="˜"/><glyph d="M205 1139h-205l164 295h276zM524 1139h-205l164 295h277z" glyph-name="hungarumlaut" horiz-adv-x="759" unicode="˝"/><glyph d="M-246 1139l-317 295h317l246 -295h-246z" glyph-name="gravecomb" horiz-adv-x="0" unicode="̀"/><glyph d="M-317 1139h-246l246 295h317z" glyph-name="acutecomb" horiz-adv-x="0" unicode="́"/><glyph d="M-215 1139l-131 149l-125 -149h-215l180 295h320l186 -295h-215z" glyph-name="uni0302" horiz-adv-x="0" unicode="̂"/><glyph d="M-401 1192q-47 31 -66 31q-49 0 -49 -76h-182q0 274 241 274q74 0 160 -57q45 -31 66 -31q49 0 49 76h182q0 -274 -242 -274q-73 0 -159 57z" glyph-name="tildecomb" horiz-adv-x="0" unicode="̃"/><glyph d="M-743 1128v199h743v-199h-743z" glyph-name="uni0304" horiz-adv-x="0" unicode="̄"/><glyph d="M-358 1126q-223 0 -361 181l156 127q78 -109 205 -109q129 0 204 109l154 -127q-133 -181 -358 -181z" glyph-name="uni0306" horiz-adv-x="0" unicode="̆"/><glyph d="M-373 1267.5q0 75.5 53.5 129t129.5 53.5q74 0 127 -53.5t53 -129t-53.5 -129t-126.5 -53.5q-76 0 -129.5 53.5t-53.5 129z" glyph-name="uni0307" horiz-adv-x="0" unicode="̇"/><glyph d="M-665.5 1083q-75.5 0 -129 52.5t-53.5 130t53.5 130t129 52.5t129 -52.5t53.5 -130t-53.5 -130t-129 -52.5zM-223 1083q-76 0 -129.5 53.5t-53.5 129t53.5 129t129.5 53.5q78 0 131 -53.5t53 -129t-53 -129t-131 -53.5z" glyph-name="uni0308" horiz-adv-x="0" unicode="̈"/><glyph d="M-457 1313q27 78 88.5 115.5t139.5 37.5q100 0 167.5 -49t67.5 -149q0 -55 -33 -129h-186q45 51 45 118q0 63 -61 64q-47 0 -74 -59z" glyph-name="hookabovecomb" horiz-adv-x="0" unicode="̉"/><glyph d="M-496 1292q0 94 68 162t162 68t159.5 -68t65.5 -162t-65.5 -161.5t-159.5 -67.5t-162 67.5t-68 161.5zM-197 1292.5q0 28.5 -20.5 50t-49 21.5t-50 -21.5t-21.5 -50t21.5 -50t50 -21.5t49 21.5t20.5 50z" glyph-name="uni030A" horiz-adv-x="0" unicode="̊"/><glyph d="M-555 1139h-205l164 295h277zM-236 1139h-204l164 295h276z" glyph-name="uni030B" horiz-adv-x="0" unicode="̋"/><glyph d="M-500 1139l-186 295h215l131 -150l125 150h215l-180 -295h-320z" glyph-name="uni030C" horiz-adv-x="0" unicode="̌"/><glyph d="M-305 -623l-113 91q39 18 83 62t56 87q-8 -6 -38 -6q-57 0 -95.5 39t-38.5 102q0 68 47.5 115t112.5 47q74 0 126 -53.5t52 -145.5q1 -203 -192 -338z" glyph-name="uni0326" horiz-adv-x="0" unicode="̦"/><glyph d="M-485 -340l63 131q88 -61 170 -61q86 0 86 49q0 35 -43 35q-33 0 -53 -25l-121 70l61 164h164l-51 -119q31 18 70 18q57 0 98 -42t41 -107q0 -84 -69.5 -133.5t-172.5 -49.5q-157 0 -243 70z" glyph-name="uni0327" horiz-adv-x="0" unicode="̧"/><glyph d="M-16 -340q-84 -41 -220 -41q-66 0 -122 14.5t-102 57.5t-46 108q0 141 281 215l215 -14q-88 -8 -133 -41t-45 -78q0 -27 19 -43t48 -16q25 0 49 10z" glyph-name="uni0328" horiz-adv-x="0" unicode="̨"/><glyph d="M289 565q-88 0 -153.5 65.5t-65.5 155.5q0 88 64.5 153t154.5 65t154.5 -65t64.5 -153q0 -90 -65.5 -155.5t-153.5 -65.5zM264 -299l-149 121q51 23 109.5 82t76.5 114q-20 -8 -53 -8q-76 0 -127 53.5t-51 137.5q0 88 63.5 151.5t149.5 63.5q98 0 167.5 -72t69.5 -192 q0 -271 -256 -451z" glyph-name="uni037E" horiz-adv-x="575" unicode=";"/><glyph d="M10 1108l45 459h275l-168 -459h-152z" glyph-name="tonos" horiz-adv-x="339" unicode="΄"/><glyph d="M412 1108l45 459h276l-168 -459h-153zM192.5 1083q-77.5 0 -130 52.5t-52.5 130t52.5 130t130 52.5t130 -52.5t52.5 -130t-52.5 -130t-130 -52.5zM870 1083q-76 0 -129 53.5t-53 129t53.5 129t128.5 53.5q78 0 131.5 -53.5t53.5 -129t-53.5 -129t-131.5 -53.5z" glyph-name="dieresistonos" horiz-adv-x="1064" unicode="΅"/><glyph d="M106 1108l46 459h274l-168 -459h-152zM1042 0l-53 176h-524l-53 -176h-449l504 1366h520l504 -1366h-449zM727 1001l-156 -481h312z" glyph-name="Alphatonos" horiz-adv-x="1454" unicode="Ά"/><glyph d="M-45 1108l45 459h274l-168 -459h-151zM233 0v1366h1037v-344h-623v-160h608v-344h-608v-174h623v-344h-1037z" glyph-name="Epsilontonos" horiz-adv-x="1343" unicode="Έ"/><glyph d="M-45 1108l45 459h274l-168 -459h-151zM1137 0v522h-490v-522h-414v1366h414v-483h490v483h413v-1366h-413z" glyph-name="Etatonos" horiz-adv-x="1660" unicode="Ή"/><glyph d="M-45 1108l45 459h274l-168 -459h-151zM233 0v1366h414v-1366h-414z" glyph-name="Iotatonos" horiz-adv-x="757" unicode="Ί"/><glyph d="M-45 1108l45 459h274l-168 -459h-151zM41 682q0 311 214 509t533.5 198t533.5 -198t214 -509t-214 -509t-533.5 -198t-533.5 198t-214 509zM1116 682q0 145 -91 243.5t-236.5 98.5t-236.5 -98.5t-91 -243.5t91 -243.5t236.5 -98.5t236.5 98.5t91 243.5z" glyph-name="Omicrontonos" horiz-adv-x="1572" unicode="Ό"/><glyph d="M1075 1366h465l-508 -823v-543h-414v543l-452 727l-60 -162h-151l45 459h274l-73 -201h370l254 -461z" glyph-name="Upsilontonos" horiz-adv-x="1503" unicode="Ύ"/><glyph d="M-45 1108l45 459h274l-168 -459h-151zM328 360q-246 190 -246 424q0 283 211 444t536 161q328 0 538 -161t210 -444q0 -233 -244 -424h209v-360h-610v360q113 35 169 128.5t56 197.5q0 55 -16.5 109.5t-51 107.5t-102 86t-158 33t-158 -33t-102 -86t-51 -107.5 t-16.5 -109.5q0 -104 56 -197.5t169 -128.5v-360h-610v360h211z" glyph-name="Omegatonos" horiz-adv-x="1613" unicode="Ώ"/><glyph d="M207 1108l45 459h276l-168 -459h-153zM-12 1083q-78 0 -130.5 52.5t-52.5 130t52.5 130t130.5 52.5t130 -52.5t52 -130t-52 -130t-130 -52.5zM666 1083q-76 0 -129.5 53.5t-53.5 129t53.5 129t129.5 53.5q78 0 131 -53.5t53 -129t-53 -129t-131 -53.5zM102 287v702h369 v-624q0 -31 20.5 -47.5t49.5 -16.5q20 0 39 6l22 -311q-68 -20 -160 -21q-166 0 -253 79t-87 233z" glyph-name="iotadieresistonos" horiz-adv-x="602" unicode="ΐ"/><glyph d="M1042 0l-53 176h-524l-53 -176h-449l504 1366h520l504 -1366h-449zM727 1001l-156 -481h312z" glyph-name="Alpha" horiz-adv-x="1454" unicode="Α"/><glyph d="M111 0v1366h829q197 0 301.5 -106.5t104.5 -241.5q0 -125 -66 -208t-168 -105q113 -16 186.5 -109.5t73.5 -224.5q0 -154 -104.5 -262.5t-298.5 -108.5h-858zM524 858h320q33 0 57.5 25.5t24.5 62.5q0 35 -24.5 59.5t-57.5 24.5h-320v-172zM524 336h332q43 0 69.5 26.5 t26.5 65.5t-26.5 66.5t-69.5 27.5h-332v-186z" glyph-name="Beta" horiz-adv-x="1427" unicode="Β"/><glyph d="M111 0v1366h1036v-360h-623v-1006h-413z" glyph-name="Gamma" horiz-adv-x="1212" unicode="Γ"/><glyph d="M-37 0l504 1366h520l504 -1366h-1528zM727 961l-184 -601h368z" glyph-name="Delta" horiz-adv-x="1454" unicode="Δ"/><glyph d="M111 0v1366h1036v-344h-623v-160h609v-344h-609v-174h623v-344h-1036z" glyph-name="Epsilon" unicode="Ε"/><glyph d="M74 0v328l520 678h-520v360h1067v-326l-523 -680h537v-360h-1081z" glyph-name="Zeta" horiz-adv-x="1228" unicode="Ζ"/><glyph d="M1014 0v522h-490v-522h-413v1366h413v-483h490v483h413v-1366h-413z" glyph-name="Eta" horiz-adv-x="1538" unicode="Η"/><glyph d="M37 682q0 311 214 509t533.5 198t533.5 -198t214 -509t-214 -509t-533.5 -198t-533.5 198t-214 509zM1112 682q0 145 -91 243.5t-236.5 98.5t-236.5 -98.5t-91 -243.5t91 -243.5t236.5 -98.5t236.5 98.5t91 243.5zM539 510v360h491v-360h-491z" glyph-name="Theta" horiz-adv-x="1568" unicode="Θ"/><glyph d="M111 0v1366h413v-1366h-413z" glyph-name="Iota" horiz-adv-x="634" unicode="Ι"/><glyph d="M907 0l-307 481l-76 -102v-379h-413v1366h413v-512l359 512h506l-517 -635l539 -731h-504z" glyph-name="Kappa" horiz-adv-x="1374" unicode="Κ"/><glyph d="M1022 0l-295 961l-295 -961h-469l504 1366h520l504 -1366h-469z" glyph-name="Lambda" horiz-adv-x="1454" unicode="Λ"/><glyph d="M1319 0v862l-305 -862h-185l-305 862v-862h-413v1366h571l240 -696l239 696h572v-1366h-414z" glyph-name="Mu" horiz-adv-x="1843" unicode="Μ"/><glyph d="M1028 0l-504 733v-733h-413v1366h426l475 -688v688h413v-1366h-397z" glyph-name="Nu" horiz-adv-x="1536" unicode="Ν"/><glyph d="M74 1022v344h1145v-344h-1145zM88 518v344h1118v-344h-1118zM76 0v344h1145v-344h-1145z" glyph-name="Xi" horiz-adv-x="1294" unicode="Ξ"/><glyph d="M37 682q0 311 214 509t533.5 198t533.5 -198t214 -509t-214 -509t-533.5 -198t-533.5 198t-214 509zM1112 682q0 145 -91 243.5t-236.5 98.5t-236.5 -98.5t-91 -243.5t91 -243.5t236.5 -98.5t236.5 98.5t91 243.5z" glyph-name="Omicron" horiz-adv-x="1568" unicode="Ο"/><glyph d="M1014 0v1006h-490v-1006h-413v1366h1316v-1366h-413z" glyph-name="Pi" horiz-adv-x="1538" unicode="Π"/><glyph d="M111 0v1366h729q231 0 361 -134t130 -335q0 -199 -130 -329t-361 -130h-316v-438h-413zM911 901q0 53 -35.5 87t-89.5 34h-262v-240h262q53 0 89 33t36 86z" glyph-name="Rho" horiz-adv-x="1355" unicode="Ρ"/><glyph d="M575 360h572v-360h-1073v360l358 334l-356 314v358h1071v-360h-553l348 -310z" glyph-name="Sigma" unicode="Σ"/><glyph d="M403 0v1006h-366v360h1145v-360h-365v-1006h-414z" glyph-name="Tau" horiz-adv-x="1218" unicode="Τ"/><glyph d="M475 0v543l-512 823h465l254 -461l250 461h465l-508 -823v-543h-414z" glyph-name="Upsilon" horiz-adv-x="1359" unicode="Υ"/><glyph d="M1815 682q0 -240 -176.5 -376t-505.5 -167v-139h-414v139q-330 31 -506 167t-176 376t176 376t506 167v141h414v-141q330 -31 506 -167t176 -376zM457 682q0 -143 262 -176v352q-262 -33 -262 -176zM1133 506q262 33 262 176t-262 176v-352z" glyph-name="Phi" horiz-adv-x="1851" unicode="Φ"/><glyph d="M950 0l-250 418l-249 -418h-488l457 700l-426 666h485l221 -389l218 389h489l-426 -664l457 -702h-488z" glyph-name="Chi" horiz-adv-x="1400" unicode="Χ"/><glyph d="M1386 1366h422v-524q0 -231 -161.5 -384t-479.5 -192v-266h-413v266q-319 39 -481 191.5t-162 382.5v526h419v-512q0 -166 224 -215v727h413v-727q219 49 219 215v512z" glyph-name="Psi" horiz-adv-x="1918" unicode="Ψ"/><glyph d="M283 360q-246 190 -246 424q0 283 211 444t536 161q328 0 538 -161t210 -444q0 -233 -244 -424h209v-360h-610v360q113 35 169 128.5t56 197.5q0 55 -16.5 109.5t-51 107.5t-102.5 86t-158 33t-157.5 -33t-102.5 -86t-51 -107.5t-16 -109.5q0 -104 56 -197.5t169 -128.5 v-360h-610v360h211z" glyph-name="Omega" horiz-adv-x="1568" unicode="Ω"/><glyph d="M96 1425q-76 0 -129 53.5t-53 129t53 129t129 53.5t129.5 -53.5t53.5 -129t-53.5 -129t-129.5 -53.5zM539 1425q-76 0 -129.5 53.5t-53.5 129t53.5 129t129.5 53.5q78 0 131 -53.5t53 -129t-53 -129t-131 -53.5zM111 0v1366h413v-1366h-413z" glyph-name="Iotadieresis" horiz-adv-x="634" unicode="Ϊ"/><glyph d="M461 1425q-76 0 -129 53.5t-53 129t53 129t129 53.5t129 -53.5t53 -129t-53 -129t-129 -53.5zM903 1425q-76 0 -129 53.5t-53 129t53 129t129 53.5q78 0 131 -53.5t53 -129t-53 -129t-131 -53.5zM475 0v543l-512 823h465l254 -461l250 461h465l-508 -823v-543h-414z" glyph-name="Upsilondieresis" horiz-adv-x="1359" unicode="Ϋ"/><glyph d="M539 1108l45 459h274l-168 -459h-151zM1249 -4q-68 -20 -159 -21q-244 0 -316 168q-102 -168 -303 -168q-188 0 -312 137.5t-124 383.5q0 240 124 379t312 139q170 0 277 -129v104h370v-624q0 -31 20.5 -47.5t49.5 -16.5q20 0 39 6zM750 369v252q-53 66 -154 65 q-78 0 -131 -51t-53 -139q0 -90 53 -142.5t131 -52.5q99 0 154 68z" glyph-name="alphatonos" horiz-adv-x="1249" unicode="ά"/><glyph d="M436 1108l45 459h275l-168 -459h-152zM530 -25q-225 2 -360 85t-135 219q0 96 83 160.5t185 70.5q-109 18 -179.5 81.5t-70.5 143.5q2 127 121 203t336 74q317 0 489 -168l-174 -207q-111 100 -280 100q-111 0 -111 -61.5t115 -61.5h184v-233h-184q-133 0 -133 -62 q0 -68 121 -67q180 0 309 94l164 -215q-163 -156 -480 -156z" glyph-name="epsilontonos" horiz-adv-x="1028" unicode="έ"/><glyph d="M543 1108l45 459h274l-168 -459h-151zM772 -377v924q0 141 -143 141q-88 0 -158 -78v-610h-369v989h369v-112q121 137 340 137q164 0 247 -87t83 -225v-1079h-369z" glyph-name="etatonos" horiz-adv-x="1243" unicode="ή"/><glyph d="M209 1108l45 459h274l-168 -459h-151zM102 287v702h369v-624q0 -31 20.5 -47.5t49.5 -16.5q20 0 39 6l22 -311q-68 -20 -160 -21q-166 0 -253 79t-87 233z" glyph-name="iotatonos" horiz-adv-x="602" unicode="ί"/><glyph d="M541 1108l45 459h276l-168 -459h-153zM321.5 1083q-75.5 0 -129 52.5t-53.5 130t53.5 130t129 52.5t129 -52.5t53.5 -130t-53.5 -130t-129 -52.5zM999 1083q-76 0 -129 53.5t-53 129t53.5 129t128.5 53.5q78 0 131.5 -53.5t53.5 -129t-53.5 -129t-131.5 -53.5zM621 -25 q-254 0 -386.5 132.5t-132.5 351.5v530h369v-524q0 -72 40 -118t110 -46q178 0 178 250q0 180 -92 326l342 137q129 -203 129 -463q0 -258 -148.5 -417t-408.5 -159z" glyph-name="upsilondieresistonos" horiz-adv-x="1212" unicode="ΰ"/><glyph d="M1249 -4q-68 -20 -159 -21q-244 0 -316 168q-102 -168 -303 -168q-188 0 -312 137.5t-124 383.5q0 240 124 379t312 139q170 0 277 -129v104h370v-624q0 -31 20.5 -47.5t49.5 -16.5q20 0 39 6zM750 369v252q-53 66 -154 65q-78 0 -131 -51t-53 -139q0 -90 53 -142.5 t131 -52.5q99 0 154 68z" glyph-name="alpha" horiz-adv-x="1249" unicode="α"/><glyph d="M471 -377h-369v1280q0 127 51.5 225.5t133.5 151.5t174 79.5t186 26.5q252 0 380 -101t128 -277q0 -111 -81 -197t-210 -106q129 -14 225.5 -108.5t96.5 -258.5q0 -145 -122 -254t-273 -109q-205 0 -320 129v-481zM471 367q72 -66 186 -66q72 0 112 32t40 81 q0 47 -39 77.5t-113 30.5h-90v328h78q131 0 131 104q0 49 -34.5 77t-94.5 28q-82 0 -129 -44t-47 -112v-536z" glyph-name="beta" unicode="β"/><glyph d="M362 -377v162q0 340 -115.5 664.5t-297.5 539.5h409q82 -113 148.5 -282.5t83.5 -294.5q43 82 80 259t37 318h368q0 -242 -100.5 -520.5t-243.5 -458.5v-387h-369z" glyph-name="gamma" horiz-adv-x="1095" unicode="γ"/><glyph d="M614 1020q80 -18 130.5 -33.5t135.5 -57.5t136 -95.5t91 -145.5t40 -209q0 -209 -142.5 -356.5t-392.5 -147.5q-268 0 -422.5 150.5t-154.5 370.5q0 123 54 215t138 147q-80 74 -80 195q0 141 118 239.5t325 98.5q236 0 428 -127l-135 -263q-51 41 -130 72t-161 31 q-92 0 -92 -37q0 -14 24 -22.5t90 -24.5zM602 301q88 0 139.5 52.5t51.5 125.5q0 96 -63.5 147.5t-184.5 90.5q-63 -37 -97 -97.5t-34 -123.5q0 -86 50 -140.5t138 -54.5z" glyph-name="delta" horiz-adv-x="1181" unicode="δ"/><glyph d="M530 -25q-225 2 -360 85t-135 219q0 96 83 160.5t185 70.5q-109 18 -179.5 81.5t-70.5 143.5q2 127 121 203t336 74q317 0 489 -168l-174 -207q-111 100 -280 100q-111 0 -111 -61.5t115 -61.5h184v-233h-184q-133 0 -133 -62q0 -68 121 -67q180 0 309 94l164 -215 q-163 -156 -480 -156z" glyph-name="epsilon" horiz-adv-x="1028" unicode="ε"/><glyph d="M563 0q-246 0 -387 112.5t-141 319.5q0 188 110.5 353t300.5 262h-378v319h852v-258q-188 -94 -348 -279.5t-160 -365.5q0 -86 44 -111.5t150 -25.5q346 0 346 -275q0 -143 -129 -373h-385q37 49 90.5 155t53.5 149q-1 18 -19 18z" glyph-name="zeta" horiz-adv-x="987" unicode="ζ"/><glyph d="M772 -377v924q0 141 -143 141q-88 0 -158 -78v-610h-369v989h369v-112q121 137 340 137q164 0 247 -87t83 -225v-1079h-369z" glyph-name="eta" horiz-adv-x="1243" unicode="η"/><glyph d="M590 1391q170 0 299 -98.5t193.5 -257t64.5 -351.5q0 -295 -151.5 -502t-405.5 -207t-404.5 207t-150.5 502q0 297 150.5 502t404.5 205zM590 1065q-72 0 -113 -52t-55 -167h338q-29 219 -170 219zM590 301q74 0 114.5 53.5t55.5 171.5h-338q27 -225 168 -225z" glyph-name="theta" horiz-adv-x="1181" unicode="θ"/><glyph d="M102 287v702h369v-624q0 -31 20.5 -47.5t49.5 -16.5q20 0 39 6l22 -311q-68 -20 -160 -21q-166 0 -253 79t-87 233z" glyph-name="iota" horiz-adv-x="602" unicode="ι"/><glyph d="M713 0l-170 319l-72 -96v-223h-369v989h369v-352l227 352h445l-340 -450l362 -539h-452z" glyph-name="kappa" horiz-adv-x="1140" unicode="κ"/><glyph d="M236 1391q178 -6 288.5 -62.5t171.5 -216.5l430 -1112h-389l-190 565l-189 -565h-389l389 1006l-8 20q-18 39 -129 39q-45 0 -78 -18l-51 327q56 17 144 17z" glyph-name="lambda" horiz-adv-x="1095" unicode="λ"/><glyph d="M471 -377h-369v1366h369v-549q0 -139 143 -139q86 0 156 78v610h369v-624q0 -31 20.5 -47.5t48.5 -16.5q20 0 39 6l23 -311q-68 -20 -160 -21q-248 0 -319 179q-33 -82 -95.5 -130.5t-144.5 -48.5q-47 0 -80 17v-369z" glyph-name="mu" horiz-adv-x="1269" unicode="μ"/><glyph d="M352 0l-383 989h389l207 -622q70 117 106 290.5t36 331.5h368q0 -246 -103.5 -528.5t-248.5 -460.5h-371z" glyph-name="nu" horiz-adv-x="1095" unicode="ν"/><glyph d="M35 330q0 211 213 291q-84 14 -137.5 66t-53.5 132q0 74 47.5 135.5t124.5 92.5h-147v319h838v-319h-394q-90 -27 -90 -107q0 -96 170 -96h307v-316h-307q-100 0 -146 -23.5t-46 -80.5q0 -98 192 -98q346 0 346 -275q0 -143 -129 -373h-385q37 47 87 154t50 150 q0 18 -18 18q-258 0 -390 87t-132 243z" glyph-name="xi" horiz-adv-x="987" unicode="ξ"/><glyph d="M590 -25q-254 0 -404.5 152t-150.5 369t150.5 367.5t404.5 150.5t405.5 -150.5t151.5 -367.5t-151.5 -369t-405.5 -152zM590 301q84 0 131 54.5t47 140.5q0 84 -47 138t-131 54q-82 0 -129 -54t-47 -138q0 -86 47 -140.5t129 -54.5z" glyph-name="omicron" horiz-adv-x="1181" unicode="ο"/><glyph d="M848 0v670h-301v-670h-369v670h-164v319h1366v-319h-163v-670h-369z" glyph-name="pi" horiz-adv-x="1394" unicode="π"/><glyph d="M471 104v-481h-369v873q0 217 146.5 367.5t394.5 150.5t394.5 -150.5t146.5 -367.5q0 -248 -122 -384.5t-312 -136.5q-166 0 -279 129zM807 496q0 84 -44 138t-124 54t-124 -54t-44 -138v-127q23 -29 69 -48.5t83 -19.5q78 0 131 52.5t53 142.5z" glyph-name="rho" horiz-adv-x="1218" unicode="ρ"/><glyph d="M35 496q0 231 157.5 374.5t397.5 143.5q154 0 262.5 -56.5t157.5 -130.5l-238 -223q-55 84 -166 84q-84 0 -139 -46t-55 -136t55 -135t139 -45q373 0 373 -250q0 -168 -129 -398h-385q37 47 87 154t50 150q0 18 -12 18q-242 0 -398.5 133.5t-156.5 362.5z" glyph-name="sigma1" horiz-adv-x="1028" unicode="ς"/><glyph d="M590 -25q-254 0 -404.5 152t-150.5 369q0 213 149.5 353t405.5 140h561v-325h-133q98 -90 98 -244q0 -190 -137 -317.5t-389 -127.5zM688 664h-98q-82 0 -129 -49.5t-47 -118.5q0 -86 47 -140.5t129 -54.5q84 0 131 54.5t47 140.5q0 102 -80 168z" glyph-name="sigma" horiz-adv-x="1181" unicode="σ"/><glyph d="M303 287v383h-272v319h932v-319h-291v-277q0 -39 22.5 -65.5t59.5 -26.5q55 0 73 18l66 -278q-74 -66 -250 -66q-166 0 -253 79t-87 233z" glyph-name="tau" horiz-adv-x="993" unicode="τ"/><glyph d="M621 -25q-254 0 -386.5 132.5t-132.5 351.5v530h369v-524q0 -72 40 -118t110 -46q178 0 178 250q0 180 -92 326l342 137q129 -203 129 -463q0 -258 -148.5 -417t-408.5 -159z" glyph-name="upsilon" horiz-adv-x="1212" unicode="υ"/><glyph d="M1509 483q0 -244 -149.5 -371.5t-405.5 -136.5l2 -352h-368l2 352q-258 8 -406.5 142.5t-148.5 394.5q0 180 99 304t267 190l152 -299q-68 -20 -103.5 -77t-35.5 -118q0 -102 47 -156.5t127 -54.5v688h289q307 0 469.5 -128t162.5 -378zM956 301q82 0 128 46t46 136 t-46 135.5t-128 45.5v-363z" glyph-name="phi" horiz-adv-x="1544" unicode="φ"/><glyph d="M688 -377l-153 361l-158 -361h-402l324 703l-303 663h403l133 -319l134 319h403l-303 -663l326 -703h-404z" glyph-name="chi" horiz-adv-x="1067" unicode="χ"/><glyph d="M1163 989h369v-463q0 -231 -124 -368.5t-407 -171.5v-363h-368v363q-283 33 -407 171t-124 369v463h369v-461q0 -88 34 -137t128 -72v1047h368v-1047q92 20 127 69.5t35 139.5v461z" glyph-name="psi" horiz-adv-x="1634" unicode="ψ"/><glyph d="M1184 -25q-129 0 -213 63.5t-146 197.5q-61 -133 -145 -197t-213 -64q-215 0 -323.5 144.5t-108.5 355.5q0 336 217 539l344 -121q-182 -152 -182 -418q0 -174 106 -174q59 0 90 53.5t31 141.5v247h369v-247q0 -88 30.5 -141.5t89.5 -53.5q106 0 107 174q0 266 -182 418 l344 121q217 -203 217 -539q0 -211 -108.5 -355.5t-323.5 -144.5z" glyph-name="omega" horiz-adv-x="1650" unicode="ω"/><glyph d="M65.5 1083q-77.5 0 -130 52.5t-52.5 130t52.5 130t130 52.5t130 -52.5t52.5 -130t-52.5 -130t-130 -52.5zM508 1083q-76 0 -129 53.5t-53 129t53 129t129 53.5q78 0 131 -53.5t53 -129t-53 -129t-131 -53.5zM102 287v702h369v-624q0 -31 20.5 -47.5t49.5 -16.5q20 0 39 6 l22 -311q-68 -20 -160 -21q-166 0 -253 79t-87 233z" glyph-name="iotadieresis" horiz-adv-x="602" unicode="ϊ"/><glyph d="M399.5 1083q-75.5 0 -129 52.5t-53.5 130t53.5 130t129 52.5t129 -52.5t53.5 -130t-53.5 -130t-129 -52.5zM842 1083q-76 0 -129.5 53.5t-53.5 129t53.5 129t129.5 53.5q78 0 131 -53.5t53 -129t-53 -129t-131 -53.5zM621 -25q-254 0 -386.5 132.5t-132.5 351.5v530h369 v-524q0 -72 40 -118t110 -46q178 0 178 250q0 180 -92 326l342 137q129 -203 129 -463q0 -258 -148.5 -417t-408.5 -159z" glyph-name="upsilondieresis" horiz-adv-x="1212" unicode="ϋ"/><glyph d="M512 1108l45 459h274l-167 -459h-152zM590 -25q-254 0 -404.5 152t-150.5 369t150.5 367.5t404.5 150.5t405.5 -150.5t151.5 -367.5t-151.5 -369t-405.5 -152zM590 301q84 0 131 54.5t47 140.5q0 84 -47 138t-131 54q-82 0 -129 -54t-47 -138q0 -86 47 -140.5t129 -54.5z " glyph-name="omicrontonos" horiz-adv-x="1181" unicode="ό"/><glyph d="M543 1108l45 459h274l-168 -459h-151zM621 -25q-254 0 -386.5 132.5t-132.5 351.5v530h369v-524q0 -72 40 -118t110 -46q178 0 178 250q0 180 -92 326l342 137q129 -203 129 -463q0 -258 -148.5 -417t-408.5 -159z" glyph-name="upsilontonos" horiz-adv-x="1212" unicode="ύ"/><glyph d="M748 1108l45 459h274l-168 -459h-151zM1184 -25q-129 0 -213 63.5t-146 197.5q-61 -133 -145 -197t-213 -64q-215 0 -323.5 144.5t-108.5 355.5q0 336 217 539l344 -121q-182 -152 -182 -418q0 -174 106 -174q59 0 90 53.5t31 141.5v247h369v-247q0 -88 30.5 -141.5 t89.5 -53.5q106 0 107 174q0 266 -182 418l344 121q217 -203 217 -539q0 -211 -108.5 -355.5t-323.5 -144.5z" glyph-name="omegatonos" horiz-adv-x="1650" unicode="ώ"/><glyph d="M422 1425q-78 0 -130 53.5t-52 129t52 129t130 53.5t130 -53.5t52 -129t-52 -129t-130 -53.5zM864 1425q-76 0 -129 53.5t-53 129t53 129t129 53.5q78 0 131.5 -53.5t53.5 -129t-53.5 -129t-131.5 -53.5zM111 0v1366h1036v-344h-623v-160h609v-344h-609v-174h623v-344 h-1036z" glyph-name="afii10023" unicode="Ё"/><glyph d="M1038 315q96 0 134 25t38 76v14q0 121 -194 121q-106 0 -199 -51v-500h-414v1006h-366v360h1145v-360h-365v-187q147 92 354 92q219 0 336 -124.5t117 -329.5v-21q0 -461 -586 -461v340z" glyph-name="afii10051" horiz-adv-x="1648" unicode="Ђ"/><glyph d="M768 1481h-307l246 295h378zM111 0v1366h1036v-360h-623v-1006h-413z" glyph-name="afii10052" horiz-adv-x="1212" unicode="Ѓ"/><glyph d="M772 340q100 0 177 57.5t104 141.5l356 -164q-33 -76 -82 -140.5t-123 -126t-181.5 -97.5t-234.5 -36q-324 0 -537.5 198t-213.5 509q0 313 213 510t538 197q246 0 396.5 -115t224.5 -283l-356 -166q-27 84 -104 141.5t-177 57.5q-197 0 -278 -162h464v-344h-471 q76 -178 285 -178z" glyph-name="afii10053" horiz-adv-x="1427" unicode="Є"/><glyph d="M6 193l215 307q184 -176 441 -176q63 0 107 21.5t44 57.5q0 39 -44 62.5t-148 42.5q-252 45 -357 98q-213 109 -213 338q0 184 149.5 313t417.5 129q346 0 580 -190l-221 -293q-86 66 -190.5 100.5t-190.5 34.5q-125 0 -125 -71q0 -39 43 -58.5t158 -38.5 q90 -16 147.5 -28.5t144.5 -45t138 -73.5t90 -111.5t39 -160.5q0 -225 -156.5 -350.5t-433.5 -125.5q-393 1 -635 218z" glyph-name="afii10054" horiz-adv-x="1255" unicode="Ѕ"/><glyph d="M111 0v1366h413v-1366h-413z" glyph-name="afii10055" horiz-adv-x="634" unicode="І"/><glyph d="M96 1425q-76 0 -129 53.5t-53 129t53 129t129 53.5t129.5 -53.5t53.5 -129t-53.5 -129t-129.5 -53.5zM539 1425q-76 0 -129.5 53.5t-53.5 129t53.5 129t129.5 53.5q78 0 131 -53.5t53 -129t-53 -129t-131 -53.5zM111 0v1366h413v-1366h-413z" glyph-name="afii10056" horiz-adv-x="634" unicode="Ї"/><glyph d="M0 86l168 315q90 -61 176 -61q68 0 110 41t42 113v872h413v-879q0 -256 -141 -384t-387 -128q-238 0 -381 111z" glyph-name="afii10057" horiz-adv-x="1019" unicode="Ј"/><glyph d="M41 360q41 0 71.5 10.5t68.5 49.5t64.5 106.5t51.5 192.5t37 299l26 348h1067v-430h316q231 0 361 -134t130 -333q0 -201 -130 -335t-361 -134h-729v1006h-318l-8 -109q-16 -231 -60 -399t-100.5 -267.5t-139.5 -158t-163 -78t-184 -19.5v385zM1427 575v-215h263 q55 0 90 28t35 81q0 51 -35 78.5t-90 27.5h-263z" glyph-name="afii10058" horiz-adv-x="2258" unicode="Љ"/><glyph d="M111 1366h413v-483h490v483h413v-483h342q219 0 342 -126t123 -315q0 -190 -122.5 -316t-342.5 -126h-755v522h-490v-522h-413v1366zM1720 360q41 0 68 21.5t27 60.5t-27 59.5t-68 20.5h-293v-162h293z" glyph-name="afii10059" horiz-adv-x="2258" unicode="Њ"/><glyph d="M1210 383q0 168 -194 168q-106 0 -199 -51v-500h-414v1006h-366v360h1145v-360h-365v-187q147 92 354 92q453 0 453 -528v-383h-414v383z" glyph-name="afii10060" horiz-adv-x="1734" unicode="Ћ"/><glyph d="M840 1481h-308l246 295h379zM907 0l-307 481l-76 -102v-379h-413v1366h413v-512l359 512h506l-517 -635l539 -731h-504z" glyph-name="afii10061" horiz-adv-x="1374" unicode="Ќ"/><glyph d="M682 1448q-115 0 -216 52t-171 142l190 156q74 -109 197 -108q125 0 199 108l186 -156q-68 -90 -168 -142t-217 -52zM944 1366h453l-447 -1006q-88 -197 -217 -291t-325 -94q-127 0 -195 25l72 356q35 -16 86 -16q90 0 137 53l-543 973h473l287 -555z" glyph-name="afii10062" horiz-adv-x="1359" unicode="Ў"/><glyph d="M1386 1366v-1366h-456v-252h-361v252h-458v1366h413v-1006h449v1006h413z" glyph-name="afii10145" horiz-adv-x="1497" unicode="Џ"/><glyph d="M1042 0l-53 176h-524l-53 -176h-449l504 1366h520l504 -1366h-449zM727 1001l-156 -481h312z" glyph-name="afii10017" horiz-adv-x="1454" unicode="А"/><glyph d="M1249 1366v-344h-725v-133h336q221 0 346 -127t125 -318q0 -193 -124 -318.5t-347 -125.5h-749v1366h1138zM524 545v-201h285q43 0 72.5 28.5t29.5 71.5t-29.5 72t-72.5 29h-285z" glyph-name="afii10018" horiz-adv-x="1355" unicode="Б"/><glyph d="M111 0v1366h829q197 0 301.5 -106.5t104.5 -241.5q0 -125 -66 -208t-168 -105q113 -16 186.5 -109.5t73.5 -224.5q0 -154 -104.5 -262.5t-298.5 -108.5h-858zM524 858h320q33 0 57.5 25.5t24.5 62.5q0 35 -24.5 59.5t-57.5 24.5h-320v-172zM524 336h332q43 0 69.5 26.5 t26.5 65.5t-26.5 66.5t-69.5 27.5h-332v-186z" glyph-name="afii10019" horiz-adv-x="1427" unicode="В"/><glyph d="M111 0v1366h1036v-360h-623v-1006h-413z" glyph-name="afii10020" horiz-adv-x="1212" unicode="Г"/><glyph d="M27 360h108q115 98 166 662l31 344h1040v-1006h160v-612h-361v252h-784v-252h-360v612zM651 870q-35 -385 -100 -510h407v646h-294z" glyph-name="afii10021" horiz-adv-x="1558" unicode="Д"/><glyph d="M111 0v1366h1036v-344h-623v-160h609v-344h-609v-174h623v-344h-1036z" glyph-name="afii10022" unicode="Е"/><glyph d="M1583 0l-297 543h-63v-543h-414v543h-64l-296 -543h-486l455 713l-432 653h477l282 -504h64v504h414v-504h63l283 504h477l-432 -653l454 -713h-485z" glyph-name="afii10024" horiz-adv-x="2031" unicode="Ж"/><glyph d="M25 188l202 267q74 -63 187.5 -97t203.5 -34q104 0 162 28.5t58 71.5t-49.5 66.5t-182.5 23.5h-260v344h260q209 0 209 84q0 47 -61.5 71.5t-161.5 24.5q-90 0 -187.5 -32.5t-166.5 -90.5l-195 246q94 104 247.5 164.5t346.5 60.5q279 0 434.5 -103t155.5 -275 q0 -109 -85 -196t-216 -107q125 -14 224 -100.5t99 -219.5q0 -182 -173 -296t-441 -114q-197 0 -359.5 58.5t-250.5 154.5z" glyph-name="afii10025" horiz-adv-x="1304" unicode="З"/><glyph d="M111 1366h413v-770l475 770h426v-1366h-413v815l-504 -815h-397v1366z" glyph-name="afii10026" horiz-adv-x="1536" unicode="И"/><glyph d="M768 1448q-115 0 -216 52t-171 142l190 156q74 -109 197 -108q125 0 199 108l186 -156q-68 -90 -168 -142t-217 -52zM111 1366h413v-770l475 770h426v-1366h-413v815l-504 -815h-397v1366z" glyph-name="afii10027" horiz-adv-x="1536" unicode="Й"/><glyph d="M907 0l-307 481l-76 -102v-379h-413v1366h413v-512l359 512h506l-517 -635l539 -731h-504z" glyph-name="afii10028" horiz-adv-x="1374" unicode="К"/><glyph d="M41 360q41 0 71.5 10.5t67.5 49.5t64.5 106.5t51 192.5t38.5 299l26 348h1067v-1366h-413v1006h-318l-8 -109q-16 -231 -60 -399t-100.5 -267.5t-139.5 -158t-163 -78t-184 -19.5v385z" glyph-name="afii10029" horiz-adv-x="1538" unicode="Л"/><glyph d="M1319 0v862l-305 -862h-185l-305 862v-862h-413v1366h571l240 -696l239 696h572v-1366h-414z" glyph-name="afii10030" horiz-adv-x="1843" unicode="М"/><glyph d="M1014 0v522h-490v-522h-413v1366h413v-483h490v483h413v-1366h-413z" glyph-name="afii10031" horiz-adv-x="1538" unicode="Н"/><glyph d="M37 682q0 311 214 509t533.5 198t533.5 -198t214 -509t-214 -509t-533.5 -198t-533.5 198t-214 509zM1112 682q0 145 -91 243.5t-236.5 98.5t-236.5 -98.5t-91 -243.5t91 -243.5t236.5 -98.5t236.5 98.5t91 243.5z" glyph-name="afii10032" horiz-adv-x="1568" unicode="О"/><glyph d="M1014 0v1006h-490v-1006h-413v1366h1316v-1366h-413z" glyph-name="afii10033" horiz-adv-x="1538" unicode="П"/><glyph d="M111 0v1366h729q231 0 361 -134t130 -335q0 -199 -130 -329t-361 -130h-316v-438h-413zM911 901q0 53 -35.5 87t-89.5 34h-262v-240h262q53 0 89 33t36 86z" glyph-name="afii10034" horiz-adv-x="1355" unicode="Р"/><glyph d="M778 -25q-317 0 -529 198t-212 509t212 509t529 198q252 0 404.5 -115t226.5 -283l-356 -166q-27 84 -103 141.5t-172 57.5q-139 0 -230 -98.5t-91 -243.5t91 -243.5t230 -98.5q96 0 172 57.5t103 141.5l356 -164q-33 -76 -82 -140.5t-124 -126t-184.5 -97.5t-240.5 -36z " glyph-name="afii10035" horiz-adv-x="1427" unicode="С"/><glyph d="M403 0v1006h-366v360h1145v-360h-365v-1006h-414z" glyph-name="afii10036" horiz-adv-x="1218" unicode="Т"/><glyph d="M944 1366h453l-447 -1006q-88 -197 -217 -291t-325 -94q-127 0 -195 25l72 356q35 -16 86 -16q90 0 137 53l-543 973h473l287 -555z" glyph-name="afii10037" horiz-adv-x="1359" unicode="У"/><glyph d="M1815 682q0 -240 -176.5 -376t-505.5 -167v-139h-414v139q-330 31 -506 167t-176 376t176 376t506 167v141h414v-141q330 -31 506 -167t176 -376zM457 682q0 -143 262 -176v352q-262 -33 -262 -176zM1133 506q262 33 262 176t-262 176v-352z" glyph-name="afii10038" horiz-adv-x="1851" unicode="Ф"/><glyph d="M950 0l-250 418l-249 -418h-488l457 700l-426 666h485l221 -389l218 389h489l-426 -664l457 -702h-488z" glyph-name="afii10039" horiz-adv-x="1400" unicode="Х"/><glyph d="M1186 0h-1075v1366h413v-1006h449v1006h413v-1006h160v-612h-360v252z" glyph-name="afii10040" horiz-adv-x="1572" unicode="Ц"/><glyph d="M498 934q0 -168 194 -168q106 0 199 51v549h414v-1366h-414v498q-147 -92 -354 -92q-453 0 -453 528v432h414v-432z" glyph-name="afii10041" horiz-adv-x="1415" unicode="Ч"/><glyph d="M2044 1366v-1366h-1933v1366h413v-1006h346v1006h414v-1006h346v1006h414z" glyph-name="afii10042" horiz-adv-x="2154" unicode="Ш"/><glyph d="M2044 1366v-1006h160v-612h-361v252h-1732v1366h413v-1006h346v1006h414v-1006h346v1006h414z" glyph-name="afii10043" horiz-adv-x="2230" unicode="Щ"/><glyph d="M403 0v1006h-366v360h780v-430h316q231 0 361 -134t130 -333q0 -201 -130 -335t-361 -134h-730zM817 575v-215h262q55 0 90 28t35 81q0 51 -34.5 78.5t-90.5 27.5h-262z" glyph-name="afii10044" horiz-adv-x="1648" unicode="Ъ"/><glyph d="M524 1366v-430h316q231 0 361 -134t130 -333q0 -201 -130 -335t-361 -134h-729v1366h413zM1415 0v1366h414v-1366h-414zM524 575v-215h262q55 0 90 28t35 81q0 51 -34.5 78.5t-90.5 27.5h-262z" glyph-name="afii10045" horiz-adv-x="1939" unicode="Ы"/><glyph d="M524 1366v-430h316q231 0 361 -134t130 -333q0 -201 -130 -335t-361 -134h-729v1366h413zM524 575v-215h262q55 0 90 28t35 81q0 51 -34.5 78.5t-90.5 27.5h-262z" glyph-name="afii10046" horiz-adv-x="1355" unicode="Ь"/><glyph d="M639 1389q326 0 539 -197t213 -510q0 -311 -214 -509t-538 -198q-127 0 -234.5 36t-181 97.5t-123 126t-82.5 140.5l357 164q27 -84 103.5 -141.5t176.5 -57.5q209 0 285 178h-471v344h465q-82 162 -279 162q-100 0 -177 -57.5t-103 -141.5l-357 166q74 168 224.5 283 t396.5 115z" glyph-name="afii10047" horiz-adv-x="1427" unicode="Э"/><glyph d="M1485 1389q319 0 533 -198t214 -509t-214 -509t-533 -198q-276 0 -477 149.5t-254 397.5h-230v-522h-413v1366h413v-483h240q63 229 261 367.5t460 138.5zM1484.5 340q145.5 0 236.5 98.5t91 243.5t-91 243.5t-236.5 98.5t-236.5 -98.5t-91 -243.5t91 -243.5t236.5 -98.5 z" glyph-name="afii10048" horiz-adv-x="2269" unicode="Ю"/><glyph d="M55 0l248 483q-100 49 -173 151.5t-73 262.5q0 201 130 335t362 134h729v-1366h-414v430h-149l-189 -430h-471zM864 791v215h-252q-57 0 -96 -28t-39 -79q0 -53 39 -80.5t96 -27.5h252z" glyph-name="afii10049" horiz-adv-x="1388" unicode="Я"/><glyph d="M674 0v94q-41 -53 -124 -86t-175 -33q-127 0 -233.5 85t-106.5 241q0 88 31.5 150.5t84 94.5t107.5 46t117 14q213 0 299 -108v112q0 53 -48 88t-137 35q-147 0 -274 -96l-125 227q186 150 467 150q98 0 180 -19.5t154 -63.5t111.5 -129t39.5 -204v-598h-368zM674 268v56 q-37 53 -146 53q-129 0 -129 -82q0 -80 129 -80q109 0 146 53z" glyph-name="afii10065" horiz-adv-x="1144" unicode="а"/><glyph d="M35 604q0 319 149.5 516t454.5 248l360 62v-347l-282 -49q-381 -66 -426 -274q63 86 168.5 129t224.5 43q201 0 332 -126t131 -329q0 -215 -150.5 -358.5t-406.5 -143.5q-260 0 -407.5 169t-147.5 460zM768 498q0 82 -47 136t-131 54q-82 0 -129 -54t-47 -136 q0 -86 47 -141.5t129 -55.5q84 0 131 54.5t47 142.5z" glyph-name="afii10066" horiz-adv-x="1181" unicode="б"/><glyph d="M102 0v989h713q156 0 240 -77.5t84 -176.5q0 -84 -48.5 -143.5t-123.5 -81.5q86 -16 140 -82t54 -158q0 -113 -84 -191.5t-239 -78.5h-736zM768 682q0 23 -15.5 39t-41.5 16h-240v-112h240q27 0 42 17t15 40zM791 313q0 27 -17.5 44.5t-48.5 17.5h-254v-123h254 q31 0 48.5 18t17.5 43z" glyph-name="afii10067" horiz-adv-x="1196" unicode="в"/><glyph d="M905 670h-434v-670h-369v989h803v-319z" glyph-name="afii10068" horiz-adv-x="935" unicode="г"/><glyph d="M37 319h96q76 121 117 488l20 182h871v-670h108v-571h-319v252h-574v-252h-319v571zM541 614q-31 -213 -76 -295h307v351h-223z" glyph-name="afii10069" horiz-adv-x="1275" unicode="д"/><glyph d="M35 496q0 219 151.5 368.5t386.5 149.5q223 0 368.5 -150.5t145.5 -406.5v-76h-671q16 -53 72.5 -89t144.5 -36q135 0 223 70l152 -228q-70 -59 -186.5 -91t-235.5 -32q-238 0 -394.5 141.5t-156.5 379.5zM573 733q-129 0 -161 -119h325q-29 119 -164 119z" glyph-name="afii10070" horiz-adv-x="1112" unicode="е"/><glyph d="M1223 0l-170 381h-56v-381h-368v381h-56l-170 -381h-428l283 512l-260 477h418l162 -375h51v375h368v-375h52l161 375h418l-260 -477l283 -512h-428z" glyph-name="afii10072" horiz-adv-x="1626" unicode="ж"/><glyph d="M18 131l164 215q129 -94 310 -94q121 0 120 67q0 61 -133 62h-184v233h184q115 0 115 61.5t-111 61.5q-170 0 -280 -100l-174 207q172 168 489 168q217 2 336 -74t121 -203q0 -80 -70.5 -143.5t-179.5 -81.5q102 -6 185 -70.5t83 -160.5q0 -135 -135 -218.5t-360 -85.5 q-318 0 -480 156z" glyph-name="afii10073" horiz-adv-x="1028" unicode="з"/><glyph d="M102 0v989h369v-481l297 481h373v-989h-369v510l-317 -510h-353z" glyph-name="afii10074" horiz-adv-x="1243" unicode="и"/><glyph d="M621 1106q-115 0 -216.5 52t-171.5 142l191 156q74 -109 197 -108q125 0 198 108l187 -156q-68 -90 -168 -142t-217 -52zM102 0v989h369v-481l297 481h373v-989h-369v510l-317 -510h-353z" glyph-name="afii10075" horiz-adv-x="1243" unicode="й"/><glyph d="M713 0l-170 319l-72 -96v-223h-369v989h369v-352l227 352h445l-340 -450l362 -539h-452z" glyph-name="afii10076" horiz-adv-x="1140" unicode="к"/><glyph d="M37 319q35 0 56.5 9.5t53 49.5t55 141.5t40.5 262.5l20 207h879v-989h-369v670h-219l-8 -74q-37 -332 -150.5 -476.5t-357.5 -144.5v344z" glyph-name="afii10077" horiz-adv-x="1243" unicode="л"/><glyph d="M1063 0v580l-201 -580h-200l-201 580v-580h-359v989h478l180 -518l182 518h477v-989h-356z" glyph-name="afii10078" horiz-adv-x="1521" unicode="м"/><glyph d="M102 0v989h369v-313h301v313h369v-989h-369v356h-301v-356h-369z" glyph-name="afii10079" horiz-adv-x="1243" unicode="н"/><glyph d="M590 -25q-254 0 -404.5 152t-150.5 369t150.5 367.5t404.5 150.5t405.5 -150.5t151.5 -367.5t-151.5 -369t-405.5 -152zM590 301q84 0 131 54.5t47 140.5q0 84 -47 138t-131 54q-82 0 -129 -54t-47 -138q0 -86 47 -140.5t129 -54.5z" glyph-name="afii10080" horiz-adv-x="1181" unicode="о"/><glyph d="M772 0v670h-301v-670h-369v989h1039v-989h-369z" glyph-name="afii10081" horiz-adv-x="1243" unicode="п"/><glyph d="M471 -377h-369v1366h369v-104q109 129 279 129q190 0 312 -136.5t122 -381.5q0 -248 -122 -384.5t-312 -136.5q-166 0 -279 129v-481zM807 496q0 88 -53.5 140t-130.5 52q-39 0 -83 -18.5t-69 -48.5v-252q23 -29 69 -48.5t83 -19.5q78 0 131 52.5t53 142.5z" glyph-name="afii10082" horiz-adv-x="1218" unicode="р"/><glyph d="M35 496q0 231 157.5 374.5t397.5 143.5q154 0 262.5 -56.5t157.5 -130.5l-238 -223q-55 84 -166 84q-82 0 -138 -50t-56 -142.5t56 -143.5t138 -51q106 0 166 86l238 -225q-49 -74 -158 -130.5t-262 -56.5q-240 0 -397.5 144t-157.5 377z" glyph-name="afii10083" horiz-adv-x="1028" unicode="с"/><glyph d="M295 0v670h-264v319h893v-319h-260v-670h-369z" glyph-name="afii10084" horiz-adv-x="954" unicode="т"/><glyph d="M143 -57q33 -18 78 -19q111 0 129 39l8 21l-389 1005h389l189 -565l190 565h389l-430 -1112q-61 -160 -171.5 -216t-288.5 -62q-88 0 -144 16z" glyph-name="afii10085" horiz-adv-x="1095" unicode="у"/><glyph d="M1509 495.5q0 -243.5 -149.5 -377.5t-403.5 -143v-352h-368v352q-254 8 -403.5 142.5t-149.5 378t149.5 377t403.5 141.5v352h368v-352q254 -8 403.5 -141.5t149.5 -377zM414 496q0 -96 50 -161t134 -65v449q-84 0 -134 -64.5t-50 -158.5zM946 270q84 0 134 64.5 t50 161.5q0 94 -50 158.5t-134 64.5v-449z" glyph-name="afii10086" horiz-adv-x="1544" unicode="ф"/><glyph d="M688 0l-153 262l-158 -262h-402l324 508l-303 481h403l133 -231l134 231h403l-303 -481l326 -508h-404z" glyph-name="afii10087" horiz-adv-x="1067" unicode="х"/><glyph d="M909 0h-807v989h369v-670h281v670h368v-670h109v-571h-320v252z" glyph-name="afii10088" horiz-adv-x="1255" unicode="ц"/><glyph d="M451 989v-258q0 -141 143 -141q94 0 158 43v356h368v-989h-368v342q-121 -78 -301 -78q-369 0 -369 352v373h369z" glyph-name="afii10089" horiz-adv-x="1222" unicode="ч"/><glyph d="M1733 989v-989h-1631v989h369v-670h262v670h369v-670h262v670h369z" glyph-name="afii10090" horiz-adv-x="1835" unicode="ш"/><glyph d="M1733 989v-670h108v-571h-319v252h-1420v989h369v-670h262v670h369v-670h262v670h369z" glyph-name="afii10091" horiz-adv-x="1867" unicode="щ"/><glyph d="M295 0v670h-264v319h633v-254h311q178 0 278.5 -108.5t100.5 -259.5q0 -147 -104.5 -257t-274.5 -110h-680zM664 446v-157h231q41 0 63.5 22.5t22.5 55.5q0 35 -22.5 57t-63.5 22h-231z" glyph-name="afii10092" horiz-adv-x="1388" unicode="ъ"/><glyph d="M471 989v-254h311q178 0 278.5 -108.5t100.5 -259.5q0 -147 -104.5 -257t-274.5 -110h-680v989h369zM1245 0v989h369v-989h-369zM471 446v-157h231q41 0 63.5 22.5t22.5 55.5q0 35 -22.5 57t-63.5 22h-231z" glyph-name="afii10093" horiz-adv-x="1716" unicode="ы"/><glyph d="M471 989v-254h311q178 0 278.5 -108.5t100.5 -259.5q0 -147 -104.5 -257t-274.5 -110h-680v989h369zM471 446v-157h231q41 0 63.5 22.5t22.5 55.5q0 35 -22.5 57t-63.5 22h-231z" glyph-name="afii10094" horiz-adv-x="1196" unicode="ь"/><glyph d="M440 1014q238 0 394.5 -143.5t156.5 -374.5q0 -238 -156.5 -379.5t-394.5 -141.5q-119 0 -235.5 32t-186.5 91l152 228q88 -70 223 -70q88 0 144.5 36t72.5 89h-362v233h358q-14 47 -69.5 83t-143.5 36q-135 0 -213 -78l-151 228q68 63 181 97t230 34z" glyph-name="afii10095" horiz-adv-x="1026" unicode="э"/><glyph d="M1157 1014q254 0 405.5 -150.5t151.5 -367.5t-151.5 -369t-405.5 -152q-209 0 -350 106.5t-186 274.5h-150v-356h-369v989h369v-313h162q55 152 192 245t332 93zM1157 301q84 0 131 54.5t47 140.5q0 84 -47 138t-131 54q-82 0 -129 -54t-47 -138q0 -86 47 -140.5 t129 -54.5z" glyph-name="afii10096" horiz-adv-x="1748" unicode="ю"/><glyph d="M35 0l194 332q-74 33 -133 108.5t-59 202.5q0 145 103.5 245.5t275.5 100.5h680v-989h-369v313h-145l-138 -313h-409zM727 565v172h-221q-45 0 -70.5 -25.5t-25.5 -58.5q0 -35 25.5 -61.5t70.5 -26.5h221z" glyph-name="afii10097" horiz-adv-x="1187" unicode="я"/><glyph d="M352 1083q-78 0 -130 52.5t-52 130t52 130t130 52.5t130.5 -52.5t52.5 -130t-52.5 -130t-130.5 -52.5zM795 1083q-76 0 -129.5 53.5t-53.5 129t53.5 129t129.5 53.5q78 0 131 -53.5t53 -129t-53 -129t-131 -53.5zM35 496q0 219 151.5 368.5t386.5 149.5 q223 0 368.5 -150.5t145.5 -406.5v-76h-671q16 -53 72.5 -89t144.5 -36q135 0 223 70l152 -228q-70 -59 -186.5 -91t-235.5 -32q-238 0 -394.5 141.5t-156.5 379.5zM573 733q-129 0 -161 -119h325q-29 119 -164 119z" glyph-name="afii10071" horiz-adv-x="1112" unicode="ё"/><glyph d="M627 -393v297q20 -4 49 -4q109 0 108 143v504q0 141 -143 141q-88 0 -158 -78v-610h-368v1067h-101v199h101v100h368v-100h275v-199h-275v-190q121 137 340 137q164 0 247 -87t83 -225v-659q0 -201 -102.5 -322.5t-309.5 -121.5q-73 0 -114 8z" glyph-name="afii10099" horiz-adv-x="1255" unicode="ђ"/><glyph d="M639 1139h-307l246 295h378zM905 670h-434v-670h-369v989h803v-319z" glyph-name="afii10100" horiz-adv-x="935" unicode="ѓ"/><glyph d="M633 256q135 0 223 70l152 -228q-70 -59 -186.5 -91t-235.5 -32q-238 0 -394.5 141.5t-156.5 379.5q0 231 156.5 374.5t394.5 143.5q117 0 230.5 -34t180.5 -97l-151 -228q-78 78 -213 78q-88 0 -143.5 -35.5t-69.5 -83.5h358v-233h-362q16 -53 72.5 -89t144.5 -36z" glyph-name="afii10101" horiz-adv-x="1028" unicode="є"/><glyph d="M18 127l148 248q59 -47 167.5 -86t188.5 -39q98 0 99 47q0 23 -32 35t-108 22q-53 6 -76.5 10.5t-78 16.5t-83 25.5t-69.5 38t-61.5 54t-37 76t-16.5 101.5q0 141 118 239.5t325 98.5q236 0 428 -127l-135 -240q-51 41 -130 72t-161 31q-92 0 -92 -43q0 -20 26.5 -32.5 t100.5 -23.5q53 -8 77.5 -12t80 -16.5t85 -26.5t71.5 -40t64.5 -57.5t39 -78.5t16.5 -105q0 -150 -127 -245t-342 -95q-135 0 -270.5 42t-215.5 110z" glyph-name="afii10102" horiz-adv-x="1003" unicode="ѕ"/><glyph d="M287 1061q-86 0 -146.5 60.5t-60.5 146.5t60.5 146.5t146.5 60.5t146.5 -60.5t60.5 -146.5t-60.5 -146.5t-146.5 -60.5zM102 0v989h369v-989h-369z" glyph-name="afii10103" horiz-adv-x="573" unicode="і"/><glyph d="M65.5 1083q-77.5 0 -130 52.5t-52.5 130t52.5 130t130 52.5t130 -52.5t52.5 -130t-52.5 -130t-130 -52.5zM508 1083q-76 0 -129 53.5t-53 129t53 129t129 53.5q78 0 131 -53.5t53 -129t-53 -129t-131 -53.5zM102 0v989h369v-989h-369z" glyph-name="afii10104" horiz-adv-x="573" unicode="ї"/><glyph d="M287 1061q-86 0 -146.5 60.5t-60.5 146.5t60.5 146.5t146.5 60.5t146.5 -60.5t60.5 -146.5t-60.5 -146.5t-146.5 -60.5zM471 989v-946q0 -201 -102.5 -322.5t-309.5 -121.5q-74 0 -114 8v297q20 -4 49 -4q109 0 108 143v946h369z" glyph-name="afii10105" horiz-adv-x="573" unicode="ј"/><glyph d="M37 319q35 0 56.5 9.5t53 49.5t55 141.5t40.5 262.5l20 207h879v-254h311q178 0 278.5 -108.5t100.5 -259.5q0 -147 -104.5 -257t-274.5 -110h-680v670h-219l-8 -74q-37 -332 -150.5 -476.5t-357.5 -144.5v344zM1141 446v-157h231q41 0 63.5 22.5t22.5 55.5 q0 35 -22.5 57t-63.5 22h-231z" glyph-name="afii10106" horiz-adv-x="1865" unicode="љ"/><glyph d="M102 0v989h369v-313h301v313h369v-254h311q178 0 278.5 -108.5t100.5 -259.5q0 -147 -104.5 -257t-274.5 -110h-680v356h-301v-356h-369zM1141 446v-157h231q41 0 63.5 22.5t22.5 55.5q0 35 -22.5 57t-63.5 22h-231z" glyph-name="afii10107" horiz-adv-x="1865" unicode="њ"/><glyph d="M823 1014q164 0 247 -85t83 -222v-707h-369v551q0 137 -143 137q-88 0 -158 -78v-610h-368v1067h-101v199h101v100h368v-100h275v-199h-275v-190q121 137 340 137z" glyph-name="afii10108" horiz-adv-x="1255" unicode="ћ"/><glyph d="M725 1139h-307l246 295h378zM713 0l-170 319l-72 -96v-223h-369v989h369v-352l227 352h445l-340 -450l362 -539h-452z" glyph-name="afii10109" horiz-adv-x="1140" unicode="ќ"/><glyph d="M547 1106q-115 0 -216.5 52t-170.5 142l190 156q74 -109 197 -108q125 0 198 108l187 -156q-68 -90 -168 -142t-217 -52zM143 -57q33 -18 78 -19q111 0 129 39l8 21l-389 1005h389l189 -565l190 565h389l-430 -1112q-61 -160 -171.5 -216t-288.5 -62q-88 0 -144 16z" glyph-name="afii10110" horiz-adv-x="1095" unicode="ў"/><glyph d="M1120 989v-989h-350v-252h-319v252h-349v989h369v-670h281v670h368z" glyph-name="afii10193" horiz-adv-x="1222" unicode="џ"/><glyph d="M524 0h-413v1366h675v252h361v-612h-623v-1006z" glyph-name="afii10050" horiz-adv-x="1212" unicode="Ґ"/><glyph d="M471 0h-369v989h484v252h319v-571h-434v-670z" glyph-name="afii10098" horiz-adv-x="935" unicode="ґ"/><glyph d="M1147 1006h-623v-160h307v-326h-307v-520h-413v520h-97v326h97v520h1036v-360z" glyph-name="uni0492" horiz-adv-x="1212" unicode="Ғ"/><glyph d="M905 670h-434v-76h207v-234h-207v-360h-369v360h-88v234h88v395h803v-319z" glyph-name="uni0493" horiz-adv-x="935" unicode="ғ"/><glyph d="M1145 360h332v-612h-361v252h-209l-307 481l-76 -102v-379h-413v1366h413v-512l359 512h506l-517 -635z" glyph-name="uni049A" horiz-adv-x="1490" unicode="Қ"/><glyph d="M950 319h293v-571h-319v252h-211l-170 319l-72 -96v-223h-369v989h369v-352l227 352h445l-340 -450z" glyph-name="uni049B" horiz-adv-x="1257" unicode="қ"/><glyph d="M1204 360h299v-612h-360v252h-193l-250 418l-249 -418h-488l457 700l-426 666h485l221 -389l218 389h489l-426 -664z" glyph-name="uni04B2" horiz-adv-x="1517" unicode="Ҳ"/><glyph d="M887 319h282v-571h-319v252h-162l-153 262l-158 -262h-402l324 508l-303 481h403l133 -231l134 231h403l-303 -481z" glyph-name="uni04B3" horiz-adv-x="1183" unicode="ҳ"/><glyph d="M784.5 1389q319.5 0 533.5 -198t214 -509t-214 -509t-533.5 -198t-533.5 198t-214 509t214 509t533.5 198zM784.5 1044q-100.5 0 -176.5 -50t-114 -132h581q-39 82 -114.5 132t-176 50zM784.5 319q104.5 0 183.5 54.5t115 144.5h-598q37 -90 116 -144.5t183.5 -54.5z" glyph-name="uni04E8" horiz-adv-x="1568" unicode="Ө"/><glyph d="M590 1014q254 0 405.5 -150.5t151.5 -367.5t-151.5 -369t-405.5 -152t-404.5 152t-150.5 369t150.5 367.5t404.5 150.5zM590 733q-119 0 -160 -119h322q-41 119 -162 119zM590 256q123 0 164 125h-326q37 -125 162 -125z" glyph-name="uni04E9" horiz-adv-x="1181" unicode="ө"/><glyph d="M539 1610q0 76 53 129t129 53q74 0 127 -53t53 -129t-53 -129.5t-127 -53.5q-76 0 -129 53.5t-53 129.5zM111 0v1366h829q197 0 301.5 -106.5t104.5 -241.5q0 -125 -66 -208t-168 -105q113 -16 186.5 -109.5t73.5 -224.5q0 -154 -104.5 -262.5t-298.5 -108.5h-858z M524 858h320q33 0 57.5 25.5t24.5 62.5q0 35 -24.5 59.5t-57.5 24.5h-320v-172zM524 336h332q43 0 69.5 26.5t26.5 65.5t-26.5 66.5t-69.5 27.5h-332v-186z" glyph-name="uni1E02" horiz-adv-x="1427" unicode="Ḃ"/><glyph d="M442 1610q0 76 53.5 129t129.5 53q74 0 127 -53t53 -129t-53.5 -129.5t-126.5 -53.5q-76 0 -129.5 53.5t-53.5 129.5zM102 0v1366h369v-481q106 129 279 129q188 0 312 -139.5t124 -378.5q0 -246 -124 -383.5t-312 -137.5q-164 0 -279 129v-104h-369zM471 367 q53 -66 154 -66q78 0 131 52.5t53 142.5q0 88 -53.5 140t-130.5 52q-98 0 -154 -67v-254z" glyph-name="uni1E03" unicode="ḃ"/><glyph d="M567 1610q0 76 53.5 129t129.5 53q74 0 127 -53t53 -129t-53.5 -129.5t-126.5 -53.5q-76 0 -129.5 53.5t-53.5 129.5zM111 0v1366h610q332 0 540.5 -181t208.5 -500.5t-208.5 -502t-538.5 -182.5h-612zM524 360h197q150 0 240 94.5t90 229.5q0 145 -84 233.5t-244 88.5 h-199v-646z" glyph-name="uni1E0A" horiz-adv-x="1507" unicode="Ḋ"/><glyph d="M434 1610q0 76 53.5 129t128.5 53q74 0 127.5 -53t53.5 -129t-53.5 -129.5t-127.5 -53.5q-76 0 -129 53.5t-53 129.5zM750 0v104q-115 -129 -279 -129q-188 0 -312 137.5t-124 383.5q0 240 124 379t312 139q172 0 279 -129v481h368v-1366h-368zM750 369v254 q-53 66 -154 65q-78 0 -131 -52t-53 -140q0 -90 53 -142.5t131 -52.5q99 0 154 68z" glyph-name="uni1E0B" unicode="ḋ"/><glyph d="M451 1610q0 76 53 129t129 53q74 0 127 -53t53 -129t-53 -129.5t-127 -53.5q-76 0 -129 53.5t-53 129.5zM111 0v1366h1036v-344h-623v-160h609v-344h-609v-518h-413z" glyph-name="uni1E1E" horiz-adv-x="1212" unicode="Ḟ"/><glyph d="M311 1610q0 76 53.5 129t129.5 53q74 0 127 -53t53 -129t-53.5 -129.5t-126.5 -53.5q-76 0 -129.5 53.5t-53.5 129.5zM178 0v670h-164v319h164v45q0 154 106.5 253t270.5 99q137 0 229 -49l-65 -245q-35 23 -78 22.5t-68.5 -25t-25.5 -67.5v-33h201v-319h-201v-670h-369z " glyph-name="uni1E1F" horiz-adv-x="759" unicode="ḟ"/><glyph d="M588 1610q0 76 53 129t129 53q74 0 127 -53t53 -129t-53 -129.5t-127 -53.5q-76 0 -129 53.5t-53 129.5zM1014 0v522h-490v-522h-413v1366h413v-483h490v483h413v-1366h-413z" glyph-name="uni1E22" horiz-adv-x="1538" unicode="Ḣ"/><glyph d="M440 1610q0 76 53.5 129t129.5 53q74 0 127 -53t53 -129t-53.5 -129.5t-126.5 -53.5q-76 0 -129.5 53.5t-53.5 129.5zM774 0v551q0 137 -143 137q-88 0 -158 -78v-610h-369v1366h369v-489q121 137 340 137q164 0 247 -85t83 -222v-707h-369z" glyph-name="uni1E23" horiz-adv-x="1245" unicode="ḣ"/><glyph d="M522 1610q0 76 53.5 129t129.5 53q74 0 127 -53t53 -129t-53.5 -129.5t-126.5 -53.5q-76 0 -129.5 53.5t-53.5 129.5zM111 0v1366h729q231 0 361 -134t130 -335q0 -199 -130 -329t-361 -130h-316v-438h-413zM911 901q0 53 -35.5 87t-89.5 34h-262v-240h262q53 0 89 33 t36 86z" glyph-name="uni1E56" horiz-adv-x="1355" unicode="Ṗ"/><glyph d="M492 1267.5q0 75.5 53 129t129 53.5q74 0 127 -53.5t53 -129t-53 -129t-127 -53.5q-76 0 -129 53.5t-53 129zM471 -377h-369v1366h369v-104q109 129 279 129q190 0 312 -136.5t122 -381.5q0 -248 -122 -384.5t-312 -136.5q-166 0 -279 129v-481zM807 496q0 88 -53.5 140 t-130.5 52q-39 0 -83 -18.5t-69 -48.5v-252q23 -29 69 -48.5t83 -19.5q78 0 131 52.5t53 142.5z" glyph-name="uni1E57" horiz-adv-x="1218" unicode="ṗ"/><glyph d="M436 1610q0 76 53.5 129t128.5 53q74 0 127.5 -53t53.5 -129t-53.5 -129.5t-127.5 -53.5q-76 0 -129 53.5t-53 129.5zM6 193l215 307q184 -176 441 -176q63 0 107 21.5t44 57.5q0 39 -44 62.5t-148 42.5q-252 45 -357 98q-213 109 -213 338q0 184 149.5 313t417.5 129 q346 0 580 -190l-221 -293q-86 66 -190.5 100.5t-190.5 34.5q-125 0 -125 -71q0 -39 43 -58.5t158 -38.5q90 -16 147.5 -28.5t144.5 -45t138 -73.5t90 -111.5t39 -160.5q0 -225 -156.5 -350.5t-433.5 -125.5q-393 1 -635 218z" glyph-name="uni1E60" horiz-adv-x="1255" unicode="Ṡ"/><glyph d="M319 1267.5q0 75.5 53.5 129t129.5 53.5q74 0 127 -53.5t53 -129t-53.5 -129t-126.5 -53.5q-76 0 -129.5 53.5t-53.5 129zM18 127l148 248q59 -47 167.5 -86t188.5 -39q98 0 99 47q0 23 -32 35t-108 22q-53 6 -76.5 10.5t-78 16.5t-83 25.5t-69.5 38t-61.5 54t-37 76 t-16.5 101.5q0 141 118 239.5t325 98.5q236 0 428 -127l-135 -240q-51 41 -130 72t-161 31q-92 0 -92 -43q0 -20 26.5 -32.5t100.5 -23.5q53 -8 77.5 -12t80 -16.5t85 -26.5t71.5 -40t64.5 -57.5t39 -78.5t16.5 -105q0 -150 -127 -245t-342 -95q-135 0 -270.5 42t-215.5 110 z" glyph-name="uni1E61" horiz-adv-x="1003" unicode="ṡ"/><glyph d="M428 1610q0 76 53.5 129t128.5 53q74 0 127.5 -53t53.5 -129t-53.5 -129.5t-127.5 -53.5q-76 0 -129 53.5t-53 129.5zM403 0v1006h-366v360h1145v-360h-365v-1006h-414z" glyph-name="uni1E6A" horiz-adv-x="1218" unicode="Ṫ"/><glyph d="M184 1610q0 76 53.5 129t129.5 53q74 0 127 -53t53 -129t-53.5 -129.5t-126.5 -53.5q-76 0 -129.5 53.5t-53.5 129.5zM518 -25q-166 0 -253 79t-87 233v383h-164v319h164v271h369v-271h201v-319h-201v-277q0 -39 22.5 -65.5t59.5 -26.5q55 0 73 18l66 -278 q-74 -66 -250 -66z" glyph-name="uni1E6B" horiz-adv-x="782" unicode="ṫ"/><glyph d="M858 1481l-317 295h317l246 -295h-246zM1153 0l-176 774l-176 -774h-434l-392 1366h463l176 -836l207 836h312l206 -836l174 836h465l-391 -1366h-434z" glyph-name="Wgrave" horiz-adv-x="1953" unicode="Ẁ"/><glyph d="M705 1139l-318 295h318l245 -295h-245zM985 0l-162 553l-159 -553h-402l-287 989h379l131 -545l174 545h330l172 -545l131 545h381l-287 -989h-401z" glyph-name="wgrave" horiz-adv-x="1648" unicode="ẁ"/><glyph d="M1092 1481h-246l246 295h317zM1153 0l-176 774l-176 -774h-434l-392 1366h463l176 -836l207 836h312l206 -836l174 836h465l-391 -1366h-434z" glyph-name="Wacute" horiz-adv-x="1953" unicode="Ẃ"/><glyph d="M938 1139h-246l246 295h317zM985 0l-162 553l-159 -553h-402l-287 989h379l131 -545l174 545h330l172 -545l131 545h381l-287 -989h-401z" glyph-name="wacute" horiz-adv-x="1648" unicode="ẃ"/><glyph d="M755.5 1425q-75.5 0 -129 53.5t-53.5 129t53.5 129t129 53.5t129 -53.5t53.5 -129t-53.5 -129t-129 -53.5zM1198 1425q-76 0 -129 53.5t-53 129t53 129t129 53.5q78 0 131 -53.5t53 -129t-53 -129t-131 -53.5zM1153 0l-176 774l-176 -774h-434l-392 1366h463l176 -836 l207 836h312l206 -836l174 836h465l-391 -1366h-434z" glyph-name="Wdieresis" horiz-adv-x="1953" unicode="Ẅ"/><glyph d="M602 1083q-78 0 -130 52.5t-52 130t52 130t130 52.5t130 -52.5t52 -130t-52 -130t-130 -52.5zM1044 1083q-76 0 -129 53.5t-53 129t53.5 129t128.5 53.5q78 0 131.5 -53.5t53.5 -129t-53.5 -129t-131.5 -53.5zM985 0l-162 553l-159 -553h-402l-287 989h379l131 -545 l174 545h330l172 -545l131 545h381l-287 -989h-401z" glyph-name="wdieresis" horiz-adv-x="1648" unicode="ẅ"/><glyph d="M1165 842q156 -31 247 -138.5t91 -263.5q0 -207 -153.5 -336t-376.5 -129q-264 0 -387 111l162 317q90 -63 225 -63q61 0 107 26.5t46 84.5q0 59 -59 81.5t-186 22.5h-131v258l143 195q-49 16 -107 16q-123 0 -189.5 -66.5t-66.5 -169.5v-788h-419v803q0 264 171 425 t504 161q416 0 592 -265z" glyph-name="uni1E9E" horiz-adv-x="1527" unicode="ẞ"/><glyph d="M1042 0l-53 176h-524l-53 -176h-449l504 1366h520l504 -1366h-449zM727 1001l-156 -481h312zM543 -248q0 76 53 129t129 53q74 0 127 -53t53 -129t-53 -129t-127 -53q-76 0 -129 53t-53 129z" glyph-name="uni1EA0" horiz-adv-x="1454" unicode="Ạ"/><glyph d="M674 0v94q-41 -53 -124 -86t-175 -33q-127 0 -233.5 85t-106.5 241q0 88 31.5 150.5t84 94.5t107.5 46t117 14q213 0 299 -108v112q0 53 -48 88t-137 35q-147 0 -274 -96l-125 227q186 150 467 150q98 0 180 -19.5t154 -63.5t111.5 -129t39.5 -204v-598h-368zM674 268v56 q-37 53 -146 53q-129 0 -129 -82q0 -80 129 -80q109 0 146 53zM385 -248q0 76 53.5 129t128.5 53q74 0 127.5 -53t53.5 -129t-53.5 -129t-127.5 -53q-76 0 -129 53t-53 129z" glyph-name="uni1EA1" horiz-adv-x="1144" unicode="ạ"/><glyph d="M485 1655q27 78 88.5 115.5t139.5 37.5q100 0 167.5 -49t67.5 -149q0 -55 -33 -129h-186q45 51 45 118q0 63 -61 64q-47 0 -74 -59zM1042 0l-53 176h-524l-53 -176h-449l504 1366h520l504 -1366h-449zM727 1001l-156 -481h312z" glyph-name="uni1EA2" horiz-adv-x="1454" unicode="Ả"/><glyph d="M326 1313q27 78 88 115.5t139 37.5q100 0 167.5 -49t67.5 -149q0 -55 -32 -129h-187q45 51 45 118q0 63 -61 64q-47 0 -74 -59zM674 0v94q-41 -53 -124 -86t-175 -33q-127 0 -233.5 85t-106.5 241q0 88 31.5 150.5t84 94.5t107.5 46t117 14q213 0 299 -108v112 q0 53 -48 88t-137 35q-147 0 -274 -96l-125 227q186 150 467 150q98 0 180 -19.5t154 -63.5t111.5 -129t39.5 -204v-598h-368zM674 268v56q-37 53 -146 53q-129 0 -129 -82q0 -80 129 -80q109 0 146 53z" glyph-name="uni1EA3" horiz-adv-x="1144" unicode="ả"/><glyph d="M1260 1597h-246l246 222h317zM858 1444l-131 112l-125 -112h-215l180 221h320l186 -221h-215zM1042 0l-53 176h-524l-53 -176h-449l504 1366h520l504 -1366h-449zM727 1001l-156 -481h312z" glyph-name="uni1EA4" horiz-adv-x="1454" unicode="Ấ"/><glyph d="M1100 1343h-246l246 295h317zM698 1139l-131 149l-125 -149h-215l181 295h319l186 -295h-215zM674 0v94q-41 -53 -124 -86t-175 -33q-127 0 -233.5 85t-106.5 241q0 88 31.5 150.5t84 94.5t107.5 46t117 14q213 0 299 -108v112q0 53 -48 88t-137 35q-147 0 -274 -96 l-125 227q186 150 467 150q98 0 180 -19.5t154 -63.5t111.5 -129t39.5 -204v-598h-368zM674 268v56q-37 53 -146 53q-129 0 -129 -82q0 -80 129 -80q109 0 146 53z" glyph-name="uni1EA5" horiz-adv-x="1144" unicode="ấ"/><glyph d="M207 1597l-318 222h318l246 -222h-246zM858 1444l-131 112l-125 -112h-215l180 221h320l186 -221h-215zM1042 0l-53 176h-524l-53 -176h-449l504 1366h520l504 -1366h-449zM727 1001l-156 -481h312z" glyph-name="uni1EA6" horiz-adv-x="1454" unicode="Ầ"/><glyph d="M47 1343l-317 295h317l246 -295h-246zM698 1139l-131 149l-125 -149h-215l181 295h319l186 -295h-215zM674 0v94q-41 -53 -124 -86t-175 -33q-127 0 -233.5 85t-106.5 241q0 88 31.5 150.5t84 94.5t107.5 46t117 14q213 0 299 -108v112q0 53 -48 88t-137 35 q-147 0 -274 -96l-125 227q186 150 467 150q98 0 180 -19.5t154 -63.5t111.5 -129t39.5 -204v-598h-368zM674 268v56q-37 53 -146 53q-129 0 -129 -82q0 -80 129 -80q109 0 146 53z" glyph-name="uni1EA7" horiz-adv-x="1144" unicode="ầ"/><glyph d="M770 1726q51 115 227 115q100 0 168 -37t68 -112q0 -41 -33 -97h-186q45 39 45 91q0 47 -62 47q-47 0 -73 -45zM858 1444l-131 112l-125 -112h-215l180 221h320l186 -221h-215zM1042 0l-53 176h-524l-53 -176h-449l504 1366h520l504 -1366h-449zM727 1001l-156 -481h312z " glyph-name="uni1EA8" horiz-adv-x="1454" unicode="Ẩ"/><glyph d="M610 1516q27 78 88.5 115.5t139.5 37.5q100 0 167.5 -49t67.5 -150q0 -55 -33 -129h-186q45 51 45 119q0 63 -61 64q-47 0 -74 -60zM698 1139l-131 149l-125 -149h-215l181 295h319l186 -295h-215zM674 0v94q-41 -53 -124 -86t-175 -33q-127 0 -233.5 85t-106.5 241 q0 88 31.5 150.5t84 94.5t107.5 46t117 14q213 0 299 -108v112q0 53 -48 88t-137 35q-147 0 -274 -96l-125 227q186 150 467 150q98 0 180 -19.5t154 -63.5t111.5 -129t39.5 -204v-598h-368zM674 268v56q-37 53 -146 53q-129 0 -129 -82q0 -80 129 -80q109 0 146 53z" glyph-name="uni1EA9" horiz-adv-x="1144" unicode="ẩ"/><glyph d="M676 1733q-45 23 -66 22q-49 0 -49 -57h-182q0 207 242 207q74 0 159 -43q49 -25 66 -25q49 0 49 57h182q0 -205 -241 -204q-74 0 -160 43zM858 1444l-131 112l-125 -112h-215l180 221h320l186 -221h-215zM1042 0l-53 176h-524l-53 -176h-449l504 1366h520l504 -1366 h-449zM727 1001l-156 -481h312z" glyph-name="uni1EAA" horiz-adv-x="1454" unicode="Ẫ"/><glyph d="M516 1524q-45 31 -65 30q-49 0 -50 -75h-182q0 274 242 274q74 0 160 -57q47 -31 65 -31q49 0 49 76h183q0 -274 -242 -275q-74 1 -160 58zM698 1139l-131 149l-125 -149h-215l181 295h319l186 -295h-215zM674 0v94q-41 -53 -124 -86t-175 -33q-127 0 -233.5 85 t-106.5 241q0 88 31.5 150.5t84 94.5t107.5 46t117 14q213 0 299 -108v112q0 53 -48 88t-137 35q-147 0 -274 -96l-125 227q186 150 467 150q98 0 180 -19.5t154 -63.5t111.5 -129t39.5 -204v-598h-368zM674 268v56q-37 53 -146 53q-129 0 -129 -82q0 -80 129 -80 q109 0 146 53z" glyph-name="uni1EAB" horiz-adv-x="1144" unicode="ẫ"/><glyph d="M858 1481l-131 149l-125 -149h-215l180 295h320l186 -295h-215zM1042 0l-53 176h-524l-53 -176h-449l504 1366h520l504 -1366h-449zM727 1001l-156 -481h312zM543 -248q0 76 53 129t129 53q74 0 127 -53t53 -129t-53 -129t-127 -53q-76 0 -129 53t-53 129z" glyph-name="uni1EAC" horiz-adv-x="1454" unicode="Ậ"/><glyph d="M698 1139l-131 149l-125 -149h-215l181 295h319l186 -295h-215zM674 0v94q-41 -53 -124 -86t-175 -33q-127 0 -233.5 85t-106.5 241q0 88 31.5 150.5t84 94.5t107.5 46t117 14q213 0 299 -108v112q0 53 -48 88t-137 35q-147 0 -274 -96l-125 227q186 150 467 150 q98 0 180 -19.5t154 -63.5t111.5 -129t39.5 -204v-598h-368zM674 268v56q-37 53 -146 53q-129 0 -129 -82q0 -80 129 -80q109 0 146 53zM385 -248q0 76 53.5 129t128.5 53q74 0 127.5 -53t53.5 -129t-53.5 -129t-127.5 -53q-76 0 -129 53t-53 129z" glyph-name="uni1EAD" horiz-adv-x="1144" unicode="ậ"/><glyph d="M842 1671h-246l246 221h317zM727 1436q-225 0 -360 135l155 94q78 -82 205 -82t205 82l153 -94q-131 -135 -358 -135zM1042 0l-53 176h-524l-53 -176h-449l504 1366h520l504 -1366h-449zM727 1001l-156 -481h312z" glyph-name="uni1EAE" horiz-adv-x="1454" unicode="Ắ"/><glyph d="M682 1442h-246l246 295h317zM567 1126q-223 0 -360 181l155 127q78 -109 205 -109q129 0 205 109l154 -127q-134 -181 -359 -181zM674 0v94q-41 -53 -124 -86t-175 -33q-127 0 -233.5 85t-106.5 241q0 88 31.5 150.5t84 94.5t107.5 46t117 14q213 0 299 -108v112 q0 53 -48 88t-137 35q-147 0 -274 -96l-125 227q186 150 467 150q98 0 180 -19.5t154 -63.5t111.5 -129t39.5 -204v-598h-368zM674 268v56q-37 53 -146 53q-129 0 -129 -82q0 -80 129 -80q109 0 146 53z" glyph-name="uni1EAF" horiz-adv-x="1144" unicode="ắ"/><glyph d="M608 1671l-317 221h317l246 -221h-246zM727 1436q-225 0 -360 135l155 94q78 -82 205 -82t205 82l153 -94q-131 -135 -358 -135zM1042 0l-53 176h-524l-53 -176h-449l504 1366h520l504 -1366h-449zM727 1001l-156 -481h312z" glyph-name="uni1EB0" horiz-adv-x="1454" unicode="Ằ"/><glyph d="M449 1442l-318 295h318l245 -295h-245zM567 1126q-223 0 -360 181l155 127q78 -109 205 -109q129 0 205 109l154 -127q-134 -181 -359 -181zM674 0v94q-41 -53 -124 -86t-175 -33q-127 0 -233.5 85t-106.5 241q0 88 31.5 150.5t84 94.5t107.5 46t117 14q213 0 299 -108 v112q0 53 -48 88t-137 35q-147 0 -274 -96l-125 227q186 150 467 150q98 0 180 -19.5t154 -63.5t111.5 -129t39.5 -204v-598h-368zM674 268v56q-37 53 -146 53q-129 0 -129 -82q0 -80 129 -80q109 0 146 53z" glyph-name="uni1EB1" horiz-adv-x="1144" unicode="ằ"/><glyph d="M485 1802q51 115 228 115q100 0 167.5 -37t67.5 -113q0 -41 -33 -96h-186q45 39 45 90q0 47 -61 47q-47 0 -74 -45zM727 1436q-225 0 -360 135l155 94q78 -82 205 -82t205 82l153 -94q-131 -135 -358 -135zM1042 0l-53 176h-524l-53 -176h-449l504 1366h520l504 -1366 h-449zM727 1001l-156 -481h312z" glyph-name="uni1EB2" horiz-adv-x="1454" unicode="Ẳ"/><glyph d="M326 1616q27 78 88 115.5t139 37.5q100 0 167.5 -49t67.5 -149q0 -55 -32 -129h-187q45 51 45 119q0 63 -61 63q-47 0 -74 -59zM567 1126q-223 0 -360 181l155 127q78 -109 205 -109q129 0 205 109l154 -127q-134 -181 -359 -181zM674 0v94q-41 -53 -124 -86t-175 -33 q-127 0 -233.5 85t-106.5 241q0 88 31.5 150.5t84 94.5t107.5 46t117 14q213 0 299 -108v112q0 53 -48 88t-137 35q-147 0 -274 -96l-125 227q186 150 467 150q98 0 180 -19.5t154 -63.5t111.5 -129t39.5 -204v-598h-368zM674 268v56q-37 53 -146 53q-129 0 -129 -82 q0 -80 129 -80q109 0 146 53z" glyph-name="uni1EB3" horiz-adv-x="1144" unicode="ẳ"/><glyph d="M676 1712q-45 23 -66 23q-49 0 -49 -58h-182q0 207 242 207q74 0 159 -43q49 -25 66 -24q49 0 49 57h182q0 -205 -241 -205q-74 0 -160 43zM727 1436q-225 0 -360 135l155 94q78 -82 205 -82t205 82l153 -94q-131 -135 -358 -135zM1042 0l-53 176h-524l-53 -176h-449 l504 1366h520l504 -1366h-449zM727 1001l-156 -481h312z" glyph-name="uni1EB4" horiz-adv-x="1454" unicode="Ẵ"/><glyph d="M516 1495q-45 31 -65 31q-49 0 -50 -76h-182q0 274 242 274q74 0 160 -57q47 -31 65 -31q49 0 49 76h183q0 -274 -242 -274q-74 0 -160 57zM567 1126q-223 0 -360 181l155 127q78 -109 205 -109q129 0 205 109l154 -127q-134 -181 -359 -181zM674 0v94q-41 -53 -124 -86 t-175 -33q-127 0 -233.5 85t-106.5 241q0 88 31.5 150.5t84 94.5t107.5 46t117 14q213 0 299 -108v112q0 53 -48 88t-137 35q-147 0 -274 -96l-125 227q186 150 467 150q98 0 180 -19.5t154 -63.5t111.5 -129t39.5 -204v-598h-368zM674 268v56q-37 53 -146 53 q-129 0 -129 -82q0 -80 129 -80q109 0 146 53z" glyph-name="uni1EB5" horiz-adv-x="1144" unicode="ẵ"/><glyph d="M727 1468q-223 0 -360 181l155 127q78 -109 205 -109q129 0 205 109l153 -127q-133 -181 -358 -181zM1042 0l-53 176h-524l-53 -176h-449l504 1366h520l504 -1366h-449zM727 1001l-156 -481h312zM543 -248q0 76 53 129t129 53q74 0 127 -53t53 -129t-53 -129t-127 -53 q-76 0 -129 53t-53 129z" glyph-name="uni1EB6" horiz-adv-x="1454" unicode="Ặ"/><glyph d="M567 1126q-223 0 -360 181l155 127q78 -109 205 -109q129 0 205 109l154 -127q-134 -181 -359 -181zM674 0v94q-41 -53 -124 -86t-175 -33q-127 0 -233.5 85t-106.5 241q0 88 31.5 150.5t84 94.5t107.5 46t117 14q213 0 299 -108v112q0 53 -48 88t-137 35 q-147 0 -274 -96l-125 227q186 150 467 150q98 0 180 -19.5t154 -63.5t111.5 -129t39.5 -204v-598h-368zM674 268v56q-37 53 -146 53q-129 0 -129 -82q0 -80 129 -80q109 0 146 53zM385 -248q0 76 53.5 129t128.5 53q74 0 127.5 -53t53.5 -129t-53.5 -129t-127.5 -53 q-76 0 -129 53t-53 129z" glyph-name="uni1EB7" horiz-adv-x="1144" unicode="ặ"/><glyph d="M111 0v1366h1036v-344h-623v-160h609v-344h-609v-174h623v-344h-1036zM461 -248q0 76 53 129t129 53q74 0 127 -53t53 -129t-53 -129t-127 -53q-76 0 -129 53t-53 129z" glyph-name="uni1EB8" unicode="Ẹ"/><glyph d="M35 496q0 219 151.5 368.5t386.5 149.5q223 0 368.5 -150.5t145.5 -406.5v-76h-671q16 -53 72.5 -89t144.5 -36q135 0 223 70l152 -228q-70 -59 -186.5 -91t-235.5 -32q-238 0 -394.5 141.5t-156.5 379.5zM573 733q-129 0 -161 -119h325q-29 119 -164 119zM391 -248 q0 76 53.5 129t128.5 53q74 0 127.5 -53t53.5 -129t-53.5 -129t-127.5 -53q-76 0 -129 53t-53 129z" glyph-name="uni1EB9" horiz-adv-x="1112" unicode="ẹ"/><glyph d="M401 1655q27 78 88.5 115.5t139.5 37.5q100 0 167.5 -49t67.5 -149q0 -55 -33 -129h-186q45 51 45 118q0 63 -61 64q-47 0 -74 -59zM111 0v1366h1036v-344h-623v-160h609v-344h-609v-174h623v-344h-1036z" glyph-name="uni1EBA" unicode="Ẻ"/><glyph d="M332 1313q27 78 88 115.5t139 37.5q100 0 168 -49t68 -149q0 -55 -33 -129h-187q45 51 46 118q0 63 -62 64q-47 0 -74 -59zM35 496q0 219 151.5 368.5t386.5 149.5q223 0 368.5 -150.5t145.5 -406.5v-76h-671q16 -53 72.5 -89t144.5 -36q135 0 223 70l152 -228 q-70 -59 -186.5 -91t-235.5 -32q-238 0 -394.5 141.5t-156.5 379.5zM573 733q-129 0 -161 -119h325q-29 119 -164 119z" glyph-name="uni1EBB" horiz-adv-x="1112" unicode="ẻ"/><glyph d="M592 1534q-45 31 -66 31q-49 0 -49 -76h-182q0 274 242 274q74 0 159 -57q45 -31 66 -31q49 0 49 76h182q0 -274 -241 -274q-74 0 -160 57zM111 0v1366h1036v-344h-623v-160h609v-344h-609v-174h623v-344h-1036z" glyph-name="uni1EBC" unicode="Ẽ"/><glyph d="M522 1192q-47 31 -65 31q-49 0 -49 -76h-183q0 274 242 274q74 0 160 -57q45 -31 65 -31q49 0 49 76h183q0 -274 -242 -274q-74 0 -160 57zM35 496q0 219 151.5 368.5t386.5 149.5q223 0 368.5 -150.5t145.5 -406.5v-76h-671q16 -53 72.5 -89t144.5 -36q135 0 223 70 l152 -228q-70 -59 -186.5 -91t-235.5 -32q-238 0 -394.5 141.5t-156.5 379.5zM573 733q-129 0 -161 -119h325q-29 119 -164 119z" glyph-name="uni1EBD" horiz-adv-x="1112" unicode="ẽ"/><glyph d="M1176 1597h-246l246 222h317zM774 1444l-131 112l-125 -112h-215l180 221h320l186 -221h-215zM111 0v1366h1036v-344h-623v-160h609v-344h-609v-174h623v-344h-1036z" glyph-name="uni1EBE" unicode="Ế"/><glyph d="M1106 1343h-246l246 295h317zM705 1139l-132 149l-124 -149h-216l181 295h319l187 -295h-215zM35 496q0 219 151.5 368.5t386.5 149.5q223 0 368.5 -150.5t145.5 -406.5v-76h-671q16 -53 72.5 -89t144.5 -36q135 0 223 70l152 -228q-70 -59 -186.5 -91t-235.5 -32 q-238 0 -394.5 141.5t-156.5 379.5zM573 733q-129 0 -161 -119h325q-29 119 -164 119z" glyph-name="uni1EBF" horiz-adv-x="1112" unicode="ế"/><glyph d="M123 1597l-318 222h318l246 -222h-246zM774 1444l-131 112l-125 -112h-215l180 221h320l186 -221h-215zM111 0v1366h1036v-344h-623v-160h609v-344h-609v-174h623v-344h-1036z" glyph-name="uni1EC0" unicode="Ề"/><glyph d="M53 1343l-317 295h317l246 -295h-246zM705 1139l-132 149l-124 -149h-216l181 295h319l187 -295h-215zM35 496q0 219 151.5 368.5t386.5 149.5q223 0 368.5 -150.5t145.5 -406.5v-76h-671q16 -53 72.5 -89t144.5 -36q135 0 223 70l152 -228q-70 -59 -186.5 -91 t-235.5 -32q-238 0 -394.5 141.5t-156.5 379.5zM573 733q-129 0 -161 -119h325q-29 119 -164 119z" glyph-name="uni1EC1" horiz-adv-x="1112" unicode="ề"/><glyph d="M686 1726q51 115 227 115q100 0 168 -37t68 -112q0 -41 -33 -97h-186q45 39 45 91q0 47 -62 47q-47 0 -73 -45zM774 1444l-131 112l-125 -112h-215l180 221h320l186 -221h-215zM111 0v1366h1036v-344h-623v-160h609v-344h-609v-174h623v-344h-1036z" glyph-name="uni1EC2" unicode="Ể"/><glyph d="M616 1516q27 78 88.5 115.5t139.5 37.5q100 0 167.5 -49t67.5 -150q0 -55 -32 -129h-187q45 51 45 119q0 63 -61 64q-47 0 -74 -60zM705 1139l-132 149l-124 -149h-216l181 295h319l187 -295h-215zM35 496q0 219 151.5 368.5t386.5 149.5q223 0 368.5 -150.5 t145.5 -406.5v-76h-671q16 -53 72.5 -89t144.5 -36q135 0 223 70l152 -228q-70 -59 -186.5 -91t-235.5 -32q-238 0 -394.5 141.5t-156.5 379.5zM573 733q-129 0 -161 -119h325q-29 119 -164 119z" glyph-name="uni1EC3" horiz-adv-x="1112" unicode="ể"/><glyph d="M592 1733q-45 23 -66 22q-49 0 -49 -57h-182q0 207 242 207q74 0 159 -43q49 -25 66 -25q49 0 49 57h182q0 -205 -241 -204q-74 0 -160 43zM774 1444l-131 112l-125 -112h-215l180 221h320l186 -221h-215zM111 0v1366h1036v-344h-623v-160h609v-344h-609v-174h623v-344 h-1036z" glyph-name="uni1EC4" unicode="Ễ"/><glyph d="M522 1524q-47 31 -65 30q-49 0 -49 -75h-183q0 274 242 274q74 0 160 -57q45 -31 65 -31q49 0 49 76h183q0 -274 -242 -275q-74 1 -160 58zM705 1139l-132 149l-124 -149h-216l181 295h319l187 -295h-215zM35 496q0 219 151.5 368.5t386.5 149.5q223 0 368.5 -150.5 t145.5 -406.5v-76h-671q16 -53 72.5 -89t144.5 -36q135 0 223 70l152 -228q-70 -59 -186.5 -91t-235.5 -32q-238 0 -394.5 141.5t-156.5 379.5zM573 733q-129 0 -161 -119h325q-29 119 -164 119z" glyph-name="uni1EC5" horiz-adv-x="1112" unicode="ễ"/><glyph d="M774 1481l-131 149l-125 -149h-215l180 295h320l186 -295h-215zM111 0v1366h1036v-344h-623v-160h609v-344h-609v-174h623v-344h-1036zM461 -248q0 76 53 129t129 53q74 0 127 -53t53 -129t-53 -129t-127 -53q-76 0 -129 53t-53 129z" glyph-name="uni1EC6" unicode="Ệ"/><glyph d="M705 1139l-132 149l-124 -149h-216l181 295h319l187 -295h-215zM35 496q0 219 151.5 368.5t386.5 149.5q223 0 368.5 -150.5t145.5 -406.5v-76h-671q16 -53 72.5 -89t144.5 -36q135 0 223 70l152 -228q-70 -59 -186.5 -91t-235.5 -32q-238 0 -394.5 141.5t-156.5 379.5z M573 733q-129 0 -161 -119h325q-29 119 -164 119zM391 -248q0 76 53.5 129t128.5 53q74 0 127.5 -53t53.5 -129t-53.5 -129t-127.5 -53q-76 0 -129 53t-53 129z" glyph-name="uni1EC7" horiz-adv-x="1112" unicode="ệ"/><glyph d="M76 1655q27 78 88 115.5t139 37.5q100 0 168 -49t68 -149q0 -55 -33 -129h-187q45 51 46 118q0 63 -62 64q-47 0 -74 -59zM111 0v1366h413v-1366h-413z" glyph-name="uni1EC8" horiz-adv-x="634" unicode="Ỉ"/><glyph d="M45 1313q27 78 88.5 115.5t138.5 37.5q100 0 168 -49t68 -149q0 -55 -33 -129h-186q45 51 45 118q0 63 -62 64q-47 0 -73 -59zM102 0v989h369v-989h-369z" glyph-name="uni1EC9" horiz-adv-x="573" unicode="ỉ"/><glyph d="M111 0v1366h413v-1366h-413zM135 -248q0 76 53.5 129t128.5 53q74 0 127.5 -53t53.5 -129t-53.5 -129t-127.5 -53q-76 0 -129 53t-53 129z" glyph-name="uni1ECA" horiz-adv-x="634" unicode="Ị"/><glyph d="M287 1061q-86 0 -146.5 60.5t-60.5 146.5t60.5 146.5t146.5 60.5t146.5 -60.5t60.5 -146.5t-60.5 -146.5t-146.5 -60.5zM102 0v989h369v-989h-369zM104 -248q0 76 53.5 129t129.5 53q74 0 127 -53t53 -129t-53.5 -129t-126.5 -53q-76 0 -129.5 53t-53.5 129z" glyph-name="uni1ECB" horiz-adv-x="573" unicode="ị"/><glyph d="M37 682q0 311 214 509t533.5 198t533.5 -198t214 -509t-214 -509t-533.5 -198t-533.5 198t-214 509zM1112 682q0 145 -91 243.5t-236.5 98.5t-236.5 -98.5t-91 -243.5t91 -243.5t236.5 -98.5t236.5 98.5t91 243.5zM602 -248q0 76 53.5 129t128.5 53q74 0 127.5 -53 t53.5 -129t-53.5 -129t-127.5 -53q-76 0 -129 53t-53 129z" glyph-name="uni1ECC" horiz-adv-x="1568" unicode="Ọ"/><glyph d="M590 -25q-254 0 -404.5 152t-150.5 369t150.5 367.5t404.5 150.5t405.5 -150.5t151.5 -367.5t-151.5 -369t-405.5 -152zM590 301q84 0 131 54.5t47 140.5q0 84 -47 138t-131 54q-82 0 -129 -54t-47 -138q0 -86 47 -140.5t129 -54.5zM408 -248q0 76 53 129t129 53 q74 0 127 -53t53 -129t-53 -129t-127 -53q-76 0 -129 53t-53 129z" glyph-name="uni1ECD" horiz-adv-x="1181" unicode="ọ"/><glyph d="M543 1655q27 78 88 115.5t139 37.5q100 0 168 -49t68 -149q0 -55 -33 -129h-187q45 51 45 118q0 63 -61 64q-47 0 -74 -59zM37 682q0 311 214 509t533.5 198t533.5 -198t214 -509t-214 -509t-533.5 -198t-533.5 198t-214 509zM1112 682q0 145 -91 243.5t-236.5 98.5 t-236.5 -98.5t-91 -243.5t91 -243.5t236.5 -98.5t236.5 98.5t91 243.5z" glyph-name="uni1ECE" horiz-adv-x="1568" unicode="Ỏ"/><glyph d="M348 1313q27 78 88.5 115.5t138.5 37.5q100 0 168 -49t68 -149q0 -55 -33 -129h-186q45 51 45 118q0 63 -62 64q-47 0 -73 -59zM590 -25q-254 0 -404.5 152t-150.5 369t150.5 367.5t404.5 150.5t405.5 -150.5t151.5 -367.5t-151.5 -369t-405.5 -152zM590 301 q84 0 131 54.5t47 140.5q0 84 -47 138t-131 54q-82 0 -129 -54t-47 -138q0 -86 47 -140.5t129 -54.5z" glyph-name="uni1ECF" horiz-adv-x="1181" unicode="ỏ"/><glyph d="M1317 1597h-246l246 222h317zM915 1444l-131 112l-125 -112h-215l181 221h319l186 -221h-215zM37 682q0 311 214 509t533.5 198t533.5 -198t214 -509t-214 -509t-533.5 -198t-533.5 198t-214 509zM1112 682q0 145 -91 243.5t-236.5 98.5t-236.5 -98.5t-91 -243.5 t91 -243.5t236.5 -98.5t236.5 98.5t91 243.5z" glyph-name="uni1ED0" horiz-adv-x="1568" unicode="Ố"/><glyph d="M1122 1343h-245l245 295h318zM721 1139l-131 149l-125 -149h-215l180 295h320l186 -295h-215zM590 -25q-254 0 -404.5 152t-150.5 369t150.5 367.5t404.5 150.5t405.5 -150.5t151.5 -367.5t-151.5 -369t-405.5 -152zM590 301q84 0 131 54.5t47 140.5q0 84 -47 138 t-131 54q-82 0 -129 -54t-47 -138q0 -86 47 -140.5t129 -54.5z" glyph-name="uni1ED1" horiz-adv-x="1181" unicode="ố"/><glyph d="M264 1597l-317 222h317l246 -222h-246zM915 1444l-131 112l-125 -112h-215l181 221h319l186 -221h-215zM37 682q0 311 214 509t533.5 198t533.5 -198t214 -509t-214 -509t-533.5 -198t-533.5 198t-214 509zM1112 682q0 145 -91 243.5t-236.5 98.5t-236.5 -98.5 t-91 -243.5t91 -243.5t236.5 -98.5t236.5 98.5t91 243.5z" glyph-name="uni1ED2" horiz-adv-x="1568" unicode="Ồ"/><glyph d="M70 1343l-318 295h318l245 -295h-245zM721 1139l-131 149l-125 -149h-215l180 295h320l186 -295h-215zM590 -25q-254 0 -404.5 152t-150.5 369t150.5 367.5t404.5 150.5t405.5 -150.5t151.5 -367.5t-151.5 -369t-405.5 -152zM590 301q84 0 131 54.5t47 140.5 q0 84 -47 138t-131 54q-82 0 -129 -54t-47 -138q0 -86 47 -140.5t129 -54.5z" glyph-name="uni1ED3" horiz-adv-x="1181" unicode="ồ"/><glyph d="M827 1726q51 115 228 115q100 0 167.5 -37t67.5 -112q0 -41 -33 -97h-186q45 39 45 91q0 47 -61 47q-47 0 -74 -45zM915 1444l-131 112l-125 -112h-215l181 221h319l186 -221h-215zM37 682q0 311 214 509t533.5 198t533.5 -198t214 -509t-214 -509t-533.5 -198 t-533.5 198t-214 509zM1112 682q0 145 -91 243.5t-236.5 98.5t-236.5 -98.5t-91 -243.5t91 -243.5t236.5 -98.5t236.5 98.5t91 243.5z" glyph-name="uni1ED4" horiz-adv-x="1568" unicode="Ổ"/><glyph d="M633 1516q27 78 88 115.5t139 37.5q100 0 168 -49t68 -150q0 -55 -33 -129h-186q45 51 45 119q0 63 -62 64q-47 0 -74 -60zM721 1139l-131 149l-125 -149h-215l180 295h320l186 -295h-215zM590 -25q-254 0 -404.5 152t-150.5 369t150.5 367.5t404.5 150.5t405.5 -150.5 t151.5 -367.5t-151.5 -369t-405.5 -152zM590 301q84 0 131 54.5t47 140.5q0 84 -47 138t-131 54q-82 0 -129 -54t-47 -138q0 -86 47 -140.5t129 -54.5z" glyph-name="uni1ED5" horiz-adv-x="1181" unicode="ổ"/><glyph d="M733 1733q-45 23 -65 22q-49 0 -50 -57h-182q0 207 242 207q74 0 160 -43q49 -25 65 -25q49 0 49 57h183q0 -205 -242 -204q-74 0 -160 43zM915 1444l-131 112l-125 -112h-215l181 221h319l186 -221h-215zM37 682q0 311 214 509t533.5 198t533.5 -198t214 -509t-214 -509 t-533.5 -198t-533.5 198t-214 509zM1112 682q0 145 -91 243.5t-236.5 98.5t-236.5 -98.5t-91 -243.5t91 -243.5t236.5 -98.5t236.5 98.5t91 243.5z" glyph-name="uni1ED6" horiz-adv-x="1568" unicode="Ỗ"/><glyph d="M539 1524q-45 31 -66 30q-49 0 -49 -75h-182q0 274 241 274q74 0 160 -57q47 -31 66 -31q49 0 49 76h182q0 -274 -242 -275q-73 1 -159 58zM721 1139l-131 149l-125 -149h-215l180 295h320l186 -295h-215zM590 -25q-254 0 -404.5 152t-150.5 369t150.5 367.5t404.5 150.5 t405.5 -150.5t151.5 -367.5t-151.5 -369t-405.5 -152zM590 301q84 0 131 54.5t47 140.5q0 84 -47 138t-131 54q-82 0 -129 -54t-47 -138q0 -86 47 -140.5t129 -54.5z" glyph-name="uni1ED7" horiz-adv-x="1181" unicode="ỗ"/><glyph d="M915 1481l-131 149l-125 -149h-215l181 295h319l186 -295h-215zM37 682q0 311 214 509t533.5 198t533.5 -198t214 -509t-214 -509t-533.5 -198t-533.5 198t-214 509zM1112 682q0 145 -91 243.5t-236.5 98.5t-236.5 -98.5t-91 -243.5t91 -243.5t236.5 -98.5t236.5 98.5 t91 243.5zM602 -248q0 76 53.5 129t128.5 53q74 0 127.5 -53t53.5 -129t-53.5 -129t-127.5 -53q-76 0 -129 53t-53 129z" glyph-name="uni1ED8" horiz-adv-x="1568" unicode="Ộ"/><glyph d="M721 1139l-131 149l-125 -149h-215l180 295h320l186 -295h-215zM590 -25q-254 0 -404.5 152t-150.5 369t150.5 367.5t404.5 150.5t405.5 -150.5t151.5 -367.5t-151.5 -369t-405.5 -152zM590 301q84 0 131 54.5t47 140.5q0 84 -47 138t-131 54q-82 0 -129 -54t-47 -138 q0 -86 47 -140.5t129 -54.5zM408 -248q0 76 53 129t129 53q74 0 127 -53t53 -129t-53 -129t-127 -53q-76 0 -129 53t-53 129z" glyph-name="uni1ED9" horiz-adv-x="1181" unicode="ộ"/><glyph d="M1217 1776l-318 -295h-246l246 295h318zM1567 1366q0 -168 -154 -285q119 -174 119 -399q0 -311 -214 -509t-533.5 -198t-533.5 198t-214 509t214 509t533 198q338 0 553 -215q63 49 86 106q-10 -6 -34 -6q-49 0 -83 34.5t-34 90.5q0 57 41 99t98 42q66 0 111 -47 t45 -127zM784.5 340q145.5 0 236.5 98.5t91 243.5t-91 243.5t-236.5 98.5t-236.5 -98.5t-91 -243.5t91 -243.5t236.5 -98.5z" glyph-name="uni1EDA" horiz-adv-x="1568" unicode="Ớ"/><glyph d="M1022 1434l-317 -295h-246l246 295h317zM1182 1094q0 -162 -144 -277q109 -141 109 -321q0 -217 -151.5 -369t-405.5 -152t-404.5 152t-150.5 369t150.5 367.5t404.5 150.5q213 0 362 -113q63 49 86 107q-10 -6 -34 -7q-49 0 -83 35t-34 90q0 57 41 99.5t98 42.5 q66 0 111 -47t45 -127zM590 301q84 0 131 54.5t47 140.5q0 84 -47 138t-131 54q-82 0 -129 -54t-47 -138q0 -86 47 -140.5t129 -54.5z" glyph-name="uni1EDB" horiz-adv-x="1181" unicode="ớ"/><glyph d="M911 1481h-245l-318 295h318zM1567 1366q0 -168 -154 -285q119 -174 119 -399q0 -311 -214 -509t-533.5 -198t-533.5 198t-214 509t214 509t533 198q338 0 553 -215q63 49 86 106q-10 -6 -34 -6q-49 0 -83 34.5t-34 90.5q0 57 41 99t98 42q66 0 111 -47t45 -127z M784.5 340q145.5 0 236.5 98.5t91 243.5t-91 243.5t-236.5 98.5t-236.5 -98.5t-91 -243.5t91 -243.5t236.5 -98.5z" glyph-name="uni1EDC" horiz-adv-x="1568" unicode="Ờ"/><glyph d="M717 1139h-246l-317 295h317zM1182 1094q0 -162 -144 -277q109 -141 109 -321q0 -217 -151.5 -369t-405.5 -152t-404.5 152t-150.5 369t150.5 367.5t404.5 150.5q213 0 362 -113q63 49 86 107q-10 -6 -34 -7q-49 0 -83 35t-34 90q0 57 41 99.5t98 42.5q66 0 111 -47 t45 -127zM590 301q84 0 131 54.5t47 140.5q0 84 -47 138t-131 54q-82 0 -129 -54t-47 -138q0 -86 47 -140.5t129 -54.5z" glyph-name="uni1EDD" horiz-adv-x="1181" unicode="ờ"/><glyph d="M770 1663q-47 0 -74 -59l-153 51q27 78 88 115.5t139 37.5q100 0 168 -49t68 -149q0 -55 -33 -129h-187q45 51 45 118q0 64 -61 64zM1567 1366q0 -168 -154 -285q119 -174 119 -399q0 -311 -214 -509t-533.5 -198t-533.5 198t-214 509t214 509t533 198q338 0 553 -215 q63 49 86 106q-10 -6 -34 -6q-49 0 -83 34.5t-34 90.5q0 57 41 99t98 42q66 0 111 -47t45 -127zM784.5 340q145.5 0 236.5 98.5t91 243.5t-91 243.5t-236.5 98.5t-236.5 -98.5t-91 -243.5t91 -243.5t236.5 -98.5z" glyph-name="uni1EDE" horiz-adv-x="1568" unicode="Ở"/><glyph d="M575 1321q-47 0 -73 -59l-154 51q27 78 88.5 115.5t138.5 37.5q100 0 168 -49t68 -149q0 -55 -33 -129h-186q45 51 45 118q-1 64 -62 64zM1182 1094q0 -162 -144 -277q109 -141 109 -321q0 -217 -151.5 -369t-405.5 -152t-404.5 152t-150.5 369t150.5 367.5t404.5 150.5 q213 0 362 -113q63 49 86 107q-10 -6 -34 -7q-49 0 -83 35t-34 90q0 57 41 99.5t98 42.5q66 0 111 -47t45 -127zM590 301q84 0 131 54.5t47 140.5q0 84 -47 138t-131 54q-82 0 -129 -54t-47 -138q0 -86 47 -140.5t129 -54.5z" glyph-name="uni1EDF" horiz-adv-x="1181" unicode="ở"/><glyph d="M668 1565q-49 0 -50 -76h-182q0 274 242 274q74 0 160 -57q47 -31 65 -31q49 0 49 76h183q0 -274 -242 -274q-74 0 -160 57q-45 31 -65 31zM1567 1366q0 -168 -154 -285q119 -174 119 -399q0 -311 -214 -509t-533.5 -198t-533.5 198t-214 509t214 509t533 198 q338 0 553 -215q63 49 86 106q-10 -6 -34 -6q-49 0 -83 34.5t-34 90.5q0 57 41 99t98 42q66 0 111 -47t45 -127zM784.5 340q145.5 0 236.5 98.5t91 243.5t-91 243.5t-236.5 98.5t-236.5 -98.5t-91 -243.5t91 -243.5t236.5 -98.5z" glyph-name="uni1EE0" horiz-adv-x="1568" unicode="Ỡ"/><glyph d="M473 1223q-49 0 -49 -76h-182q0 274 241 274q74 0 160 -57q47 -31 66 -31q49 0 49 76h182q0 -274 -242 -274q-74 0 -159 57q-46 31 -66 31zM1182 1094q0 -162 -144 -277q109 -141 109 -321q0 -217 -151.5 -369t-405.5 -152t-404.5 152t-150.5 369t150.5 367.5 t404.5 150.5q213 0 362 -113q63 49 86 107q-10 -6 -34 -7q-49 0 -83 35t-34 90q0 57 41 99.5t98 42.5q66 0 111 -47t45 -127zM590 301q84 0 131 54.5t47 140.5q0 84 -47 138t-131 54q-82 0 -129 -54t-47 -138q0 -86 47 -140.5t129 -54.5z" glyph-name="uni1EE1" horiz-adv-x="1181" unicode="ỡ"/><glyph d="M1567 1366q0 -168 -154 -285q119 -174 119 -399q0 -311 -214 -509t-533.5 -198t-533.5 198t-214 509t214 509t533 198q338 0 553 -215q63 49 86 106q-10 -6 -34 -6q-49 0 -83 34.5t-34 90.5q0 57 41 99t98 42q66 0 111 -47t45 -127zM784.5 340q145.5 0 236.5 98.5 t91 243.5t-91 243.5t-236.5 98.5t-236.5 -98.5t-91 -243.5t91 -243.5t236.5 -98.5zM784 -66q74 0 127.5 -53t53.5 -129t-53.5 -129t-127.5 -53q-76 0 -129 53t-53 129t53 129t129 53z" glyph-name="uni1EE2" horiz-adv-x="1568" unicode="Ợ"/><glyph d="M1182 1094q0 -162 -144 -277q109 -141 109 -321q0 -217 -151.5 -369t-405.5 -152t-404.5 152t-150.5 369t150.5 367.5t404.5 150.5q213 0 362 -113q63 49 86 107q-10 -6 -34 -7q-49 0 -83 35t-34 90q0 57 41 99.5t98 42.5q66 0 111 -47t45 -127zM590 301q84 0 131 54.5 t47 140.5q0 84 -47 138t-131 54q-82 0 -129 -54t-47 -138q0 -86 47 -140.5t129 -54.5zM590 -66q74 0 127 -53t53 -129t-53 -129t-127 -53q-76 0 -129 53t-53 129t53 129t129 53z" glyph-name="uni1EE3" horiz-adv-x="1181" unicode="ợ"/><glyph d="M111 561v805h419v-791q0 -106 58.5 -170.5t179.5 -64.5q119 0 177.5 65.5t58.5 169.5v791h419v-803q0 -268 -161.5 -428t-493.5 -160t-494.5 159t-162.5 427zM586 -248q0 76 53 129t129 53q74 0 127 -53t53 -129t-53 -129t-127 -53q-76 0 -129 53t-53 129z" glyph-name="uni1EE4" horiz-adv-x="1533" unicode="Ụ"/><glyph d="M770 0v111q-123 -135 -340 -136q-164 0 -246 86t-82 222v706h369v-549q0 -139 143 -139q86 0 156 78v610h369v-989h-369zM438 -248q0 76 53.5 129t129.5 53q74 0 127 -53t53 -129t-53.5 -129t-126.5 -53q-76 0 -129.5 53t-53.5 129z" glyph-name="uni1EE5" horiz-adv-x="1241" unicode="ụ"/><glyph d="M526 1655q27 78 88.5 115.5t139.5 37.5q100 0 167.5 -49t67.5 -149q0 -55 -33 -129h-186q45 51 45 118q0 63 -61 64q-47 0 -74 -59zM111 561v805h419v-791q0 -106 58.5 -170.5t179.5 -64.5q119 0 177.5 65.5t58.5 169.5v791h419v-803q0 -268 -161.5 -428t-493.5 -160 t-494.5 159t-162.5 427z" glyph-name="uni1EE6" horiz-adv-x="1533" unicode="Ủ"/><glyph d="M379 1313q27 78 88 115.5t139 37.5q100 0 168 -49t68 -149q0 -55 -33 -129h-186q45 51 45 118q0 63 -62 64q-47 0 -74 -59zM770 0v111q-123 -135 -340 -136q-164 0 -246 86t-82 222v706h369v-549q0 -139 143 -139q86 0 156 78v610h369v-989h-369z" glyph-name="uni1EE7" horiz-adv-x="1241" unicode="ủ"/><glyph d="M1200 1776l-317 -295h-246l246 295h317zM1636 1485q0 -90 -54 -179t-159 -145v-598q0 -268 -161.5 -428t-493.5 -160t-494.5 159t-162.5 427v805h419v-791q0 -106 58.5 -170.5t179.5 -64.5q119 0 177.5 65.5t58.5 169.5v791h419v-61q51 45 70 94q-10 -6 -35 -6 q-49 0 -83 34.5t-34 90.5q0 57 41 99t99 42q66 0 110.5 -47t44.5 -127z" glyph-name="uni1EE8" horiz-adv-x="1533" unicode="Ứ"/><glyph d="M1053 1434l-318 -295h-246l246 295h318zM1284 1135q0 -166 -145 -279v-856h-369v111q-123 -135 -340 -136q-164 0 -246 86t-82 222v706h369v-549q0 -139 143 -139q86 0 156 78v610h334q29 33 37 60q-10 -6 -35 -7q-49 0 -83 35t-34 90q0 57 41 99.5t98 42.5q66 0 111 -47 t45 -127z" glyph-name="uni1EE9" horiz-adv-x="1241" unicode="ứ"/><glyph d="M895 1481h-246l-317 295h317zM1636 1485q0 -90 -54 -179t-159 -145v-598q0 -268 -161.5 -428t-493.5 -160t-494.5 159t-162.5 427v805h419v-791q0 -106 58.5 -170.5t179.5 -64.5q119 0 177.5 65.5t58.5 169.5v791h419v-61q51 45 70 94q-10 -6 -35 -6q-49 0 -83 34.5 t-34 90.5q0 57 41 99t99 42q66 0 110.5 -47t44.5 -127z" glyph-name="uni1EEA" horiz-adv-x="1533" unicode="Ừ"/><glyph d="M748 1139h-246l-318 295h318zM1284 1135q0 -166 -145 -279v-856h-369v111q-123 -135 -340 -136q-164 0 -246 86t-82 222v706h369v-549q0 -139 143 -139q86 0 156 78v610h334q29 33 37 60q-10 -6 -35 -7q-49 0 -83 35t-34 90q0 57 41 99.5t98 42.5q66 0 111 -47t45 -127z " glyph-name="uni1EEB" horiz-adv-x="1241" unicode="ừ"/><glyph d="M754 1663q-47 0 -74 -59l-154 51q27 78 88.5 115.5t139.5 37.5q100 0 167.5 -49t67.5 -149q0 -55 -33 -129h-186q45 51 45 118q0 64 -61 64zM1636 1485q0 -90 -54 -179t-159 -145v-598q0 -268 -161.5 -428t-493.5 -160t-494.5 159t-162.5 427v805h419v-791 q0 -106 58.5 -170.5t179.5 -64.5q119 0 177.5 65.5t58.5 169.5v791h419v-61q51 45 70 94q-10 -6 -35 -6q-49 0 -83 34.5t-34 90.5q0 57 41 99t99 42q66 0 110.5 -47t44.5 -127z" glyph-name="uni1EEC" horiz-adv-x="1533" unicode="Ử"/><glyph d="M606 1321q-47 0 -74 -59l-153 51q27 78 88 115.5t139 37.5q100 0 168 -49t68 -149q0 -55 -33 -129h-186q45 51 45 118q-1 64 -62 64zM1284 1135q0 -166 -145 -279v-856h-369v111q-123 -135 -340 -136q-164 0 -246 86t-82 222v706h369v-549q0 -139 143 -139q86 0 156 78 v610h334q29 33 37 60q-10 -6 -35 -7q-49 0 -83 35t-34 90q0 57 41 99.5t98 42.5q66 0 111 -47t45 -127z" glyph-name="uni1EED" horiz-adv-x="1241" unicode="ử"/><glyph d="M651 1565q-49 0 -49 -76h-182q0 274 242 274q74 0 159 -57q47 -31 66 -31q49 0 49 76h182q0 -274 -241 -274q-74 0 -160 57q-46 31 -66 31zM1636 1485q0 -90 -54 -179t-159 -145v-598q0 -268 -161.5 -428t-493.5 -160t-494.5 159t-162.5 427v805h419v-791 q0 -106 58.5 -170.5t179.5 -64.5q119 0 177.5 65.5t58.5 169.5v791h419v-61q51 45 70 94q-10 -6 -35 -6q-49 0 -83 34.5t-34 90.5q0 57 41 99t99 42q66 0 110.5 -47t44.5 -127z" glyph-name="uni1EEE" horiz-adv-x="1533" unicode="Ữ"/><glyph d="M504 1223q-49 0 -49 -76h-183q0 274 242 274q74 0 160 -57q47 -31 65 -31q49 0 49 76h183q0 -274 -242 -274q-74 0 -160 57q-45 31 -65 31zM1284 1135q0 -166 -145 -279v-856h-369v111q-123 -135 -340 -136q-164 0 -246 86t-82 222v706h369v-549q0 -139 143 -139 q86 0 156 78v610h334q29 33 37 60q-10 -6 -35 -7q-49 0 -83 35t-34 90q0 57 41 99.5t98 42.5q66 0 111 -47t45 -127z" glyph-name="uni1EEF" horiz-adv-x="1241" unicode="ữ"/><glyph d="M1636 1485q0 -90 -54 -179t-159 -145v-598q0 -268 -161.5 -428t-493.5 -160t-494.5 159t-162.5 427v805h419v-791q0 -106 58.5 -170.5t179.5 -64.5q119 0 177.5 65.5t58.5 169.5v791h419v-61q51 45 70 94q-10 -6 -35 -6q-49 0 -83 34.5t-34 90.5q0 57 41 99t99 42 q66 0 110.5 -47t44.5 -127zM768 -66q74 0 127 -53t53 -129t-53 -129t-127 -53q-76 0 -129 53t-53 129t53 129t129 53z" glyph-name="uni1EF0" horiz-adv-x="1533" unicode="Ự"/><glyph d="M1284 1135q0 -166 -145 -279v-856h-369v111q-123 -135 -340 -136q-164 0 -246 86t-82 222v706h369v-549q0 -139 143 -139q86 0 156 78v610h334q29 33 37 60q-10 -6 -35 -7q-49 0 -83 35t-34 90q0 57 41 99.5t98 42.5q66 0 111 -47t45 -127zM621 -66q74 0 127 -53t53 -129 t-53.5 -129t-126.5 -53q-76 0 -129.5 53t-53.5 129t53.5 129t129.5 53z" glyph-name="uni1EF1" horiz-adv-x="1241" unicode="ự"/><glyph d="M563 1481l-317 295h317l246 -295h-246zM475 0v543l-512 823h465l254 -461l250 461h465l-508 -823v-543h-414z" glyph-name="Ygrave" horiz-adv-x="1359" unicode="Ỳ"/><glyph d="M428 1139l-317 295h317l246 -295h-246zM143 -57q33 -18 78 -19q111 0 129 39l8 21l-389 1005h389l189 -565l190 565h389l-430 -1112q-61 -160 -171.5 -216t-288.5 -62q-88 0 -144 16z" glyph-name="ygrave" horiz-adv-x="1095" unicode="ỳ"/><glyph d="M475 0v543l-512 823h465l254 -461l250 461h465l-508 -823v-543h-414zM500 -248q0 76 53 129t129 53q74 0 127 -53t53 -129t-53 -129t-127 -53q-76 0 -129 53t-53 129z" glyph-name="uni1EF4" horiz-adv-x="1359" unicode="Ỵ"/><glyph d="M143 -57q33 -18 78 -19q111 0 129 39l8 21l-389 1005h389l189 -565l190 565h389l-430 -1112q-61 -160 -171.5 -216t-288.5 -62q-88 0 -144 16zM365 -596q0 76 53 129t129 53q74 0 127 -53t53 -129t-53 -129t-127 -53q-76 0 -129 53t-53 129z" glyph-name="uni1EF5" horiz-adv-x="1095" unicode="ỵ"/><glyph d="M440 1655q27 78 88.5 115.5t139.5 37.5q100 0 167.5 -49t67.5 -149q0 -55 -33 -129h-186q45 51 45 118q0 63 -61 64q-47 0 -74 -59zM475 0v543l-512 823h465l254 -461l250 461h465l-508 -823v-543h-414z" glyph-name="uni1EF6" horiz-adv-x="1359" unicode="Ỷ"/><glyph d="M305 1313q27 78 88.5 115.5t138.5 37.5q100 0 168 -49t68 -149q0 -55 -33 -129h-186q45 51 45 118q0 63 -62 64q-47 0 -73 -59zM143 -57q33 -18 78 -19q111 0 129 39l8 21l-389 1005h389l189 -565l190 565h389l-430 -1112q-61 -160 -171.5 -216t-288.5 -62q-88 0 -144 16 z" glyph-name="uni1EF7" horiz-adv-x="1095" unicode="ỷ"/><glyph d="M631 1534q-45 31 -66 31q-49 0 -49 -76h-182q0 274 241 274q74 0 160 -57q47 -31 66 -31q49 0 49 76h182q0 -274 -241 -274q-74 0 -160 57zM475 0v543l-512 823h465l254 -461l250 461h465l-508 -823v-543h-414z" glyph-name="uni1EF8" horiz-adv-x="1359" unicode="Ỹ"/><glyph d="M496 1192q-45 31 -66 31q-49 0 -49 -76h-182q0 274 241 274q74 0 160 -57q47 -31 66 -31q49 0 49 76h182q0 -274 -242 -274q-73 0 -159 57zM143 -57q33 -18 78 -19q111 0 129 39l8 21l-389 1005h389l189 -565l190 565h389l-430 -1112q-61 -160 -171.5 -216t-288.5 -62 q-88 0 -144 16z" glyph-name="uni1EF9" horiz-adv-x="1095" unicode="ỹ"/><glyph glyph-name="uni2000" horiz-adv-x="1024" unicode=" "/><glyph glyph-name="uni2001" horiz-adv-x="2048" unicode=" "/><glyph glyph-name="uni2002" horiz-adv-x="1024" unicode=" "/><glyph glyph-name="uni2003" horiz-adv-x="2048" unicode=" "/><glyph glyph-name="uni2004" horiz-adv-x="681" unicode=" "/><glyph glyph-name="uni2005" horiz-adv-x="512" unicode=" "/><glyph glyph-name="uni2006" horiz-adv-x="342" unicode=" "/><glyph glyph-name="uni2007" horiz-adv-x="1327" unicode=" "/><glyph glyph-name="uni2008" horiz-adv-x="579" unicode=" "/><glyph glyph-name="uni2009" horiz-adv-x="256" unicode=" "/><glyph glyph-name="uni200A" horiz-adv-x="114" unicode=" "/><glyph d="M61 342v307h1092v-307h-1092z" glyph-name="endash" horiz-adv-x="1214" unicode="–"/><glyph d="M61 342v307h1584v-307h-1584z" glyph-name="emdash" horiz-adv-x="1705" unicode="—"/><glyph d="M61 342v307h1092v-307h-1092z" glyph-name="afii00208" horiz-adv-x="1214" unicode="―"/><glyph d="M317 1389l150 -121q-51 -23 -109.5 -82.5t-76.5 -114.5q20 8 53 8q76 0 127 -53t51 -137q0 -88 -63.5 -151.5t-149.5 -63.5q-98 0 -168 71.5t-70 192.5q0 271 256 451z" glyph-name="quoteleft" horiz-adv-x="575" unicode="‘"/><glyph d="M264 672l-149 121q51 23 109.5 82t76.5 114q-20 -8 -53 -8q-76 0 -127 53t-51 137q0 88 63.5 151.5t149.5 63.5q98 0 167.5 -71.5t69.5 -192.5q0 -270 -256 -450z" glyph-name="quoteright" horiz-adv-x="575" unicode="’"/><glyph d="M264 -301l-149 121q51 23 109.5 82t76.5 114q-20 -8 -53 -8q-76 0 -127 53.5t-51 137.5q0 88 63.5 151.5t149.5 63.5q98 0 167.5 -72t69.5 -192q0 -271 -256 -451z" glyph-name="quotesinglbase" horiz-adv-x="575" unicode="‚"/><glyph d="M293 1386q86 0 149.5 -63t63.5 -152q0 -84 -51.5 -137t-126.5 -53q-33 0 -54 8q18 -55 77 -114.5t110 -81.5l-150 -121q-256 180 -256 450q0 121 70 192.5t168 71.5z" glyph-name="quotereversed" horiz-adv-x="575" unicode="‛"/><glyph d="M309 1389l150 -121q-51 -23 -109.5 -82.5t-77.5 -114.5q20 8 54 8q76 0 127 -53t51 -137q0 -88 -63.5 -151.5t-149.5 -63.5q-98 0 -168 71.5t-70 192.5q0 271 256 451zM815 1389l150 -121q-51 -23 -109.5 -82.5t-77.5 -114.5q20 8 53 8q76 0 127.5 -53t51.5 -137 q0 -88 -63.5 -151.5t-149.5 -63.5q-98 0 -168 71.5t-70 192.5q0 271 256 451z" glyph-name="quotedblleft" horiz-adv-x="1081" unicode="“"/><glyph d="M264 672l-149 121q51 23 109.5 82t76.5 114q-20 -8 -53 -8q-76 0 -127 53t-51 137q0 88 63.5 151.5t149.5 63.5q98 0 167.5 -71.5t69.5 -192.5q0 -270 -256 -450zM770 672l-149 121q51 23 109 82t77 114q-20 -8 -53 -8q-76 0 -127.5 53t-51.5 137q0 88 63.5 151.5 t149.5 63.5q98 0 168 -71.5t70 -192.5q0 -270 -256 -450z" glyph-name="quotedblright" horiz-adv-x="1081" unicode="”"/><glyph d="M264 -301l-149 121q51 23 109.5 82t76.5 114q-20 -8 -53 -8q-76 0 -127 53.5t-51 137.5q0 88 63.5 151.5t149.5 63.5q98 0 167.5 -72t69.5 -192q0 -271 -256 -451zM770 -301l-149 121q51 23 109 82t77 114q-20 -8 -53 -8q-76 0 -127.5 53.5t-51.5 137.5q0 88 63.5 151.5 t149.5 63.5q98 0 168 -72t70 -192q0 -271 -256 -451z" glyph-name="quotedblbase" horiz-adv-x="1081" unicode="„"/><glyph d="M379 1059l8 -389h-180l10 389l-182 -8v166l182 -7l-10 176h180l-8 -176l182 7v-166z" glyph-name="dagger" horiz-adv-x="595" unicode="†"/><glyph d="M561 1051l-182 8v-359l182 9v-166l-182 6l8 -180h-180l8 180l-180 -6v166l180 -9v359l-180 -8v166l180 -7l-8 176h180l-8 -176l182 7v-166z" glyph-name="daggerdbl" horiz-adv-x="595" unicode="‡"/><glyph d="M368.5 231q-110.5 0 -188.5 78t-78 187q0 111 78 188.5t188.5 77.5t188.5 -78t78 -188q0 -109 -78 -187t-188.5 -78z" glyph-name="bullet" horiz-adv-x="733" unicode="•"/><glyph d="M289 -23q-88 0 -152.5 64.5t-64.5 153.5q0 90 64.5 154.5t152.5 64.5t152.5 -64.5t64.5 -154.5q0 -88 -64.5 -153t-152.5 -65zM866 -23q-88 0 -152.5 64.5t-64.5 153.5q0 90 64.5 154.5t152.5 64.5t152.5 -64.5t64.5 -154.5q0 -88 -64.5 -153t-152.5 -65zM1444 -23 q-88 0 -152.5 64.5t-64.5 153.5q0 90 64.5 154.5t152.5 64.5t152.5 -64.5t64.5 -154.5q0 -88 -64.5 -153t-152.5 -65z" glyph-name="ellipsis" horiz-adv-x="1732" unicode="…"/><glyph d="M406 698q-164 0 -264.5 98.5t-100.5 243.5q0 147 100.5 246.5t264.5 99.5q166 0 267 -99t101 -247q0 -145 -101 -243.5t-267 -98.5zM467 0h-199l873 1366h200zM406 1194q-115 0 -115 -154q0 -76 31.5 -112.5t83.5 -36.5q53 0 85.5 37t32.5 112q0 78 -32.5 116t-85.5 38z M1198 -25q-164 0 -264 98.5t-100 243.5q0 147 100 247t264 100t265.5 -99.5t101.5 -247.5q0 -145 -101.5 -243.5t-265.5 -98.5zM1968 -25q-164 0 -264 98.5t-100 243.5q0 147 100 247t264 100t265.5 -99.5t101.5 -247.5q0 -145 -101.5 -243.5t-265.5 -98.5zM1198 471 q-117 0 -117 -154q0 -150 117 -149q53 0 86 37t33 112q0 78 -33 116t-86 38zM1968 471q-117 0 -117 -154q0 -150 117 -149q53 0 86 37t33 112q0 78 -33 116t-86 38z" glyph-name="perthousand" horiz-adv-x="2375" unicode="‰"/><glyph d="M51 723q80 502 99 547q20 53 69 84.5t107 31.5q76 0 131 -54t55 -132q0 -41 -14 -72q-8 -20 -85 -135.5t-151 -222.5l-72 -104z" glyph-name="minute" horiz-adv-x="536" unicode="′"/><glyph d="M51 723q80 502 99 547q20 53 69 84.5t107 31.5q76 0 131 -54t55 -132q0 -41 -14 -72q-8 -20 -85 -135.5t-151 -222.5l-72 -104zM510 723q80 502 98 547q20 53 69.5 84.5t106.5 31.5q76 0 131.5 -54t55.5 -132q0 -41 -15 -72q-8 -20 -84.5 -135.5t-150.5 -222.5l-72 -104z " glyph-name="second" horiz-adv-x="995" unicode="″"/><glyph d="M389 129l-328 369l328 362h328l-328 -362l328 -369h-328z" glyph-name="guilsinglleft" horiz-adv-x="778" unicode="‹"/><glyph d="M389 129h-328l328 369l-328 362h328l328 -362z" glyph-name="guilsinglright" horiz-adv-x="778" unicode="›"/><glyph d="M455 1386q240 0 355.5 -108.5t115.5 -284.5q0 -135 -83 -234.5t-198 -146.5l-12 -104h-332l-55 430h270v-145q61 49 62 122q0 68 -45.5 104t-122.5 36q-117 0 -205 -88l-205 233q86 92 208 139t247 47zM467 414q90 0 154.5 -65.5t64.5 -154t-64.5 -154t-154.5 -65.5 t-154.5 65.5t-64.5 154t64.5 154t154.5 65.5z" glyph-name="uni203D" horiz-adv-x="942" unicode="‽"/><glyph d="M0 1128v199h743v-199h-743z" glyph-name="uni203E" horiz-adv-x="743" unicode="‾"/><glyph d="M-154 0h-198l872 1366h201z" glyph-name="fraction" horiz-adv-x="368" unicode="⁄"/><glyph d="M418 848q-182 0 -279.5 122t-97.5 302q0 178 98.5 300t278.5 122t277.5 -122t97.5 -300q0 -180 -97.5 -302t-277.5 -122zM418 1481q-55 0 -81 -49.5t-26 -159.5q0 -211 107 -211q104 0 104 211q0 209 -104 209z" glyph-name="uni2070" horiz-adv-x="833" unicode="⁰"/><glyph d="M711 1008v-146h-269v146h-403v178l293 495h379v-464h96v-209h-96zM442 1458l-139 -241h139v241z" glyph-name="uni2074" horiz-adv-x="833" unicode="⁴"/><glyph d="M406 848q-236 0 -355 113l142 172q80 -72 213 -72q55 0 83.5 22.5t28.5 53.5q0 76 -104 75q-94 0 -154 -53l-184 55v467h653v-213h-383v-125q66 61 172 62q113 0 189.5 -67.5t76.5 -192.5q0 -131 -100 -214t-278 -83z" glyph-name="uni2075" horiz-adv-x="833" unicode="⁵"/><glyph d="M446 848q-203 0 -305 115.5t-102 306.5q0 207 123 315.5t327 108.5q156 0 265 -68l-111 -190q-63 45 -154 45q-76 0 -128 -36t-52 -97v-5q70 82 187 82q121 0 211 -76.5t90 -201.5q0 -135 -98.5 -217t-252.5 -82zM416 1219q-70 0 -107 -33q4 -125 123 -125 q39 0 66.5 21.5t27.5 52.5q0 43 -34.5 63.5t-75.5 20.5z" glyph-name="uni2076" horiz-adv-x="833" unicode="⁶"/><glyph d="M469 862h-299l274 606h-403v213h694v-186z" glyph-name="uni2077" horiz-adv-x="776" unicode="⁷"/><glyph d="M416 848q-100 0 -180 18.5t-140.5 72.5t-60.5 142q0 66 51 124.5t131 78.5q-76 18 -122 69.5t-46 119.5q0 113 108.5 167t258.5 54q152 0 260 -54.5t108 -166.5q0 -68 -46 -119t-122 -70q78 -20 129.5 -78.5t51.5 -124.5q0 -127 -108.5 -180t-272.5 -53zM415.5 1491 q-98.5 0 -98.5 -59q0 -49 99 -66q33 4 65.5 20.5t32.5 45.5q0 59 -98.5 59zM416 1190q-33 -2 -73 -22.5t-40 -57.5q0 -59 113 -59q115 0 114 59q0 37 -40.5 57.5t-73.5 22.5z" glyph-name="uni2078" horiz-adv-x="833" unicode="⁸"/><glyph d="M391 1694q201 0 303.5 -116t102.5 -306q0 -207 -123 -315.5t-328 -108.5q-156 0 -262 67l111 191q59 -45 153 -45q72 0 125 33.5t53 99.5v4q-70 -82 -186 -82q-121 0 -211 77t-90 202q0 135 99 217t253 82zM420 1323q70 0 106 35q-2 53 -30.5 88t-85.5 35 q-43 0 -71 -21.5t-28 -52.5q0 -43 34 -63.5t75 -20.5z" glyph-name="uni2079" horiz-adv-x="833" unicode="⁹"/><glyph d="M272 729q-100 78 -164.5 234.5t-64.5 308.5q0 150 64.5 307.5t164.5 235.5l164 -64q-119 -211 -119 -479t119 -479z" glyph-name="uni207D" horiz-adv-x="456" unicode="⁽"/><glyph d="M182 729l-162 64q119 215 119 479q0 266 -119 479l162 64q100 -78 166 -236t66 -307q0 -152 -66 -308.5t-166 -234.5z" glyph-name="uni207E" horiz-adv-x="456" unicode="⁾"/><glyph d="M528 668v352q0 88 -90 88q-53 0 -96 -43v-397h-260v643h260v-70q82 86 225 86q109 0 165 -58.5t56 -148.5v-452h-260z" glyph-name="uni207F" horiz-adv-x="870" unicode="ⁿ"/><glyph d="M418 -313q-182 0 -279.5 121.5t-97.5 302.5q0 178 98.5 299.5t278.5 121.5t277.5 -121.5t97.5 -299.5q0 -180 -97.5 -302t-277.5 -122zM418 319q-55 0 -81 -49t-26 -159q0 -211 107 -211q104 0 104 211q0 208 -104 208z" glyph-name="uni2080" horiz-adv-x="833" unicode="₀"/><glyph d="M295 -299v477l-143 -141l-152 160l334 323h231v-819h-270z" glyph-name="uni2081" horiz-adv-x="688" unicode="₁"/><glyph d="M86 -299v195q197 137 284 202.5t108.5 91t21.5 52.5q0 78 -103 77q-61 0 -122.5 -30.5t-94.5 -67.5l-135 172q133 139 358 139q170 0 268.5 -72.5t98.5 -195.5q0 -80 -62.5 -155.5t-232.5 -194.5h303v-213h-692z" glyph-name="uni2082" horiz-adv-x="833" unicode="₂"/><glyph d="M414 -313q-244 0 -367 127l127 178q47 -47 112.5 -69.5t116.5 -22.5q113 0 113 53q0 37 -35 47t-114 10q-88 0 -101 -2v209q18 -2 99 -2q78 0 107.5 11.5t29.5 41.5q0 51 -117 51q-123 0 -209 -79l-119 157q129 135 359 135q174 0 264 -62t90 -165q0 -63 -50 -115.5 t-132 -66.5q76 -6 136 -58.5t60 -132.5q0 -109 -102 -177t-268 -68z" glyph-name="uni2083" horiz-adv-x="833" unicode="₃"/><glyph d="M711 -154v-145h-269v145h-403v179l293 495h379v-465h96v-209h-96zM442 297l-139 -242h139v242z" glyph-name="uni2084" horiz-adv-x="833" unicode="₄"/><glyph d="M406 -313q-236 0 -355 112l142 172q80 -72 213 -71q55 0 83.5 22.5t28.5 52.5q0 76 -104 76q-94 0 -154 -53l-184 55v467h653v-213h-383v-125q66 61 172 62q113 0 189.5 -67.5t76.5 -192.5q0 -131 -100 -214t-278 -83z" glyph-name="uni2085" horiz-adv-x="833" unicode="₅"/><glyph d="M446 -313q-203 0 -305 115.5t-102 306.5q0 207 123 315t327 108q156 0 265 -67l-111 -191q-63 45 -154 45q-76 0 -128 -35.5t-52 -97.5v-4q70 82 187 82q121 0 211 -76.5t90 -201.5q0 -135 -98.5 -217t-252.5 -82zM416 57q-70 0 -107 -32q4 -125 123 -125q39 0 66.5 21.5 t27.5 51.5q0 43 -34.5 63.5t-75.5 20.5z" glyph-name="uni2086" horiz-adv-x="833" unicode="₆"/><glyph d="M469 -299h-299l274 606h-403v213h694v-186z" glyph-name="uni2087" horiz-adv-x="776" unicode="₇"/><glyph d="M416 -313q-100 0 -180 18.5t-140.5 72.5t-60.5 142q0 66 51 124t131 79q-76 18 -122 69.5t-46 118.5q0 113 108.5 167t258.5 54q152 0 260 -54t108 -167q0 -68 -46 -119t-122 -69q78 -20 129.5 -78.5t51.5 -124.5q0 -127 -108.5 -180t-272.5 -53zM415.5 330 q-98.5 0 -98.5 -60q0 -49 99 -65q33 4 65.5 20.5t32.5 44.5q0 60 -98.5 60zM416 29q-33 -2 -73 -22.5t-40 -57.5q0 -59 113 -60q115 0 114 60q0 37 -40.5 57.5t-73.5 22.5z" glyph-name="uni2088" horiz-adv-x="833" unicode="₈"/><glyph d="M391 532q201 0 303.5 -115.5t102.5 -305.5q0 -207 -123 -315.5t-328 -108.5q-156 0 -262 67l111 191q59 -45 153 -45q72 0 125 33.5t53 99.5v4q-70 -82 -186 -82q-121 0 -211 77t-90 201q0 135 99 217t253 82zM420 162q70 0 106 35q-2 53 -30.5 87.5t-85.5 34.5 q-43 0 -71 -21.5t-28 -51.5q0 -43 34 -63.5t75 -20.5z" glyph-name="uni2089" horiz-adv-x="833" unicode="₉"/><glyph d="M272 -432q-100 78 -164.5 234.5t-64.5 308.5q0 150 64.5 307t164.5 235l164 -63q-119 -211 -119 -479.5t119 -479.5z" glyph-name="uni208D" horiz-adv-x="456" unicode="₍"/><glyph d="M182 -432l-162 63q119 215 119 480q0 266 -119 479l162 63q100 -78 166 -235.5t66 -306.5q0 -152 -66 -308.5t-166 -234.5z" glyph-name="uni208E" horiz-adv-x="456" unicode="₎"/><glyph d="M803 340q96 0 172 57.5t102 141.5l357 -164q-45 -102 -114 -184t-201 -148t-300 -68l-59 -180h-195l66 197q-66 16 -96 26l-74 -223h-195l101 305q-143 94 -224.5 245t-81.5 337q0 309 208 505.5t519 201.5l62 184h194l-67 -203q43 -8 96 -27l76 230h194l-104 -322 q125 -96 195 -260l-357 -166q-27 84 -102.5 141.5t-171.5 57.5q-139 0 -230.5 -98.5t-91.5 -243.5t91.5 -243.5t230.5 -98.5z" glyph-name="colonmonetary" horiz-adv-x="1458" unicode="₡"/><glyph d="M1161 1006h-622v-136h608v-360h-608v-145h219v-199h-219v-166h-414v166h-111v199h111v1001h1036v-360z" glyph-name="franc" horiz-adv-x="1226" unicode="₣"/><glyph d="M1008 408l157 -326q-98 -106 -327 -107q-100 0 -246 54q-84 33 -129 32q-102 0 -234 -75l-135 270q172 94 174 195h-215v172h166l-41 71h-125v172h43q-10 41 -10 76q0 139 87 244.5t206 152.5t242 47q205 0 334.5 -63t203.5 -203l-328 -188q-43 123 -157 123 q-59 0 -97 -35t-38 -86q0 -33 10 -68h309v-172h-242q12 -45 15 -71h227v-172h-258q-37 -55 -76 -74q39 14 94 14q53 0 130 -26q66 -25 104 -25q107 0 156 68z" glyph-name="lira" horiz-adv-x="1189" unicode="₤"/><glyph d="M1550 725h-110v-76h110v-198h-110v-451h-398l-503 733v-733h-414v451h-111v198h111v76h-111v199h111v442h426l475 -688v688h414v-442h110v-199z" glyph-name="uni20A6" horiz-adv-x="1564" unicode="₦"/><glyph d="M1456 936v-199h-117q-29 -188 -155.5 -309t-329.5 -121h-315v-307h-414v737h-111v199h111v430h729q203 0 330 -120t153 -310h119zM539 1006v-70h366q-35 70 -104 70h-262zM801 668q70 0 104 69h-366v-69h262z" glyph-name="peseta" horiz-adv-x="1464" unicode="₧"/><glyph d="M862 0l-188 438h-150v-438h-413v1366h729q231 0 361 -134t130 -335q0 -160 -72.5 -262.5t-173.5 -151.5l248 -483h-471zM911 903q0 53 -40 86t-95 33h-252v-240h252q55 0 95 33t40 88zM1366 127l147 248q59 -47 168 -86t189 -39q98 0 98 47q0 23 -31.5 35t-107.5 22 q-53 6 -76.5 10.5t-78 16.5t-83 25.5t-69.5 38t-61.5 54t-37 76t-16.5 101.5q0 141 117.5 239.5t324.5 98.5q236 0 428 -127l-135 -240q-51 41 -130 72t-161 31q-92 0 -92 -43q0 -20 26.5 -32.5t100.5 -23.5q53 -8 78 -12t80 -16.5t85 -26.5t72 -40t64.5 -57.5t38.5 -78.5 t16 -105q0 -150 -127 -245t-342 -95q-135 0 -270 42t-215 110z" glyph-name="uni20A8" horiz-adv-x="2351" unicode="₨"/><glyph d="M1978 1366l-127 -442h93v-199h-150l-20 -76h170v-198h-228l-129 -451h-434l-176 774l-176 -774h-434l-129 451h-228v198h170l-20 76h-150v199h92l-127 442h463l176 -836l207 836h312l206 -836l174 836h465z" glyph-name="uni20A9" horiz-adv-x="1953" unicode="₩"/></font>
</defs>
</svg>
