<?xml version="1.0" standalone="no"?>
<!DOCTYPE svg PUBLIC "-//W3C//DTD SVG 1.1//EN" "http://www.w3.org/Graphics/SVG/1.1/DTD/svg11.dtd" >
<svg xmlns="http://www.w3.org/2000/svg" xmlns:xlink="http://www.w3.org/1999/xlink" version="1.1">
<metadata>
Created by FontForge 20161003 at Thu Mar 23 21:03:11 2017
 By www-data
Generated in 2010 by FontLab Studio. Copyright info pending.
</metadata>
<defs>
<font id="Brown-Light" horiz-adv-x="570" >
  <font-face 
    font-family="Brown"
    font-weight="300"
    font-stretch="normal"
    units-per-em="1000"
    panose-1="0 0 0 0 0 0 0 0 0 0"
    ascent="800"
    descent="-200"
    x-height="456"
    cap-height="700"
    bbox="-90 -250 1330 1084"
    underline-thickness="45"
    underline-position="-100"
    unicode-range="U+0020-FB04"
  />
<missing-glyph horiz-adv-x="530" 
d="M75 0v700h380v-700h-380zM132 646v-592h266v592h-266z" />
    <glyph glyph-name="fi" unicode="fi" horiz-adv-x="577" 
d="M340 715l-11 -53c-11 3 -22 4 -34 4c-37 0 -69 -14 -89 -43c-13 -19 -21 -41 -21 -95v-72h307v-456h-57v402h-250v-402h-57v402h-118v54h118v69c0 70 14 110 38 139c31 37 78 56 130 56c15 0 30 -2 44 -5zM413 614c0 28 22 51 50 51s51 -23 51 -51s-23 -50 -51 -50
s-50 22 -50 50z" />
    <glyph glyph-name="fl" unicode="fl" horiz-adv-x="577" 
d="M435 0v402h-250v-402h-57v402h-118v54h118v69c0 70 14 110 38 139c31 37 78 56 130 56c15 0 30 -2 44 -5l-11 -53c-11 3 -22 4 -34 4c-37 0 -69 -14 -89 -43c-13 -19 -21 -41 -21 -95v-72h250v254h57v-710h-57z" />
    <glyph glyph-name="uniFB00" unicode="ff" horiz-adv-x="690" 
d="M670 715l-11 -53c-11 3 -22 4 -34 4c-37 0 -69 -14 -89 -43c-13 -19 -21 -41 -21 -95v-72h155v-54h-155v-402h-57v402h-273v-402h-57v402h-118v54h118v69c0 70 14 110 38 139c31 37 78 56 130 56c15 0 30 -2 44 -5l-11 -53c-11 3 -22 4 -34 4c-37 0 -69 -14 -89 -43
c-13 -19 -21 -41 -21 -95v-72h273v69c0 70 14 110 38 139c31 37 78 56 130 56c15 0 30 -2 44 -5z" />
    <glyph glyph-name="uniFB03" unicode="ffi" horiz-adv-x="897" 
d="M755 402h-250v-402h-57v402h-263v-402h-57v402h-118v54h118v69c0 70 14 110 38 139c31 37 78 56 130 56c15 0 30 -2 44 -5l-11 -53c-11 3 -22 4 -34 4c-37 0 -69 -14 -89 -43c-13 -19 -21 -41 -21 -95v-72h263v69c0 70 14 110 38 139c31 37 78 56 130 56
c15 0 30 -2 44 -5l-11 -53c-11 3 -22 4 -34 4c-37 0 -69 -14 -89 -43c-13 -19 -21 -41 -21 -95v-72h307v-456h-57v402zM733 614c0 28 22 51 50 51s51 -23 51 -51s-23 -50 -51 -50s-50 22 -50 50z" />
    <glyph glyph-name="uniFB04" unicode="ffl" horiz-adv-x="897" 
d="M755 402h-250v-402h-57v402h-263v-402h-57v402h-118v54h118v69c0 70 14 110 38 139c31 37 78 56 130 56c15 0 30 -2 44 -5l-11 -53c-11 3 -22 4 -34 4c-37 0 -69 -14 -89 -43c-13 -19 -21 -41 -21 -95v-72h263v69c0 70 14 110 38 139c31 37 78 56 130 56
c15 0 30 -2 44 -5l-11 -53c-11 3 -22 4 -34 4c-37 0 -69 -14 -89 -43c-13 -19 -21 -41 -21 -95v-72h250v254h57v-710h-57v402z" />
    <glyph glyph-name=".notdef" horiz-adv-x="530" 
d="M75 0v700h380v-700h-380zM132 646v-592h266v592h-266z" />
    <glyph glyph-name="space" unicode=" " horiz-adv-x="270" 
 />
    <glyph glyph-name="F" unicode="F" horiz-adv-x="490" 
d="M470 643h-320v-228h250v-57h-250v-358h-60v700h380v-57z" />
    <glyph glyph-name="G" unicode="G" horiz-adv-x="730" 
d="M605 135v223h-230v57h290v-295c-60 -77 -162 -130 -270 -130c-209 0 -360 153 -360 360c0 202 149 360 351 360c100 0 193 -40 254 -107l-41 -41c-49 54 -126 91 -213 91c-168 0 -291 -135 -291 -303c0 -170 123 -303 297 -303c85 0 162 35 213 88z" />
    <glyph glyph-name="H" unicode="H" horiz-adv-x="750" 
d="M600 0v358h-450v-358h-60v700h60v-285h450v285h60v-700h-60z" />
    <glyph glyph-name="I" unicode="I" horiz-adv-x="240" 
d="M90 0v700h60v-700h-60z" />
    <glyph glyph-name="J" unicode="J" horiz-adv-x="435" 
d="M0 102l54 22c19 -45 64 -77 116 -77c46 0 86 23 108 60c11 19 17 42 17 85v508h60v-505c0 -58 -11 -95 -31 -124c-33 -50 -90 -81 -154 -81c-76 0 -142 46 -170 112z" />
    <glyph glyph-name="K" unicode="K" horiz-adv-x="610" 
d="M590 0h-80l-360 354v-354h-60v700h60v-314l330 314h80l-346 -331z" />
    <glyph glyph-name="L" unicode="L" horiz-adv-x="500" 
d="M150 700v-643h330v-57h-390v700h60z" />
    <glyph glyph-name="M" unicode="M" horiz-adv-x="834" 
d="M684 554l-247 -414h-40l-247 414v-554h-60v700h40l287 -481l287 481h40v-700h-60v554z" />
    <glyph glyph-name="N" unicode="N" horiz-adv-x="750" 
d="M90 0v700h40l470 -583v583h60v-700h-40l-470 583v-583h-60z" />
    <glyph glyph-name="O" unicode="O" horiz-adv-x="766" 
d="M35 350c0 204 150 360 348 360s348 -156 348 -360s-150 -360 -348 -360s-348 156 -348 360zM95 350c0 -166 119 -303 288 -303s288 137 288 303s-119 303 -288 303s-288 -137 -288 -303z" />
    <glyph glyph-name="P" unicode="P" horiz-adv-x="580" 
d="M349 338h-199v-338h-60v700h259c64 0 106 -16 137 -42c39 -33 64 -83 64 -139s-25 -106 -64 -139c-31 -26 -73 -42 -137 -42zM150 395h196c54 0 85 14 108 37c22 22 36 53 36 87s-14 65 -36 87c-23 23 -54 37 -108 37h-196v-248z" />
    <glyph glyph-name="Q" unicode="Q" horiz-adv-x="771" 
d="M35 350c0 204 150 360 348 360s348 -156 348 -360c0 -92 -31 -175 -83 -238l103 -112h-76l-66 73c-60 -52 -138 -83 -226 -83c-198 0 -348 156 -348 360zM391 314l41 36l176 -193c40 52 63 120 63 193c0 166 -119 303 -288 303s-288 -137 -288 -303s119 -303 288 -303
c74 0 138 26 187 69z" />
    <glyph glyph-name="R" unicode="R" horiz-adv-x="615" 
d="M610 0h-72l-270 358h-118v-358h-60v700h239c64 0 105 -17 136 -45c34 -31 55 -76 55 -126s-21 -95 -55 -126c-29 -27 -67 -43 -125 -45zM150 415h176c50 0 77 11 97 30c23 21 37 51 37 84s-14 63 -37 84c-20 19 -47 30 -97 30h-176v-228z" />
    <glyph glyph-name="S" unicode="S" horiz-adv-x="516" 
d="M35 108l44 39c41 -53 96 -100 188 -100c70 0 144 50 144 131c0 127 -150 141 -252 204c-52 32 -95 73 -95 144c0 109 87 184 199 184c90 0 147 -42 179 -70l-38 -44c-41 36 -81 57 -139 57c-78 0 -141 -48 -141 -124c0 -106 141 -120 241 -182c58 -36 106 -88 106 -169
c0 -111 -90 -188 -204 -188c-93 0 -172 39 -232 118z" />
    <glyph glyph-name="T" unicode="T" horiz-adv-x="500" 
d="M20 700h460v-57h-200v-643h-60v643h-200v57z" />
    <glyph glyph-name="U" unicode="U" horiz-adv-x="720" 
d="M360 -10c-101 0 -190 50 -239 127c-26 41 -41 89 -41 163v420h60v-423c0 -61 11 -98 31 -130c39 -61 109 -100 189 -100s150 39 189 100c20 32 31 69 31 130v423h60v-420c0 -74 -15 -122 -41 -163c-49 -77 -138 -127 -239 -127z" />
    <glyph glyph-name="V" unicode="V" horiz-adv-x="630" 
d="M558 700h62l-285 -700h-40l-285 700h62l243 -600z" />
    <glyph glyph-name="W" unicode="W" horiz-adv-x="942" 
d="M451 700h40l187 -579l188 579h61l-230 -700h-40l-186 575l-186 -575h-40l-230 700h61l188 -579z" />
    <glyph glyph-name="X" unicode="X" horiz-adv-x="610" 
d="M88 0h-68l246 384l-202 316h67l174 -271l174 271h67l-202 -316l246 -384h-68l-217 339z" />
    <glyph glyph-name="Y" unicode="Y" horiz-adv-x="560" 
d="M550 700l-240 -371v-329h-60v329l-240 371h68l202 -313l202 313h68z" />
    <glyph glyph-name="Z" unicode="Z" horiz-adv-x="585" 
d="M40 37l409 606h-379v57h460v-37l-407 -606h427v-57h-510v37z" />
    <glyph glyph-name="bracketleft" unicode="[" horiz-adv-x="425" 
d="M160 -200v900h225v-54h-168v-792h168v-54h-225z" />
    <glyph glyph-name="bracketright" unicode="]" horiz-adv-x="425" 
d="M265 700v-900h-225v54h168v792h-168v54h225z" />
    <glyph glyph-name="AE" unicode="&#xc6;" horiz-adv-x="870" 
d="M820 643h-320v-228h250v-57h-250v-301h330v-57h-390v211h-267l-127 -211h-66l418 700h422v-57zM207 268h233v392z" />
    <glyph glyph-name="OE" unicode="&#x152;" horiz-adv-x="1101" 
d="M1051 643h-320v-228h250v-57h-250v-301h330v-57h-390v145c-60 -94 -166 -155 -288 -155c-198 0 -348 156 -348 360s150 360 348 360c122 0 228 -62 288 -156v146h380v-57zM383 47c169 0 288 137 288 303s-119 303 -288 303s-288 -137 -288 -303s119 -303 288 -303z" />
    <glyph glyph-name="backslash" unicode="\" horiz-adv-x="395" 
d="M390 0h-58l-327 700h58z" />
    <glyph glyph-name="slash" unicode="/" horiz-adv-x="395" 
d="M63 0h-58l327 700h58z" />
    <glyph glyph-name="bar" unicode="|" horiz-adv-x="177" 
d="M60 -200v900h57v-900h-57z" />
    <glyph glyph-name="a" unicode="a" horiz-adv-x="582" 
d="M497 0h-55v67c-34 -46 -93 -77 -164 -77c-43 0 -91 11 -136 43c-60 42 -97 113 -97 195c0 76 33 143 85 187c38 31 90 51 145 51c66 0 126 -27 167 -73v63h55v-456zM440 144v176c-20 34 -80 92 -164 92c-38 0 -78 -13 -110 -39c-40 -33 -64 -86 -64 -145
c0 -63 28 -119 72 -150c29 -20 64 -34 103 -34c67 0 127 38 163 100z" />
    <glyph glyph-name="b" unicode="b" horiz-adv-x="582" 
d="M142 320v-176c36 -62 96 -100 163 -100c39 0 74 14 103 34c44 31 72 87 72 150c0 59 -24 112 -64 145c-32 26 -72 39 -110 39c-84 0 -144 -58 -164 -92zM304 -10c-71 0 -130 31 -164 77v-67h-55v710h57v-315c43 46 102 71 165 71c55 0 107 -20 145 -51
c52 -44 85 -111 85 -187c0 -82 -37 -153 -97 -195c-45 -32 -93 -43 -136 -43z" />
    <glyph glyph-name="c" unicode="c" horiz-adv-x="505" 
d="M434 107l41 -38c-45 -50 -110 -79 -180 -79c-127 0 -245 92 -245 238c0 128 99 238 236 238c76 0 133 -30 174 -71l-36 -41c-34 33 -80 58 -138 58c-96 0 -179 -80 -179 -184c0 -102 80 -184 187 -184c53 0 101 22 140 63z" />
    <glyph glyph-name="d" unicode="d" horiz-adv-x="582" 
d="M440 144v176c-20 34 -80 92 -164 92c-38 0 -78 -13 -110 -39c-40 -33 -64 -86 -64 -145c0 -63 28 -119 72 -150c29 -20 64 -34 103 -34c67 0 127 38 163 100zM278 -10c-43 0 -91 11 -136 43c-60 42 -97 113 -97 195c0 76 33 143 85 187c38 31 90 51 145 51
c63 0 122 -25 165 -71v315h57v-710h-55v67c-34 -46 -93 -77 -164 -77z" />
    <glyph glyph-name="e" unicode="e" horiz-adv-x="520" 
d="M263 412c-81 0 -141 -58 -158 -137h311c-12 80 -74 137 -153 137zM420 112l40 -38c-34 -43 -99 -84 -186 -84c-128 0 -229 96 -229 238c0 131 89 238 218 238c122 0 212 -96 212 -223c0 -4 0 -11 -1 -20h-372c4 -97 67 -179 172 -179c60 0 110 24 146 68z" />
    <glyph glyph-name="f" unicode="f" horiz-adv-x="360" 
d="M340 715l-11 -53c-11 3 -22 4 -34 4c-37 0 -69 -14 -89 -43c-13 -19 -21 -41 -21 -95v-72h155v-54h-155v-402h-57v402h-118v54h118v69c0 70 14 110 38 139c31 37 78 56 130 56c15 0 30 -2 44 -5z" />
    <glyph glyph-name="g" unicode="g" horiz-adv-x="582" 
d="M497 2c0 -67 -6 -111 -25 -147c-33 -62 -98 -105 -198 -105c-87 0 -161 40 -207 109l45 33c34 -54 90 -88 163 -88c77 0 124 33 147 78c14 28 18 61 18 118v65c-34 -44 -91 -75 -162 -75c-43 0 -91 11 -136 43c-60 42 -97 113 -97 195c0 76 33 143 85 187
c38 31 90 51 145 51c66 0 126 -27 167 -73v63h55v-454zM440 144v176c-20 34 -80 92 -164 92c-38 0 -78 -13 -110 -39c-40 -33 -64 -86 -64 -145c0 -63 28 -119 72 -150c29 -20 64 -34 103 -34c67 0 127 38 163 100z" />
    <glyph glyph-name="h" unicode="h" horiz-adv-x="577" 
d="M142 710v-315c36 48 98 71 159 71c66 0 125 -27 162 -77c25 -33 39 -71 39 -146v-243h-57v239c0 60 -10 89 -26 112c-26 38 -69 61 -119 61c-66 0 -123 -35 -158 -95v-317h-57v710h57z" />
    <glyph glyph-name="i" unicode="i" horiz-adv-x="227" 
d="M85 0v456h57v-456h-57zM63 614c0 28 22 51 50 51s51 -23 51 -51s-23 -50 -51 -50s-50 22 -50 50z" />
    <glyph glyph-name="j" unicode="j" horiz-adv-x="270" 
d="M-10 -247l5 53c10 -2 19 -2 25 -2c36 0 70 15 89 43c13 19 19 41 19 95v514h57v-514c0 -71 -12 -108 -36 -137c-29 -35 -76 -55 -126 -55c-11 0 -25 1 -33 3zM106 614c0 28 22 51 50 51s51 -23 51 -51s-23 -50 -51 -50s-50 22 -50 50z" />
    <glyph glyph-name="k" unicode="k" horiz-adv-x="496" 
d="M481 0h-80l-259 241v-241h-57v710h57v-444l233 190h85l-250 -205z" />
    <glyph glyph-name="l" unicode="l" horiz-adv-x="227" 
d="M85 0v710h57v-710h-57z" />
    <glyph glyph-name="m" unicode="m" horiz-adv-x="917" 
d="M140 456v-62c33 43 91 72 154 72c76 0 139 -38 171 -97c32 46 88 97 179 97c75 0 138 -38 171 -96c17 -31 27 -68 27 -129v-241h-57v234c0 64 -10 94 -26 118c-24 36 -65 60 -115 60c-73 0 -129 -51 -157 -106c3 -18 5 -40 5 -65v-241h-57v234c0 64 -10 94 -26 118
c-24 36 -65 60 -115 60c-62 0 -122 -38 -152 -95v-317h-57v456h55z" />
    <glyph glyph-name="n" unicode="n" horiz-adv-x="577" 
d="M140 456v-64c37 49 97 74 161 74c66 0 125 -27 162 -77c25 -33 39 -71 39 -146v-243h-57v239c0 60 -10 89 -26 112c-26 38 -69 61 -119 61c-66 0 -123 -35 -158 -95v-317h-57v456h55z" />
    <glyph glyph-name="o" unicode="o" horiz-adv-x="560" 
d="M458 228c0 102 -75 184 -178 184s-178 -82 -178 -184s75 -184 178 -184s178 82 178 184zM515 228c0 -131 -99 -238 -235 -238s-235 107 -235 238s99 238 235 238s235 -107 235 -238z" />
    <glyph glyph-name="q" unicode="q" horiz-adv-x="582" 
d="M497 -240h-57v305c-34 -44 -91 -75 -162 -75c-43 0 -91 11 -136 43c-60 42 -97 113 -97 195c0 76 33 143 85 187c38 31 90 51 145 51c66 0 126 -27 167 -73v63h55v-696zM440 144v176c-20 34 -80 92 -164 92c-38 0 -78 -13 -110 -39c-40 -33 -64 -86 -64 -145
c0 -63 28 -119 72 -150c29 -20 64 -34 103 -34c67 0 127 38 163 100z" />
    <glyph glyph-name="p" unicode="p" horiz-adv-x="582" 
d="M142 -240h-57v696h55v-63c41 46 101 73 167 73c55 0 107 -20 145 -51c52 -44 85 -111 85 -187c0 -82 -37 -153 -97 -195c-45 -32 -93 -43 -136 -43c-71 0 -128 31 -162 75v-305zM142 320v-176c36 -62 96 -100 163 -100c39 0 74 14 103 34c44 31 72 87 72 150
c0 59 -24 112 -64 145c-32 26 -72 39 -110 39c-84 0 -144 -58 -164 -92z" />
    <glyph glyph-name="r" unicode="r" horiz-adv-x="350" 
d="M320 464l-8 -53c-6 1 -24 1 -27 1c-62 0 -119 -42 -143 -101v-311h-57v456h57v-60c21 32 73 70 144 70c8 0 28 -1 34 -2z" />
    <glyph glyph-name="s" unicode="s" horiz-adv-x="425" 
d="M40 55l35 44c39 -33 87 -55 138 -55c57 0 105 32 105 80c0 117 -263 53 -263 209c0 83 78 133 155 133c62 0 113 -21 147 -44l-30 -47c-39 25 -67 37 -114 37c-48 0 -101 -25 -101 -78c0 -101 263 -47 263 -207c0 -85 -72 -137 -158 -137c-76 0 -137 28 -177 65z" />
    <glyph glyph-name="t" unicode="t" horiz-adv-x="400" 
d="M345 456v-54h-155v-250c0 -41 8 -61 20 -76c16 -20 42 -32 76 -32c13 0 32 1 49 6l10 -52c-15 -5 -41 -8 -59 -8c-42 0 -91 13 -122 52c-20 25 -31 58 -31 112v248h-128v54h128v124h57v-124h155z" />
    <glyph glyph-name="u" unicode="u" horiz-adv-x="567" 
d="M427 0v62c-32 -42 -91 -72 -154 -72c-75 0 -138 36 -171 94c-17 31 -27 68 -27 129v243h57v-234c0 -64 10 -94 26 -118c24 -36 65 -60 115 -60c62 0 122 38 152 95v317h57v-456h-55z" />
    <glyph glyph-name="v" unicode="v" horiz-adv-x="490" 
d="M264 0h-37l-212 456h62l168 -364l168 364h62z" />
    <glyph glyph-name="w" unicode="w" horiz-adv-x="762" 
d="M381 363l-148 -363h-37l-176 456h59l138 -358l146 358h36l146 -358l138 358h59l-176 -456h-37z" />
    <glyph glyph-name="x" unicode="x" horiz-adv-x="462" 
d="M380 0l-149 207l-149 -207h-67l176 245l-151 211h67l124 -173l124 173h67l-151 -211l176 -245h-67z" />
    <glyph glyph-name="y" unicode="y" horiz-adv-x="487" 
d="M156 -240h-60l125 277l-206 419h64l171 -354l161 354h61z" />
    <glyph glyph-name="z" unicode="z" horiz-adv-x="470" 
d="M40 34l304 368h-279v54h365v-34l-305 -368h315v-54h-400v34z" />
    <glyph glyph-name="Adieresis" unicode="&#xc4;" horiz-adv-x="654" 
d="M358 804c0 28 22 51 50 51s51 -23 51 -51s-23 -50 -51 -50s-50 22 -50 50zM195 804c0 28 22 51 50 51s51 -23 51 -51s-23 -50 -51 -50s-50 22 -50 50zM307 700h40l302 -700h-60l-92 211h-340l-92 -211h-60zM327 606l-146 -338h291z" />
    <glyph glyph-name="Aring" unicode="&#xc5;" horiz-adv-x="654" 
d="M237 820c0 50 40 90 90 90s90 -40 90 -90s-40 -90 -90 -90s-90 40 -90 90zM277 820c0 -28 22 -50 50 -50s50 22 50 50s-22 50 -50 50s-50 -22 -50 -50zM307 700h40l302 -700h-60l-92 211h-340l-92 -211h-60zM327 606l-146 -338h291z" />
    <glyph glyph-name="Ccedilla" unicode="&#xc7;" horiz-adv-x="685" 
d="M305 -140l48 132c-187 19 -318 165 -318 358c0 202 149 360 351 360c100 0 193 -40 254 -107l-41 -41c-49 54 -126 91 -213 91c-168 0 -291 -135 -291 -303c0 -170 123 -303 297 -303c96 0 181 46 230 110l43 -38c-59 -76 -158 -127 -264 -129l-21 -130h-75z" />
    <glyph glyph-name="Ntilde" unicode="&#xd1;" horiz-adv-x="750" 
d="M90 0v700h40l470 -583v583h60v-700h-40l-470 583v-583h-60zM277 766l-40 11c1 40 25 83 74 83c51 0 86 -45 124 -45c21 0 34 13 36 45l40 -11c-1 -40 -25 -83 -74 -83c-51 0 -86 45 -124 45c-21 0 -34 -13 -36 -45z" />
    <glyph glyph-name="Odieresis" unicode="&#xd6;" horiz-adv-x="766" 
d="M35 350c0 204 150 360 348 360s348 -156 348 -360s-150 -360 -348 -360s-348 156 -348 360zM95 350c0 -166 119 -303 288 -303s288 137 288 303s-119 303 -288 303s-288 -137 -288 -303zM414 804c0 28 22 51 50 51s51 -23 51 -51s-23 -50 -51 -50s-50 22 -50 50zM251 804
c0 28 22 51 50 51s51 -23 51 -51s-23 -50 -51 -50s-50 22 -50 50z" />
    <glyph glyph-name="Udieresis" unicode="&#xdc;" horiz-adv-x="720" 
d="M360 -10c-101 0 -190 50 -239 127c-26 41 -41 89 -41 163v420h60v-423c0 -61 11 -98 31 -130c39 -61 109 -100 189 -100s150 39 189 100c20 32 31 69 31 130v423h60v-420c0 -74 -15 -122 -41 -163c-49 -77 -138 -127 -239 -127zM391 804c0 28 22 51 50 51s51 -23 51 -51
s-23 -50 -51 -50s-50 22 -50 50zM228 804c0 28 22 51 50 51s51 -23 51 -51s-23 -50 -51 -50s-50 22 -50 50z" />
    <glyph glyph-name="aacute" unicode="&#xe1;" horiz-adv-x="582" 
d="M335 670h75l-95 -140h-45zM497 0h-55v67c-34 -46 -93 -77 -164 -77c-43 0 -91 11 -136 43c-60 42 -97 113 -97 195c0 76 33 143 85 187c38 31 90 51 145 51c66 0 126 -27 167 -73v63h55v-456zM440 144v176c-20 34 -80 92 -164 92c-38 0 -78 -13 -110 -39
c-40 -33 -64 -86 -64 -145c0 -63 28 -119 72 -150c29 -20 64 -34 103 -34c67 0 127 38 163 100z" />
    <glyph glyph-name="agrave" unicode="&#xe0;" horiz-adv-x="582" 
d="M204 670h75l65 -140h-45zM497 0h-55v67c-34 -46 -93 -77 -164 -77c-43 0 -91 11 -136 43c-60 42 -97 113 -97 195c0 76 33 143 85 187c38 31 90 51 145 51c66 0 126 -27 167 -73v63h55v-456zM440 144v176c-20 34 -80 92 -164 92c-38 0 -78 -13 -110 -39
c-40 -33 -64 -86 -64 -145c0 -63 28 -119 72 -150c29 -20 64 -34 103 -34c67 0 127 38 163 100z" />
    <glyph glyph-name="acircumflex" unicode="&#xe2;" horiz-adv-x="582" 
d="M295 624l-85 -94h-45l95 140h70l95 -140h-45zM497 0h-55v67c-34 -46 -93 -77 -164 -77c-43 0 -91 11 -136 43c-60 42 -97 113 -97 195c0 76 33 143 85 187c38 31 90 51 145 51c66 0 126 -27 167 -73v63h55v-456zM440 144v176c-20 34 -80 92 -164 92
c-38 0 -78 -13 -110 -39c-40 -33 -64 -86 -64 -145c0 -63 28 -119 72 -150c29 -20 64 -34 103 -34c67 0 127 38 163 100z" />
    <glyph glyph-name="adieresis" unicode="&#xe4;" horiz-adv-x="582" 
d="M323 594c0 28 22 51 50 51s51 -23 51 -51s-23 -50 -51 -50s-50 22 -50 50zM160 594c0 28 22 51 50 51s51 -23 51 -51s-23 -50 -51 -50s-50 22 -50 50zM497 0h-55v67c-34 -46 -93 -77 -164 -77c-43 0 -91 11 -136 43c-60 42 -97 113 -97 195c0 76 33 143 85 187
c38 31 90 51 145 51c66 0 126 -27 167 -73v63h55v-456zM440 144v176c-20 34 -80 92 -164 92c-38 0 -78 -13 -110 -39c-40 -33 -64 -86 -64 -145c0 -63 28 -119 72 -150c29 -20 64 -34 103 -34c67 0 127 38 163 100z" />
    <glyph glyph-name="atilde" unicode="&#xe3;" horiz-adv-x="582" 
d="M190 556l-40 11c1 40 25 83 74 83c51 0 86 -45 124 -45c21 0 34 13 36 45l40 -11c-1 -40 -25 -83 -74 -83c-51 0 -86 45 -124 45c-21 0 -34 -13 -36 -45zM497 0h-55v67c-34 -46 -93 -77 -164 -77c-43 0 -91 11 -136 43c-60 42 -97 113 -97 195c0 76 33 143 85 187
c38 31 90 51 145 51c66 0 126 -27 167 -73v63h55v-456zM440 144v176c-20 34 -80 92 -164 92c-38 0 -78 -13 -110 -39c-40 -33 -64 -86 -64 -145c0 -63 28 -119 72 -150c29 -20 64 -34 103 -34c67 0 127 38 163 100z" />
    <glyph glyph-name="aring" unicode="&#xe5;" horiz-adv-x="582" 
d="M202 610c0 50 40 90 90 90s90 -40 90 -90s-40 -90 -90 -90s-90 40 -90 90zM242 610c0 -28 22 -50 50 -50s50 22 50 50s-22 50 -50 50s-50 -22 -50 -50zM497 0h-55v67c-34 -46 -93 -77 -164 -77c-43 0 -91 11 -136 43c-60 42 -97 113 -97 195c0 76 33 143 85 187
c38 31 90 51 145 51c66 0 126 -27 167 -73v63h55v-456zM440 144v176c-20 34 -80 92 -164 92c-38 0 -78 -13 -110 -39c-40 -33 -64 -86 -64 -145c0 -63 28 -119 72 -150c29 -20 64 -34 103 -34c67 0 127 38 163 100z" />
    <glyph glyph-name="eacute" unicode="&#xe9;" horiz-adv-x="520" 
d="M304 670h75l-95 -140h-45zM263 412c-81 0 -141 -58 -158 -137h311c-12 80 -74 137 -153 137zM420 112l40 -38c-34 -43 -99 -84 -186 -84c-128 0 -229 96 -229 238c0 131 89 238 218 238c122 0 212 -96 212 -223c0 -4 0 -11 -1 -20h-372c4 -97 67 -179 172 -179
c60 0 110 24 146 68z" />
    <glyph glyph-name="egrave" unicode="&#xe8;" horiz-adv-x="520" 
d="M169 670h75l65 -140h-45zM263 412c-81 0 -141 -58 -158 -137h311c-12 80 -74 137 -153 137zM420 112l40 -38c-34 -43 -99 -84 -186 -84c-128 0 -229 96 -229 238c0 131 89 238 218 238c122 0 212 -96 212 -223c0 -4 0 -11 -1 -20h-372c4 -97 67 -179 172 -179
c60 0 110 24 146 68z" />
    <glyph glyph-name="ecircumflex" unicode="&#xea;" horiz-adv-x="520" 
d="M274 624l-85 -94h-45l95 140h70l95 -140h-45zM263 412c-81 0 -141 -58 -158 -137h311c-12 80 -74 137 -153 137zM420 112l40 -38c-34 -43 -99 -84 -186 -84c-128 0 -229 96 -229 238c0 131 89 238 218 238c122 0 212 -96 212 -223c0 -4 0 -11 -1 -20h-372
c4 -97 67 -179 172 -179c60 0 110 24 146 68z" />
    <glyph glyph-name="edieresis" unicode="&#xeb;" horiz-adv-x="520" 
d="M305 594c0 28 22 51 50 51s51 -23 51 -51s-23 -50 -51 -50s-50 22 -50 50zM142 594c0 28 22 51 50 51s51 -23 51 -51s-23 -50 -51 -50s-50 22 -50 50zM263 412c-81 0 -141 -58 -158 -137h311c-12 80 -74 137 -153 137zM420 112l40 -38c-34 -43 -99 -84 -186 -84
c-128 0 -229 96 -229 238c0 131 89 238 218 238c122 0 212 -96 212 -223c0 -4 0 -11 -1 -20h-372c4 -97 67 -179 172 -179c60 0 110 24 146 68z" />
    <glyph glyph-name="iacute" unicode="&#xed;" horiz-adv-x="227" 
d="M85 0v456h57v-456h-57zM161 670h75l-95 -140h-45z" />
    <glyph glyph-name="dotlessi" unicode="&#x131;" horiz-adv-x="227" 
d="M85 0v456h57v-456h-57z" />
    <glyph glyph-name="igrave" unicode="&#xec;" horiz-adv-x="227" 
d="M85 0v456h57v-456h-57zM-9 670h75l65 -140h-45z" />
    <glyph glyph-name="icircumflex" unicode="&#xee;" horiz-adv-x="227" 
d="M85 0v456h57v-456h-57zM113 624l-85 -94h-45l95 140h70l95 -140h-45z" />
    <glyph glyph-name="idieresis" unicode="&#xef;" horiz-adv-x="227" 
d="M85 0v456h57v-456h-57zM144 594c0 28 22 51 50 51s51 -23 51 -51s-23 -50 -51 -50s-50 22 -50 50zM-19 594c0 28 22 51 50 51s51 -23 51 -51s-23 -50 -51 -50s-50 22 -50 50z" />
    <glyph glyph-name="ntilde" unicode="&#xf1;" horiz-adv-x="577" 
d="M199 556l-40 11c1 40 25 83 74 83c51 0 86 -45 124 -45c21 0 34 13 36 45l40 -11c-1 -40 -25 -83 -74 -83c-51 0 -86 45 -124 45c-21 0 -34 -13 -36 -45zM140 456v-64c37 49 97 74 161 74c66 0 125 -27 162 -77c25 -33 39 -71 39 -146v-243h-57v239c0 60 -10 89 -26 112
c-26 38 -69 61 -119 61c-66 0 -123 -35 -158 -95v-317h-57v456h55z" />
    <glyph glyph-name="oacute" unicode="&#xf3;" horiz-adv-x="560" 
d="M458 228c0 102 -75 184 -178 184s-178 -82 -178 -184s75 -184 178 -184s178 82 178 184zM515 228c0 -131 -99 -238 -235 -238s-235 107 -235 238s99 238 235 238s235 -107 235 -238zM326 670h75l-95 -140h-45z" />
    <glyph glyph-name="ograve" unicode="&#xf2;" horiz-adv-x="560" 
d="M458 228c0 102 -75 184 -178 184s-178 -82 -178 -184s75 -184 178 -184s178 82 178 184zM515 228c0 -131 -99 -238 -235 -238s-235 107 -235 238s99 238 235 238s235 -107 235 -238zM162 670h75l65 -140h-45z" />
    <glyph glyph-name="ocircumflex" unicode="&#xf4;" horiz-adv-x="560" 
d="M458 228c0 102 -75 184 -178 184s-178 -82 -178 -184s75 -184 178 -184s178 82 178 184zM515 228c0 -131 -99 -238 -235 -238s-235 107 -235 238s99 238 235 238s235 -107 235 -238zM280 624l-85 -94h-45l95 140h70l95 -140h-45z" />
    <glyph glyph-name="odieresis" unicode="&#xf6;" horiz-adv-x="560" 
d="M458 228c0 102 -75 184 -178 184s-178 -82 -178 -184s75 -184 178 -184s178 82 178 184zM515 228c0 -131 -99 -238 -235 -238s-235 107 -235 238s99 238 235 238s235 -107 235 -238zM311 594c0 28 22 51 50 51s51 -23 51 -51s-23 -50 -51 -50s-50 22 -50 50zM148 594
c0 28 22 51 50 51s51 -23 51 -51s-23 -50 -51 -50s-50 22 -50 50z" />
    <glyph glyph-name="otilde" unicode="&#xf5;" horiz-adv-x="560" 
d="M458 228c0 102 -75 184 -178 184s-178 -82 -178 -184s75 -184 178 -184s178 82 178 184zM515 228c0 -131 -99 -238 -235 -238s-235 107 -235 238s99 238 235 238s235 -107 235 -238zM183 556l-40 11c1 40 25 83 74 83c51 0 86 -45 124 -45c21 0 34 13 36 45l40 -11
c-1 -40 -25 -83 -74 -83c-51 0 -86 45 -124 45c-21 0 -34 -13 -36 -45z" />
    <glyph glyph-name="uacute" unicode="&#xfa;" horiz-adv-x="567" 
d="M322 670h75l-95 -140h-45zM427 0v62c-32 -42 -91 -72 -154 -72c-75 0 -138 36 -171 94c-17 31 -27 68 -27 129v243h57v-234c0 -64 10 -94 26 -118c24 -36 65 -60 115 -60c62 0 122 38 152 95v317h57v-456h-55z" />
    <glyph glyph-name="ugrave" unicode="&#xf9;" horiz-adv-x="567" 
d="M169 670h75l65 -140h-45zM427 0v62c-32 -42 -91 -72 -154 -72c-75 0 -138 36 -171 94c-17 31 -27 68 -27 129v243h57v-234c0 -64 10 -94 26 -118c24 -36 65 -60 115 -60c62 0 122 38 152 95v317h57v-456h-55z" />
    <glyph glyph-name="ucircumflex" unicode="&#xfb;" horiz-adv-x="567" 
d="M281 624l-85 -94h-45l95 140h70l95 -140h-45zM427 0v62c-32 -42 -91 -72 -154 -72c-75 0 -138 36 -171 94c-17 31 -27 68 -27 129v243h57v-234c0 -64 10 -94 26 -118c24 -36 65 -60 115 -60c62 0 122 38 152 95v317h57v-456h-55z" />
    <glyph glyph-name="udieresis" unicode="&#xfc;" horiz-adv-x="567" 
d="M313 594c0 28 22 51 50 51s51 -23 51 -51s-23 -50 -51 -50s-50 22 -50 50zM150 594c0 28 22 51 50 51s51 -23 51 -51s-23 -50 -51 -50s-50 22 -50 50zM427 0v62c-32 -42 -91 -72 -154 -72c-75 0 -138 36 -171 94c-17 31 -27 68 -27 129v243h57v-234c0 -64 10 -94 26 -118
c24 -36 65 -60 115 -60c62 0 122 38 152 95v317h57v-456h-55z" />
    <glyph glyph-name="dagger" unicode="&#x2020;" horiz-adv-x="505" 
d="M224 -200v596h-174v54h174v250h57v-250h174v-54h-174v-596h-57z" />
    <glyph glyph-name="daggerdbl" unicode="&#x2021;" horiz-adv-x="505" 
d="M50 210h174v186h-174v54h174v250h57v-250h174v-54h-174v-186h174v-54h-174v-356h-57v356h-174v54z" />
    <glyph glyph-name="Agrave" unicode="&#xc0;" horiz-adv-x="654" 
d="M207 880h75l65 -140h-45zM307 700h40l302 -700h-60l-92 211h-340l-92 -211h-60zM327 606l-146 -338h291z" />
    <glyph glyph-name="Atilde" unicode="&#xc3;" horiz-adv-x="654" 
d="M227 766l-40 11c1 40 25 83 74 83c51 0 86 -45 124 -45c21 0 34 13 36 45l40 -11c-1 -40 -25 -83 -74 -83c-51 0 -86 45 -124 45c-21 0 -34 -13 -36 -45zM307 700h40l302 -700h-60l-92 211h-340l-92 -211h-60zM327 606l-146 -338h291z" />
    <glyph glyph-name="Otilde" unicode="&#xd5;" horiz-adv-x="766" 
d="M35 350c0 204 150 360 348 360s348 -156 348 -360s-150 -360 -348 -360s-348 156 -348 360zM95 350c0 -166 119 -303 288 -303s288 137 288 303s-119 303 -288 303s-288 -137 -288 -303zM286 766l-40 11c1 40 25 83 74 83c51 0 86 -45 124 -45c21 0 34 13 36 45l40 -11
c-1 -40 -25 -83 -74 -83c-51 0 -86 45 -124 45c-21 0 -34 -13 -36 -45z" />
    <glyph glyph-name="Ydieresis" unicode="&#x178;" horiz-adv-x="560" 
d="M550 700l-240 -371v-329h-60v329l-240 371h68l202 -313l202 313h68zM311 804c0 28 22 51 50 51s51 -23 51 -51s-23 -50 -51 -50s-50 22 -50 50zM148 804c0 28 22 51 50 51s51 -23 51 -51s-23 -50 -51 -50s-50 22 -50 50z" />
    <glyph glyph-name="ydieresis" unicode="&#xff;" horiz-adv-x="487" 
d="M278 594c0 28 22 51 50 51s51 -23 51 -51s-23 -50 -51 -50s-50 22 -50 50zM115 594c0 28 22 51 50 51s51 -23 51 -51s-23 -50 -51 -50s-50 22 -50 50zM156 -240h-60l125 277l-206 419h64l171 -354l161 354h61z" />
    <glyph glyph-name="Scaron" unicode="&#x160;" horiz-adv-x="516" 
d="M172 890l85 -94l85 94h45l-95 -140h-70l-95 140h45zM35 108l44 39c41 -53 96 -100 188 -100c70 0 144 50 144 131c0 127 -150 141 -252 204c-52 32 -95 73 -95 144c0 109 87 184 199 184c90 0 147 -42 179 -70l-38 -44c-41 36 -81 57 -139 57c-78 0 -141 -48 -141 -124
c0 -106 141 -120 241 -182c58 -36 106 -88 106 -169c0 -111 -90 -188 -204 -188c-93 0 -172 39 -232 118z" />
    <glyph glyph-name="scaron" unicode="&#x161;" horiz-adv-x="425" 
d="M40 55l35 44c39 -33 87 -55 138 -55c57 0 105 32 105 80c0 117 -263 53 -263 209c0 83 78 133 155 133c62 0 113 -21 147 -44l-30 -47c-39 25 -67 37 -114 37c-48 0 -101 -25 -101 -78c0 -101 263 -47 263 -207c0 -85 -72 -137 -158 -137c-76 0 -137 28 -177 65zM122 680
l85 -94l85 94h45l-95 -140h-70l-95 140h45z" />
    <glyph glyph-name="Yacute" unicode="&#xdd;" horiz-adv-x="560" 
d="M550 700l-240 -371v-329h-60v329l-240 371h68l202 -313l202 313h68zM324 880h75l-95 -140h-45z" />
    <glyph glyph-name="yacute" unicode="&#xfd;" horiz-adv-x="487" 
d="M282 670h75l-95 -140h-45zM156 -240h-60l125 277l-206 419h64l171 -354l161 354h61z" />
    <glyph glyph-name="Acircumflex" unicode="&#xc2;" horiz-adv-x="654" 
d="M327 834l-85 -94h-45l95 140h70l95 -140h-45zM307 700h40l302 -700h-60l-92 211h-340l-92 -211h-60zM327 606l-146 -338h291z" />
    <glyph glyph-name="Ecircumflex" unicode="&#xca;" horiz-adv-x="520" 
d="M470 643h-320v-228h250v-57h-250v-301h330v-57h-390v700h380v-57zM285 834l-85 -94h-45l95 140h70l95 -140h-45z" />
    <glyph glyph-name="Aacute" unicode="&#xc1;" horiz-adv-x="654" 
d="M372 880h75l-95 -140h-45zM307 700h40l302 -700h-60l-92 211h-340l-92 -211h-60zM327 606l-146 -338h291z" />
    <glyph glyph-name="Edieresis" unicode="&#xcb;" horiz-adv-x="520" 
d="M470 643h-320v-228h250v-57h-250v-301h330v-57h-390v700h380v-57zM316 804c0 28 22 51 50 51s51 -23 51 -51s-23 -50 -51 -50s-50 22 -50 50zM153 804c0 28 22 51 50 51s51 -23 51 -51s-23 -50 -51 -50s-50 22 -50 50z" />
    <glyph glyph-name="Egrave" unicode="&#xc8;" horiz-adv-x="520" 
d="M470 643h-320v-228h250v-57h-250v-301h330v-57h-390v700h380v-57zM167 880h75l65 -140h-45z" />
    <glyph glyph-name="Iacute" unicode="&#xcd;" horiz-adv-x="240" 
d="M90 0v700h60v-700h-60zM165 880h75l-95 -140h-45z" />
    <glyph glyph-name="Icircumflex" unicode="&#xce;" horiz-adv-x="240" 
d="M90 0v700h60v-700h-60zM120 834l-85 -94h-45l95 140h70l95 -140h-45z" />
    <glyph glyph-name="Idieresis" unicode="&#xcf;" horiz-adv-x="240" 
d="M90 0v700h60v-700h-60zM151 804c0 28 22 51 50 51s51 -23 51 -51s-23 -50 -51 -50s-50 22 -50 50zM-12 804c0 28 22 51 50 51s51 -23 51 -51s-23 -50 -51 -50s-50 22 -50 50z" />
    <glyph glyph-name="Igrave" unicode="&#xcc;" horiz-adv-x="240" 
d="M90 0v700h60v-700h-60zM0 880h75l65 -140h-45z" />
    <glyph glyph-name="Oacute" unicode="&#xd3;" horiz-adv-x="766" 
d="M35 350c0 204 150 360 348 360s348 -156 348 -360s-150 -360 -348 -360s-348 156 -348 360zM95 350c0 -166 119 -303 288 -303s288 137 288 303s-119 303 -288 303s-288 -137 -288 -303zM428 880h76l-96 -140h-46z" />
    <glyph glyph-name="Ocircumflex" unicode="&#xd4;" horiz-adv-x="766" 
d="M35 350c0 204 150 360 348 360s348 -156 348 -360s-150 -360 -348 -360s-348 156 -348 360zM95 350c0 -166 119 -303 288 -303s288 137 288 303s-119 303 -288 303s-288 -137 -288 -303zM383 834l-85 -94h-45l95 140h70l95 -140h-45z" />
    <glyph glyph-name="Ograve" unicode="&#xd2;" horiz-adv-x="766" 
d="M35 350c0 204 150 360 348 360s348 -156 348 -360s-150 -360 -348 -360s-348 156 -348 360zM95 350c0 -166 119 -303 288 -303s288 137 288 303s-119 303 -288 303s-288 -137 -288 -303zM266 880h75l65 -140h-45z" />
    <glyph glyph-name="Uacute" unicode="&#xda;" horiz-adv-x="720" 
d="M360 -10c-101 0 -190 50 -239 127c-26 41 -41 89 -41 163v420h60v-423c0 -61 11 -98 31 -130c39 -61 109 -100 189 -100s150 39 189 100c20 32 31 69 31 130v423h60v-420c0 -74 -15 -122 -41 -163c-49 -77 -138 -127 -239 -127zM403 880h75l-95 -140h-45z" />
    <glyph glyph-name="Ucircumflex" unicode="&#xdb;" horiz-adv-x="720" 
d="M360 -10c-101 0 -190 50 -239 127c-26 41 -41 89 -41 163v420h60v-423c0 -61 11 -98 31 -130c39 -61 109 -100 189 -100s150 39 189 100c20 32 31 69 31 130v423h60v-420c0 -74 -15 -122 -41 -163c-49 -77 -138 -127 -239 -127zM360 834l-85 -94h-45l95 140h70l95 -140
h-45z" />
    <glyph glyph-name="Ugrave" unicode="&#xd9;" horiz-adv-x="720" 
d="M360 -10c-101 0 -190 50 -239 127c-26 41 -41 89 -41 163v420h60v-423c0 -61 11 -98 31 -130c39 -61 109 -100 189 -100s150 39 189 100c20 32 31 69 31 130v423h60v-420c0 -74 -15 -122 -41 -163c-49 -77 -138 -127 -239 -127zM242 880h75l65 -140h-45z" />
    <glyph glyph-name="period" unicode="." horiz-adv-x="304" 
d="M110 42c0 29 23 52 52 52s52 -23 52 -52s-23 -52 -52 -52s-52 23 -52 52z" />
    <glyph glyph-name="E" unicode="E" horiz-adv-x="520" 
d="M470 643h-320v-228h250v-57h-250v-301h330v-57h-390v700h380v-57z" />
    <glyph glyph-name="ellipsis" unicode="&#x2026;" horiz-adv-x="824" 
d="M110 42c0 29 23 52 52 52s52 -23 52 -52s-23 -52 -52 -52s-52 23 -52 52zM370 42c0 29 23 52 52 52s52 -23 52 -52s-23 -52 -52 -52s-52 23 -52 52zM630 42c0 29 23 52 52 52s52 -23 52 -52s-23 -52 -52 -52s-52 23 -52 52z" />
    <glyph glyph-name="periodcentered" unicode="&#xb7;" horiz-adv-x="304" 
d="M100 228c0 29 23 52 52 52s52 -23 52 -52s-23 -52 -52 -52s-52 23 -52 52z" />
    <glyph glyph-name="hyphen" unicode="-" horiz-adv-x="420" 
d="M80 274h260v-49h-260v49z" />
    <glyph glyph-name="endash" unicode="&#x2013;" horiz-adv-x="450" 
d="M20 274h410v-49h-410v49z" />
    <glyph glyph-name="emdash" unicode="&#x2014;" horiz-adv-x="750" 
d="M20 274h710v-49h-710v49z" />
    <glyph glyph-name="dieresis" unicode="&#xa8;" horiz-adv-x="404" 
d="M233 594c0 28 22 51 50 51s51 -23 51 -51s-23 -50 -51 -50s-50 22 -50 50zM70 594c0 28 22 51 50 51s51 -23 51 -51s-23 -50 -51 -50s-50 22 -50 50z" />
    <glyph glyph-name="acute" unicode="&#xb4;" horiz-adv-x="280" 
d="M135 670h75l-95 -140h-45z" />
    <glyph glyph-name="grave" unicode="`" horiz-adv-x="280" 
d="M70 670h75l65 -140h-45z" />
    <glyph glyph-name="dotaccent" unicode="&#x2d9;" horiz-adv-x="241" 
d="M70 614c0 28 22 51 50 51s51 -23 51 -51s-23 -50 -51 -50s-50 22 -50 50z" />
    <glyph glyph-name="colon" unicode=":" horiz-adv-x="304" 
d="M110 42c0 29 23 52 52 52s52 -23 52 -52s-23 -52 -52 -52s-52 23 -52 52zM110 414c0 29 23 52 52 52s52 -23 52 -52s-23 -52 -52 -52s-52 23 -52 52z" />
    <glyph glyph-name="semicolon" unicode=";" horiz-adv-x="304" 
d="M56 -140l71 240h75l-96 -240h-50zM110 414c0 29 23 52 52 52s52 -23 52 -52s-23 -52 -52 -52s-52 23 -52 52z" />
    <glyph glyph-name="comma" unicode="," horiz-adv-x="304" 
d="M56 -140l71 240h75l-96 -240h-50z" />
    <glyph glyph-name="brokenbar" unicode="&#xa6;" horiz-adv-x="217" 
d="M80 -200v390h57v-390h-57zM80 310v390h57v-390h-57z" />
    <glyph glyph-name="bullet" unicode="&#x2022;" horiz-adv-x="520" 
d="M80 228c0 99 81 180 180 180s180 -81 180 -180s-81 -180 -180 -180s-180 81 -180 180z" />
    <glyph glyph-name="underscore" unicode="_" horiz-adv-x="450" 
d="M20 0h410v-49h-410v49z" />
    <glyph glyph-name="Zcaron" unicode="&#x17d;" horiz-adv-x="585" 
d="M40 37l409 606h-379v57h460v-37l-407 -606h427v-57h-510v37zM211 890l85 -94l85 94h45l-95 -140h-70l-95 140h45z" />
    <glyph glyph-name="zcaron" unicode="&#x17e;" horiz-adv-x="470" 
d="M40 34l304 368h-279v54h365v-34l-305 -368h315v-54h-400v34zM175 680l85 -94l85 94h45l-95 -140h-70l-95 140h45z" />
    <glyph glyph-name="guillemotleft" unicode="&#xab;" horiz-adv-x="535" 
d="M424 420h71l-158 -185l158 -185h-71l-144 168v34zM224 420h71l-158 -185l158 -185h-71l-144 168v34z" />
    <glyph glyph-name="guilsinglleft" unicode="&#x2039;" horiz-adv-x="335" 
d="M224 420h71l-158 -185l158 -185h-71l-144 168v34z" />
    <glyph glyph-name="guilsinglright" unicode="&#x203a;" horiz-adv-x="335" 
d="M40 420h71l144 -168v-34l-144 -168h-71l158 185z" />
    <glyph glyph-name="quotesingle" unicode="'" horiz-adv-x="217" 
d="M90 446l-10 254h57l-10 -254h-37z" />
    <glyph glyph-name="quotesinglbase" unicode="&#x201a;" horiz-adv-x="266" 
d="M60 -140l71 240h75l-96 -240h-50z" />
    <glyph glyph-name="quoteright" unicode="&#x2019;" horiz-adv-x="266" 
d="M60 460l71 240h75l-96 -240h-50z" />
    <glyph glyph-name="quoteleft" unicode="&#x2018;" horiz-adv-x="266" 
d="M206 700l-71 -240h-75l96 240h50z" />
    <glyph glyph-name="quotedblleft" unicode="&#x201c;" horiz-adv-x="456" 
d="M396 700l-71 -240h-75l96 240h50zM206 700l-71 -240h-75l96 240h50z" />
    <glyph glyph-name="quotedblright" unicode="&#x201d;" horiz-adv-x="456" 
d="M60 460l71 240h75l-96 -240h-50zM250 460l71 240h75l-96 -240h-50z" />
    <glyph glyph-name="quotedblbase" unicode="&#x201e;" horiz-adv-x="456" 
d="M60 -140l71 240h75l-96 -240h-50zM250 -140l71 240h75l-96 -240h-50z" />
    <glyph glyph-name="circumflex" unicode="&#x2c6;" horiz-adv-x="400" 
d="M200 624l-85 -94h-45l95 140h70l95 -140h-45z" />
    <glyph glyph-name="caron" unicode="&#x2c7;" horiz-adv-x="400" 
d="M115 680l85 -94l85 94h45l-95 -140h-70l-95 140h45z" />
    <glyph glyph-name="quotedbl" unicode="&#x22;" horiz-adv-x="410" 
d="M90 446l-10 254h57l-10 -254h-37zM283 446l-10 254h57l-10 -254h-37z" />
    <glyph glyph-name="one" unicode="1" horiz-adv-x="375" 
d="M55 546v60l155 94h40v-700h-60v621z" />
    <glyph glyph-name="A" unicode="A" horiz-adv-x="654" 
d="M307 700h40l302 -700h-60l-92 211h-340l-92 -211h-60zM327 606l-146 -338h291z" />
    <glyph glyph-name="tilde" unicode="&#x2dc;" horiz-adv-x="414" 
d="M110 556l-40 11c1 40 25 83 74 83c51 0 86 -45 124 -45c21 0 34 13 36 45l40 -11c-1 -40 -25 -83 -74 -83c-51 0 -86 45 -124 45c-21 0 -34 -13 -36 -45z" />
    <glyph glyph-name="ring" unicode="&#x2da;" horiz-adv-x="320" 
d="M70 610c0 50 40 90 90 90s90 -40 90 -90s-40 -90 -90 -90s-90 40 -90 90zM110 610c0 -28 22 -50 50 -50s50 22 50 50s-22 50 -50 50s-50 -22 -50 -50z" />
    <glyph glyph-name="oe" unicode="&#x153;" horiz-adv-x="934" 
d="M833 112l40 -38c-34 -43 -99 -84 -186 -84c-91 0 -164 48 -202 126c-36 -75 -109 -126 -205 -126c-136 0 -235 107 -235 238s99 238 235 238c95 0 166 -51 204 -125c34 74 103 125 192 125c122 0 212 -96 212 -223c0 -4 0 -11 -1 -20h-372c4 -97 67 -179 172 -179
c60 0 110 24 146 68zM458 228c0 102 -75 184 -178 184s-178 -82 -178 -184s75 -184 178 -184s178 82 178 184zM676 412c-81 0 -141 -58 -158 -137h311c-12 80 -74 137 -153 137z" />
    <glyph glyph-name="parenleft" unicode="(" horiz-adv-x="425" 
d="M217 250c0 -160 51 -307 138 -427l-46 -33c-94 129 -149 288 -149 460s55 331 149 460l46 -33c-87 -120 -138 -267 -138 -427z" />
    <glyph glyph-name="thorn" unicode="&#xfe;" horiz-adv-x="582" 
d="M142 320v-176c36 -62 96 -100 163 -100c39 0 74 14 103 34c44 31 72 87 72 150c0 59 -24 112 -64 145c-32 26 -72 39 -110 39c-84 0 -144 -58 -164 -92zM85 -240v950h57v-315c43 46 102 71 165 71c55 0 107 -20 145 -51c52 -44 85 -111 85 -187c0 -82 -37 -153 -97 -195
c-45 -32 -93 -43 -136 -43c-71 0 -128 31 -162 75v-305h-57z" />
    <glyph glyph-name="parenright" unicode=")" horiz-adv-x="425" 
d="M208 250c0 160 -51 307 -138 427l46 33c94 -129 149 -288 149 -460s-55 -331 -149 -460l-46 33c87 120 138 267 138 427z" />
    <glyph glyph-name="two" unicode="2" horiz-adv-x="520" 
d="M99 531l-54 19c20 89 93 160 195 160c117 0 200 -84 200 -197c0 -62 -24 -114 -82 -184l-225 -272h317v-57h-410v37l268 322c57 68 72 111 72 152c0 82 -58 142 -138 142c-75 0 -126 -49 -143 -122z" />
    <glyph glyph-name="three" unicode="3" horiz-adv-x="548" 
d="M40 100l48 31c32 -51 89 -84 162 -84c105 0 173 83 173 178c0 102 -80 178 -186 178c-38 0 -62 -7 -71 -10v37l185 213h-278v57h370v-37l-178 -206c126 -9 218 -109 218 -232c0 -126 -95 -235 -233 -235c-92 0 -168 41 -210 110z" />
    <glyph glyph-name="four" unicode="4" 
d="M370 0v180h-355v37l375 483h40v-463h115v-57h-115v-180h-60zM104 237h266v343z" />
    <glyph glyph-name="five" unicode="5" horiz-adv-x="545" 
d="M126 700h330v-57h-280l-29 -206c29 14 62 23 98 23c133 0 235 -105 235 -235c0 -129 -101 -235 -233 -235c-82 0 -155 41 -197 103l47 32c32 -46 86 -78 149 -78c102 0 174 82 174 178c0 98 -77 178 -178 178c-48 0 -92 -20 -124 -49l-40 6z" />
    <glyph glyph-name="six" unicode="6" horiz-adv-x="575" 
d="M387 700l-168 -259c21 7 45 11 72 11c134 0 229 -104 229 -231c0 -131 -100 -231 -233 -231c-133 1 -232 103 -232 227c0 63 25 114 49 151l215 332h68zM287 395c-50 0 -95 -19 -129 -50c-19 -31 -43 -70 -43 -124c0 -97 73 -174 174 -174c97 0 171 76 171 174
c0 99 -72 174 -173 174z" />
    <glyph glyph-name="seven" unicode="7" horiz-adv-x="520" 
d="M50 643v57h430v-37l-317 -663h-63l308 643h-358z" />
    <glyph glyph-name="eight" unicode="8" 
d="M285 -10c-132 0 -230 90 -230 213c0 82 47 154 121 190c-47 31 -76 82 -76 141c0 97 78 176 185 176s185 -79 185 -176c0 -59 -29 -110 -76 -141c74 -36 121 -108 121 -190c0 -123 -98 -213 -230 -213zM285 653c-73 0 -125 -53 -125 -119c0 -65 51 -116 125 -118
c74 2 125 53 125 118c0 66 -52 119 -125 119zM285 47c100 0 170 70 170 156s-70 156 -170 156s-170 -70 -170 -156s70 -156 170 -156z" />
    <glyph glyph-name="zero" unicode="0" horiz-adv-x="590" 
d="M120 350c0 -173 45 -303 175 -303s175 130 175 303s-45 303 -175 303s-175 -130 -175 -303zM60 350c0 207 63 360 235 360s235 -153 235 -360s-63 -360 -235 -360s-235 153 -235 360z" />
    <glyph glyph-name="nine" unicode="9" horiz-adv-x="575" 
d="M188 0l168 259c-21 -7 -45 -11 -72 -11c-134 0 -229 104 -229 231c0 131 100 231 233 231c133 -1 232 -103 232 -227c0 -63 -25 -114 -49 -151l-215 -332h-68zM288 305c50 0 95 19 129 50c19 31 43 70 43 124c0 97 -73 174 -174 174c-97 0 -171 -76 -171 -174
c0 -99 72 -174 173 -174z" />
    <glyph glyph-name="Thorn" unicode="&#xde;" horiz-adv-x="580" 
d="M90 700h60v-169h199c64 0 106 -16 137 -42c39 -33 64 -83 64 -139s-25 -106 -64 -139c-31 -26 -73 -42 -137 -42h-199v-169h-60v700zM150 226h196c54 0 85 14 108 37c22 22 36 53 36 87s-14 65 -36 87c-23 23 -54 37 -108 37h-196v-248z" />
    <glyph glyph-name="ccedilla" unicode="&#xe7;" horiz-adv-x="500" 
d="M429 107l41 -38c-41 -47 -98 -73 -161 -78l-21 -131h-75l48 132c-116 12 -216 101 -216 236c0 128 99 238 236 238c76 0 133 -30 174 -71l-36 -41c-34 33 -80 58 -138 58c-96 0 -179 -80 -179 -184c0 -102 80 -184 187 -184c53 0 101 22 140 63z" />
    <glyph glyph-name="Oslash" unicode="&#xd8;" horiz-adv-x="766" 
d="M35 350c0 204 150 360 348 360c68 0 131 -19 183 -51l36 51h66l-59 -83c75 -65 122 -164 122 -277c0 -204 -150 -360 -348 -360c-69 0 -131 18 -184 51l-36 -51h-65l58 83c-75 65 -121 164 -121 277zM671 350c0 91 -36 172 -96 228l-343 -489c43 -27 94 -42 151 -42
c169 0 288 137 288 303zM95 350c0 -91 35 -172 95 -228l343 489c-43 27 -94 42 -150 42c-169 0 -288 -137 -288 -303z" />
    <glyph glyph-name="dollar" unicode="$" horiz-adv-x="516" 
d="M35 108l44 39c41 -53 96 -100 188 -100c70 0 144 50 144 131c0 127 -150 141 -252 204c-52 32 -95 73 -95 144c0 98 70 169 166 182v107h57v-106c76 -7 126 -44 155 -69l-38 -44c-41 36 -81 57 -139 57c-78 0 -141 -48 -141 -124c0 -106 141 -120 241 -182
c58 -36 106 -88 106 -169c0 -105 -80 -178 -184 -187v-106h-57v107c-77 9 -143 47 -195 116z" />
    <glyph glyph-name="Eth" unicode="&#xd0;" horiz-adv-x="705" 
d="M-10 358v57h100v285h200c111 0 184 -24 241 -66c86 -64 139 -168 139 -284s-53 -220 -139 -284c-57 -42 -130 -66 -241 -66h-200v358h-100zM610 350c0 94 -41 180 -110 234c-50 39 -115 59 -213 59h-137v-228h200v-57h-200v-301h137c98 0 163 20 213 59
c69 54 110 140 110 234z" />
    <glyph glyph-name="oslash" unicode="&#xf8;" horiz-adv-x="560" 
d="M515 228c0 -131 -99 -238 -235 -238c-43 0 -82 11 -116 29l-20 -29h-64l41 60c-48 43 -76 107 -76 178c0 131 99 238 235 238c43 0 82 -11 115 -30l21 30h64l-42 -60c48 -44 77 -108 77 -178zM102 228c0 -53 20 -100 53 -134l207 298c-24 13 -52 20 -82 20
c-103 0 -178 -82 -178 -184zM458 228c0 52 -20 100 -54 133l-206 -298c24 -12 52 -19 82 -19c103 0 178 82 178 184z" />
    <glyph glyph-name="cent" unicode="&#xa2;" horiz-adv-x="500" 
d="M429 107l41 -38c-41 -46 -98 -73 -160 -78v-106h-57v108c-112 16 -208 103 -208 235c0 119 85 222 208 236v117h57v-117c61 -6 109 -34 145 -69l-36 -41c-34 33 -80 58 -138 58c-96 0 -179 -80 -179 -184c0 -102 80 -184 187 -184c53 0 101 22 140 63z" />
    <glyph glyph-name="paragraph" unicode="&#xb6;" horiz-adv-x="655" 
d="M265 700h340v-54h-100v-846h-57v846h-146v-846h-57v470c-119 0 -215 96 -215 215c0 94 61 174 145 203c22 8 45 12 90 12zM87 485c0 -89 70 -161 158 -161v322c-88 0 -158 -72 -158 -161z" />
    <glyph glyph-name="section" unicode="&#xa7;" horiz-adv-x="580" 
d="M520 207c0 -64 -33 -116 -81 -150c27 -25 44 -59 44 -109c0 -106 -91 -178 -199 -178c-90 0 -147 42 -179 70l37 43c41 -36 82 -56 140 -56c77 0 141 47 141 121c0 78 -75 105 -155 130c-99 31 -208 71 -208 195c0 64 33 115 81 149c-27 26 -44 60 -44 110
c0 106 91 178 199 178c90 0 147 -42 179 -70l-37 -43c-41 36 -82 56 -140 56c-77 0 -141 -47 -141 -121c0 -78 75 -105 155 -130c99 -31 208 -71 208 -195zM319 340c-42 14 -86 27 -125 46c-40 -23 -75 -62 -75 -113c0 -74 68 -107 142 -133c41 -14 86 -28 124 -47
c41 23 76 62 76 114c0 74 -68 108 -142 133z" />
    <glyph glyph-name="sterling" unicode="&#xa3;" horiz-adv-x="515" 
d="M55 337v54h84c-19 44 -38 88 -38 135c0 109 80 183 183 184c85 0 140 -51 166 -95l-46 -32c-18 31 -52 73 -120 73c-53 0 -126 -39 -126 -130c0 -42 22 -86 43 -135h128v-54h-108c10 -30 17 -61 17 -95c0 -100 -48 -160 -74 -188h321v-54h-450v34c82 31 146 109 146 209
c0 33 -9 64 -20 94h-106z" />
    <glyph glyph-name="ae" unicode="&#xe6;" horiz-adv-x="915" 
d="M495 0h-53v67c-34 -46 -93 -77 -164 -77c-43 0 -91 11 -136 43c-60 42 -97 113 -97 195c0 76 33 143 85 187c38 31 90 51 145 51c66 0 126 -27 167 -73v63h53v-70c37 49 93 80 163 80c122 0 212 -96 212 -223c0 -4 0 -11 -1 -20h-372c4 -97 67 -179 172 -179
c60 0 110 24 146 68l40 -38c-34 -43 -99 -84 -186 -84c-73 0 -133 31 -174 84v-74zM440 144v176c-20 34 -80 92 -164 92c-38 0 -78 -13 -110 -39c-40 -33 -64 -86 -64 -145c0 -63 28 -119 72 -150c29 -20 64 -34 103 -34c67 0 127 38 163 100zM658 412
c-81 0 -141 -58 -158 -137h311c-12 80 -74 137 -153 137z" />
    <glyph glyph-name="yen" unicode="&#xa5;" horiz-adv-x="560" 
d="M550 700l-159 -245h109v-54h-144l-46 -72v-29h190v-54h-190v-246h-60v246h-190v54h190v29l-47 72h-143v54h108l-158 245h68l202 -313l202 313h68z" />
    <glyph glyph-name="degree" unicode="&#xb0;" horiz-adv-x="390" 
d="M40 555c0 86 69 155 155 155s155 -69 155 -155s-69 -155 -155 -155s-155 69 -155 155zM91 555c0 -57 46 -103 103 -103s104 46 104 103s-47 104 -104 104s-103 -47 -103 -104z" />
    <glyph glyph-name="germandbls" unicode="&#xdf;" 
d="M196 21l30 45c24 -14 52 -22 83 -22c91 0 159 70 159 158c0 53 -24 99 -63 128c-26 19 -59 31 -116 31h-39v54h22c82 0 131 55 131 125s-49 126 -131 126c-44 0 -79 -16 -101 -42c-19 -22 -29 -52 -29 -114v-510h-57v510c0 78 17 122 47 154c33 35 81 56 140 56
c114 0 188 -81 188 -180c0 -57 -23 -107 -65 -140c79 -32 130 -109 130 -198c0 -118 -90 -212 -213 -212c-42 0 -86 10 -116 31z" />
    <glyph glyph-name="cedilla" unicode="&#xb8;" horiz-adv-x="240" 
d="M70 -140l55 150h45l-25 -150h-75z" />
    <glyph glyph-name="ampersand" unicode="&#x26;" horiz-adv-x="636" 
d="M525 134l141 -134h-79l-93 89c-50 -59 -125 -99 -224 -99c-136 0 -250 89 -250 211c0 99 65 164 137 209c-49 48 -83 101 -83 158c0 75 56 142 146 142s146 -67 146 -142c0 -76 -59 -128 -120 -166l237 -227c17 37 26 79 26 118c0 50 -10 95 -15 118l56 13
c8 -32 16 -82 16 -131c0 -55 -14 -111 -41 -159zM77 201c0 -84 80 -157 193 -157c85 0 145 34 183 83l-254 244c-77 -49 -122 -100 -122 -170zM309 568c0 52 -39 88 -89 88s-89 -36 -89 -88c0 -44 32 -86 64 -117l11 -11c51 34 103 73 103 128z" />
    <glyph glyph-name="exclam" unicode="!" horiz-adv-x="240" 
d="M102 210l-10 246v244h57v-244l-10 -246h-37zM68 42c0 29 23 52 52 52s52 -23 52 -52s-23 -52 -52 -52s-52 23 -52 52z" />
    <glyph glyph-name="exclamdown" unicode="&#xa1;" horiz-adv-x="240" 
d="M92 4l10 246h37l10 -246v-244h-57v244zM68 414c0 29 23 52 52 52s52 -23 52 -52s-23 -52 -52 -52s-52 23 -52 52z" />
    <glyph glyph-name="numbersign" unicode="#" horiz-adv-x="630" 
d="M551 700l-60 -220h99v-54h-113l-40 -152h99v-54h-114l-59 -220h-57l60 220h-170l-60 -220h-57l60 220h-99v54h113l40 152h-99v54h114l59 220h57l-59 -220h170l59 220h57zM250 426l-40 -152h170l40 152h-170z" />
    <glyph glyph-name="macron" unicode="&#xaf;" horiz-adv-x="420" 
d="M70 626h280v-50h-280v50z" />
    <glyph glyph-name="asciitilde" unicode="~" horiz-adv-x="520" 
d="M87 196l-47 23c19 66 60 108 122 108c82 0 136 -88 194 -88c43 0 63 36 77 77l47 -23c-19 -66 -60 -108 -122 -108c-82 0 -136 88 -194 88c-43 0 -63 -36 -77 -77z" />
    <glyph glyph-name="asciicircum" unicode="^" horiz-adv-x="451" 
d="M30 350l177 350h37l177 -350h-59l-137 266l-136 -266h-59z" />
    <glyph glyph-name="asterisk" unicode="*" horiz-adv-x="494" 
d="M453 532l-168 -53l103 -142l-40 -29l-102 141l-103 -141l-40 29l102 140l-165 55l15 47l166 -54v175h50v-175l166 54z" />
    <glyph glyph-name="plus" unicode="+" horiz-adv-x="530" 
d="M475 229h-183v-183h-54v183h-183v54h183v183h54v-183h183v-54z" />
    <glyph glyph-name="minus" unicode="&#x2212;" horiz-adv-x="530" 
d="M475 229h-420v54h420v-54z" />
    <glyph glyph-name="equal" unicode="=" horiz-adv-x="530" 
d="M475 317h-420v54h420v-54zM475 141h-420v54h420v-54z" />
    <glyph glyph-name="approxequal" unicode="&#x2248;" horiz-adv-x="520" 
d="M87 109l-47 23c19 66 60 108 122 108c82 0 136 -88 194 -88c43 0 63 36 77 77l47 -23c-19 -66 -60 -108 -122 -108c-82 0 -136 88 -194 88c-43 0 -63 -36 -77 -77zM87 283l-47 23c19 66 60 108 122 108c82 0 136 -88 194 -88c43 0 63 36 77 77l47 -23
c-19 -66 -60 -108 -122 -108c-82 0 -136 88 -194 88c-43 0 -63 -36 -77 -77z" />
    <glyph glyph-name="Lslash" unicode="&#x141;" horiz-adv-x="500" 
d="M150 700v-265l150 87v-63l-150 -87v-315h330v-57h-390v338l-100 -58v63l100 58v299h60z" />
    <glyph glyph-name="lslash" unicode="&#x142;" horiz-adv-x="227" 
d="M85 0v338l-100 -58v62l100 57v311h57v-278l100 58v-61l-100 -58v-371h-57z" />
    <glyph glyph-name="logicalnot" unicode="&#xac;" horiz-adv-x="530" 
d="M421 141v176h-366v54h420v-230h-54z" />
    <glyph glyph-name="Delta" unicode="&#x2206;" horiz-adv-x="579" 
d="M308 700l256 -666v-34h-549v34l256 666h37zM289 594l-209 -540h419z" />
    <glyph glyph-name="notequal" unicode="&#x2260;" horiz-adv-x="530" 
d="M423 476l-61 -105h113v-54h-144l-70 -122h214v-54h-245l-60 -105h-63l60 105h-112v54h143l70 122h-213v54h244l61 105h63z" />
    <glyph glyph-name="multiply" unicode="&#xd7;" horiz-adv-x="528" 
d="M415 67l-151 151l-151 -151l-38 38l151 151l-151 151l38 38l151 -151l151 151l38 -38l-151 -151l151 -151z" />
    <glyph glyph-name="fraction" unicode="&#x2044;" horiz-adv-x="470" 
d="M57 0h-52l408 700h52z" />
    <glyph glyph-name="mu" unicode="&#xb5;" horiz-adv-x="577" 
d="M283 -10c-57 0 -108 22 -141 65v-295h-57v696h57v-234c0 -64 10 -94 26 -118c24 -36 65 -60 115 -60c62 0 122 38 152 95v317h57v-456h-55v62c-32 -42 -91 -72 -154 -72z" />
    <glyph glyph-name="divide" unicode="&#xf7;" horiz-adv-x="530" 
d="M475 229h-420v54h420v-54zM215 426c0 28 22 50 50 50s50 -22 50 -50s-22 -50 -50 -50s-50 22 -50 50zM215 86c0 28 22 50 50 50s50 -22 50 -50s-22 -50 -50 -50s-50 22 -50 50z" />
    <glyph glyph-name="partialdiff" unicode="&#x2202;" horiz-adv-x="560" 
d="M350 456l-168 254h66l205 -308c34 -52 62 -109 62 -175c0 -129 -98 -237 -235 -237c-135 0 -235 105 -235 238s99 238 239 238c22 0 45 -4 66 -10zM406 369c-29 24 -74 43 -122 43c-108 0 -182 -80 -182 -184c0 -102 75 -184 178 -184s178 82 178 184
c0 58 -26 111 -52 141z" />
    <glyph glyph-name="eth" unicode="&#xf0;" horiz-adv-x="560" 
d="M245 614l-63 96h66l45 -68l118 68l27 -45l-116 -67l131 -196c34 -52 62 -109 62 -175c0 -129 -98 -237 -235 -237c-135 0 -235 105 -235 238s99 238 239 238c22 0 45 -4 66 -10l-76 114l-120 -70l-28 46zM406 369c-29 24 -74 43 -122 43c-108 0 -182 -80 -182 -184
c0 -102 75 -184 178 -184s178 82 178 184c0 58 -26 111 -52 141z" />
    <glyph glyph-name="percent" unicode="%" horiz-adv-x="890" 
d="M355 531c0 71 -52 129 -122 129c-68 0 -120 -58 -120 -129s52 -129 120 -129c70 0 122 58 122 129zM60 531c0 99 74 179 174 179s174 -80 174 -179s-74 -179 -174 -179s-174 80 -174 179zM777 169c0 71 -52 129 -122 129c-68 0 -120 -58 -120 -129s52 -129 120 -129
c70 0 122 58 122 129zM482 169c0 99 74 179 174 179s174 -80 174 -179s-74 -179 -174 -179s-174 80 -174 179zM267 0h-52l408 700h52z" />
    <glyph glyph-name="summation" unicode="&#x2211;" horiz-adv-x="555" 
d="M448 510v136h-335l269 -267v-34l-283 -291h359v136h57v-190h-510v34l317 327l-307 305v34h490v-190h-57z" />
    <glyph glyph-name="product" unicode="&#x220f;" horiz-adv-x="550" 
d="M373 0v646h-196v-646h-57v646h-100v54h510v-54h-100v-646h-57z" />
    <glyph glyph-name="pi" unicode="&#x3c0;" horiz-adv-x="530" 
d="M53 327l-48 29c19 31 48 63 93 82c27 11 59 18 106 18h321v-54h-100v-271c0 -19 1 -39 8 -57c6 -15 17 -28 32 -39l-32 -45c-14 11 -36 29 -50 58c-9 19 -15 43 -15 92v262h-156v-402h-57v397c-41 -3 -77 -28 -102 -70z" />
    <glyph glyph-name="integral" unicode="&#x222b;" horiz-adv-x="511" 
d="M278 520c-46 -234 -46 -361 -91 -591c-12 -62 -36 -114 -78 -146c-29 -22 -68 -33 -113 -33c-31 0 -61 6 -86 17l20 52c17 -9 41 -15 66 -15c80 0 119 43 137 136c46 234 46 361 91 591c12 62 36 114 78 146c29 22 68 33 113 33c31 0 61 -6 86 -17l-20 -52
c-17 9 -41 15 -66 15c-80 0 -119 -43 -137 -136z" />
    <glyph glyph-name="plusminus" unicode="&#xb1;" horiz-adv-x="530" 
d="M475 271h-183v-161h-54v161h-183v54h183v161h54v-161h183v-54zM475 26h-420v54h420v-54z" />
    <glyph glyph-name="florin" unicode="&#x192;" horiz-adv-x="511" 
d="M278 520c-9 -47 -17 -89 -23 -129h157v-54h-165c-19 -134 -28 -246 -60 -408c-12 -62 -36 -114 -78 -146c-29 -22 -68 -33 -113 -33c-31 0 -61 6 -86 17l20 52c17 -9 41 -15 66 -15c80 0 119 43 137 136c31 160 41 270 59 397h-143v54h150c7 43 15 89 25 140
c12 62 36 114 78 146c29 22 68 33 113 33c31 0 61 -6 86 -17l-20 -52c-17 9 -41 15 -66 15c-80 0 -119 -43 -137 -136z" />
    <glyph glyph-name="question" unicode="?" horiz-adv-x="500" 
d="M124 559l-54 16c20 78 98 135 195 135c115 0 200 -81 200 -180c0 -82 -50 -131 -98 -166c-50 -37 -104 -59 -104 -91c0 -17 18 -38 34 -53l-42 -40c-35 35 -49 58 -49 93c0 68 74 93 131 136c37 28 71 66 71 121c0 70 -59 126 -143 126c-72 0 -128 -41 -141 -97zM208 42
c0 29 23 52 52 52s52 -23 52 -52s-23 -52 -52 -52s-52 23 -52 52z" />
    <glyph glyph-name="questiondown" unicode="&#xbf;" horiz-adv-x="500" 
d="M376 -99l54 -16c-20 -78 -98 -135 -195 -135c-115 0 -200 81 -200 180c0 82 50 131 98 166c50 37 104 59 104 91c0 17 -18 38 -34 53l42 40c35 -35 49 -58 49 -93c0 -68 -74 -93 -131 -136c-37 -28 -71 -66 -71 -121c0 -70 59 -126 143 -126c72 0 128 41 141 97zM292 414
c0 -29 -23 -52 -52 -52s-52 23 -52 52s23 52 52 52s52 -23 52 -52z" />
    <glyph glyph-name="greater" unicode="&#x3e;" horiz-adv-x="530" 
d="M55 65v58l323 133l-323 133v58l420 -174v-34z" />
    <glyph glyph-name="less" unicode="&#x3c;" horiz-adv-x="530" 
d="M475 123v-58l-420 174v34l420 174v-58l-323 -133z" />
    <glyph glyph-name="braceleft" unicode="{" horiz-adv-x="425" 
d="M174 250c32 -13 44 -45 44 -88c0 -75 -11 -141 -11 -206c0 -77 23 -102 102 -102h26v-54h-30c-116 0 -155 52 -155 150c0 76 10 146 10 216c0 50 -25 67 -70 67v34c45 0 70 17 70 67c0 70 -10 140 -10 216c0 98 39 150 155 150h30v-54h-26c-79 0 -102 -25 -102 -102
c0 -65 11 -131 11 -206c0 -43 -12 -75 -44 -88z" />
    <glyph glyph-name="braceright" unicode="}" horiz-adv-x="425" 
d="M251 250c-32 13 -44 45 -44 88c0 75 11 141 11 206c0 77 -23 102 -102 102h-26v54h30c116 0 155 -52 155 -150c0 -76 -10 -146 -10 -216c0 -50 25 -67 70 -67v-34c-45 0 -70 -17 -70 -67c0 -70 10 -140 10 -216c0 -98 -39 -150 -155 -150h-30v54h26c79 0 102 25 102 102
c0 65 -11 131 -11 206c0 43 12 75 44 88z" />
    <glyph glyph-name="infinity" unicode="&#x221e;" horiz-adv-x="750" 
d="M720 277c0 -105 -75 -187 -177 -187c-87 0 -133 58 -168 124c-36 -66 -81 -124 -168 -124c-102 0 -177 82 -177 187s75 187 177 187c87 0 132 -58 168 -125c35 67 81 125 168 125c102 0 177 -82 177 -187zM207 144c69 0 103 63 137 133c-34 70 -68 133 -137 133
c-68 0 -120 -52 -120 -133s53 -133 120 -133zM663 277c0 81 -53 133 -120 133c-70 0 -104 -63 -137 -133c33 -70 67 -133 137 -133c67 0 120 52 120 133z" />
    <glyph glyph-name="greaterequal" unicode="&#x2265;" horiz-adv-x="530" 
d="M475 26h-420v54h420v-54zM55 91v58l319 130l-319 130v58l420 -171v-34z" />
    <glyph glyph-name="lessequal" unicode="&#x2264;" horiz-adv-x="530" 
d="M475 26h-420v54h420v-54zM475 149v-58l-420 171v34l420 171v-58l-319 -130z" />
    <glyph glyph-name="lozenge" unicode="&#x25ca;" horiz-adv-x="521" 
d="M279 0h-37l-212 333v34l212 333h37l212 -333v-34zM83 350l177 -279l178 279l-178 278z" />
    <glyph glyph-name="perthousand" unicode="&#x2030;" horiz-adv-x="1185" 
d="M482 169c0 99 74 179 174 179c64 0 117 -33 147 -82c30 49 84 82 148 82c100 0 174 -80 174 -179s-74 -179 -174 -179c-64 0 -118 32 -148 82c-30 -50 -83 -82 -147 -82c-100 0 -174 80 -174 179zM60 531c0 99 74 179 174 179s174 -80 174 -179s-74 -179 -174 -179
s-174 80 -174 179zM777 169c0 71 -53 129 -121 129s-121 -58 -121 -129s53 -129 121 -129s121 58 121 129zM355 531c0 71 -53 129 -121 129s-121 -58 -121 -129s53 -129 121 -129s121 58 121 129zM267 0h-52l408 700h52zM1072 169c0 71 -53 129 -121 129s-121 -58 -121 -129
s53 -129 121 -129s121 58 121 129z" />
    <glyph glyph-name="radical" unicode="&#x221a;" horiz-adv-x="558" 
d="M491 700h57l-244 -700h-37l-160 402h-117v54h153l140 -351z" />
    <glyph glyph-name="ogonek" unicode="&#x2db;" horiz-adv-x="310" 
d="M108 10h58c-7 -8 -40 -51 -40 -107s35 -70 64 -70c17 0 31 3 40 5l10 -49c-7 -3 -30 -9 -55 -9c-72 0 -115 52 -115 118c0 64 33 107 38 112z" />
    <glyph glyph-name="Omega" unicode="&#x2126;" horiz-adv-x="760" 
d="M380 656c-160 0 -293 -128 -293 -301c0 -209 163 -321 163 -321v-34h-220v54h116s-116 119 -116 301c0 195 148 355 350 355s350 -160 350 -355c0 -182 -116 -301 -116 -301h116v-54h-220v34s163 112 163 321c0 173 -133 301 -293 301z" />
    <glyph glyph-name="Euro" unicode="&#x20ac;" horiz-adv-x="612" 
d="M5 401v54h81c33 148 138 255 290 255c90 0 162 -40 212 -117l-49 -33c-41 62 -93 93 -163 93c-120 0 -199 -83 -229 -198h278v-54h-287c-2 -17 -3 -34 -3 -51s1 -34 3 -50h287v-54h-277c30 -117 114 -199 232 -199c82 0 130 26 179 92l48 -33
c-57 -83 -134 -116 -225 -116c-154 0 -262 105 -296 256h-81v54h72c-1 16 -2 33 -2 50s1 34 2 51h-72z" />
    <glyph glyph-name="hungarumlaut" unicode="&#x2dd;" horiz-adv-x="430" 
d="M135 670h75l-95 -140h-45zM285 670h75l-95 -140h-45z" />
    <glyph glyph-name="breve" unicode="&#x2d8;" horiz-adv-x="390" 
d="M270 680h50c0 -69 -56 -125 -125 -125s-125 56 -125 125h50c0 -41 34 -75 75 -75s75 34 75 75z" />
    <glyph glyph-name="at" unicode="@" horiz-adv-x="1000" 
d="M624 172v156c-21 43 -67 83 -133 83c-86 0 -157 -68 -157 -161c0 -91 69 -161 157 -161c67 0 112 40 133 83zM636 104c-28 -39 -77 -69 -145 -69c-53 0 -102 19 -137 47c-49 39 -77 100 -77 168s28 129 77 168c35 28 84 47 137 47c47 0 100 -19 133 -58v48h57v-274
c0 -51 18 -92 78 -92c77 0 114 80 114 184c0 226 -167 363 -373 363s-373 -173 -373 -386c0 -216 172 -386 381 -386c83 0 160 30 221 77l31 -47c-69 -53 -158 -84 -253 -84c-242 0 -437 197 -437 440s195 440 437 440c234 0 423 -166 423 -417c0 -129 -60 -238 -172 -238
c-49 0 -99 20 -122 69z" />
    <glyph glyph-name="ordmasculine" unicode="&#xba;" horiz-adv-x="406" 
d="M50 555c0 85 63 155 153 155s153 -70 153 -155s-63 -155 -153 -155s-153 70 -153 155zM99 555c0 -59 45 -109 104 -109s104 50 104 109s-45 109 -104 109c-61 0 -104 -50 -104 -109z" />
    <glyph glyph-name="ordfeminine" unicode="&#xaa;" horiz-adv-x="406" 
d="M297 489v132c-21 24 -51 43 -90 43c-65 0 -108 -48 -108 -109s43 -109 108 -109c39 0 69 19 90 43zM206 400c-91 0 -156 68 -156 155s65 155 156 155c46 0 78 -23 91 -39v29h49v-290h-49v29c-13 -16 -45 -39 -91 -39z" />
    <glyph glyph-name="registered" unicode="&#xae;" horiz-adv-x="840" 
d="M70 350c0 193 157 350 350 350s350 -157 350 -350s-157 -350 -350 -350s-350 157 -350 350zM117 350c0 -166 137 -303 303 -303s303 137 303 303s-137 303 -303 303s-303 -137 -303 -303zM574 161h-53l-129 188h-50v-188h-47v383h132c47 0 71 -11 89 -29s29 -42 29 -69
s-11 -52 -29 -70c-16 -16 -35 -24 -69 -27zM342 392h82c37 0 51 7 61 19c8 9 13 22 13 35s-5 26 -13 35c-10 12 -24 19 -61 19h-82v-108z" />
    <glyph glyph-name="copyright" unicode="&#xa9;" horiz-adv-x="840" 
d="M552 500l-27 -35c-25 23 -57 41 -101 41c-81 0 -143 -61 -143 -154c0 -89 59 -153 146 -153c51 0 82 18 110 42l27 -35c-33 -30 -83 -51 -137 -51c-114 0 -193 87 -193 197c0 111 81 198 190 198c53 0 96 -20 128 -50zM70 350c0 193 157 350 350 350s350 -157 350 -350
s-157 -350 -350 -350s-350 157 -350 350zM117 350c0 -166 137 -303 303 -303s303 137 303 303s-137 303 -303 303s-303 -137 -303 -303z" />
    <glyph glyph-name="trademark" unicode="&#x2122;" horiz-adv-x="837" 
d="M70 700h265v-44h-109v-339h-47v339h-109v44zM720 587l-133 -212h-28l-133 212v-270h-47v383h27l167 -264l167 264h27v-383h-47v270z" />
    <glyph glyph-name="B" unicode="B" horiz-adv-x="605" 
d="M510 529c0 -53 -25 -101 -63 -132c72 -33 123 -106 123 -190c0 -62 -27 -116 -69 -154c-37 -33 -86 -53 -159 -53h-252v700h229c65 0 106 -18 137 -47c33 -31 54 -75 54 -124zM339 358h-189v-301h189c61 0 98 16 125 42c28 27 46 66 46 108s-18 81 -46 108
c-27 26 -64 43 -125 43zM150 415h166c53 0 83 15 104 37c19 20 30 47 30 77s-11 57 -30 77c-21 22 -51 37 -104 37h-166v-228z" />
    <glyph glyph-name="parenleft.ss03" horiz-adv-x="425" 
d="M217 350c0 -121 31 -235 83 -335l-52 -25c-56 108 -88 230 -88 360s32 252 88 360l52 -25c-52 -100 -83 -214 -83 -335z" />
    <glyph glyph-name="parenright.ss03" horiz-adv-x="425" 
d="M208 350c0 121 -31 235 -83 335l52 25c56 -108 88 -230 88 -360s-32 -252 -88 -360l-52 25c52 100 83 214 83 335z" />
    <glyph glyph-name="bracketleft.ss03" horiz-adv-x="425" 
d="M160 0v700h225v-54h-168v-592h168v-54h-225z" />
    <glyph glyph-name="bracketright.ss03" horiz-adv-x="425" 
d="M265 700v-700h-225v54h168v592h-168v54h225z" />
    <glyph glyph-name="braceleft.ss03" horiz-adv-x="425" 
d="M174 350c30 -12 44 -41 44 -80c0 -45 -7 -83 -7 -122c0 -71 27 -94 103 -94h21v-54h-25c-109 0 -157 47 -157 134c0 41 7 80 7 119c0 58 -27 80 -70 80v34c43 0 70 22 70 80c0 39 -7 78 -7 119c0 87 48 134 157 134h25v-54h-21c-76 0 -103 -23 -103 -94
c0 -39 7 -77 7 -122c0 -39 -14 -68 -44 -80z" />
    <glyph glyph-name="braceright.ss03" horiz-adv-x="425" 
d="M251 350c-30 12 -44 41 -44 80c0 45 7 83 7 122c0 71 -27 94 -103 94h-21v54h25c109 0 157 -47 157 -134c0 -41 -7 -80 -7 -119c0 -58 27 -80 70 -80v-34c-43 0 -70 -22 -70 -80c0 -39 7 -78 7 -119c0 -87 -48 -134 -157 -134h-25v54h21c76 0 103 23 103 94
c0 39 -7 77 -7 122c0 39 14 68 44 80z" />
    <glyph glyph-name="bar.ss03" horiz-adv-x="177" 
d="M60 0v700h57v-700h-57z" />
    <glyph glyph-name="zero.tf" 
d="M110 350c0 -173 45 -303 175 -303s175 130 175 303s-45 303 -175 303s-175 -130 -175 -303zM50 350c0 207 63 360 235 360s235 -153 235 -360s-63 -360 -235 -360s-235 153 -235 360z" />
    <glyph glyph-name="one.tf" 
d="M80 57h195v564l-155 -88v60l175 107h40v-643h170v-57h-425v57z" />
    <glyph glyph-name="two.tf" 
d="M129 531l-54 19c20 89 93 160 195 160c117 0 200 -84 200 -197c0 -62 -24 -114 -82 -184l-225 -272h317v-57h-410v37l268 322c57 68 72 111 72 152c0 82 -58 142 -138 142c-75 0 -126 -49 -143 -122z" />
    <glyph glyph-name="three.tf" 
d="M50 100l48 31c32 -51 89 -84 162 -84c105 0 173 83 173 178c0 102 -80 178 -186 178c-38 0 -62 -7 -71 -10v37l185 213h-278v57h370v-37l-178 -206c126 -9 218 -109 218 -232c0 -126 -95 -235 -233 -235c-92 0 -168 41 -210 110z" />
    <glyph glyph-name="four.tf" 
d="M390 0v180h-355v37l375 483h40v-463h115v-57h-115v-180h-60zM124 237h266v343z" />
    <glyph glyph-name="five.tf" 
d="M146 700h330v-57h-280l-29 -206c29 14 62 23 98 23c133 0 235 -105 235 -235c0 -129 -101 -235 -233 -235c-82 0 -155 41 -197 103l47 32c32 -46 86 -78 149 -78c102 0 174 82 174 178c0 98 -77 178 -178 178c-48 0 -92 -20 -124 -49l-40 6z" />
    <glyph glyph-name="six.tf" 
d="M387 700l-168 -259c21 7 45 11 72 11c134 0 229 -104 229 -231c0 -131 -100 -231 -233 -231c-133 1 -232 103 -232 227c0 63 25 114 49 151l215 332h68zM287 395c-50 0 -95 -19 -129 -50c-19 -31 -43 -70 -43 -124c0 -97 73 -174 174 -174c97 0 171 76 171 174
c0 99 -72 174 -173 174z" />
    <glyph glyph-name="seven.tf" 
d="M80 643v57h430v-37l-317 -663h-63l308 643h-358z" />
    <glyph glyph-name="eight.tf" 
d="M285 -10c-132 0 -230 90 -230 213c0 82 47 154 121 190c-47 31 -76 82 -76 141c0 97 78 176 185 176s185 -79 185 -176c0 -59 -29 -110 -76 -141c74 -36 121 -108 121 -190c0 -123 -98 -213 -230 -213zM285 653c-73 0 -125 -53 -125 -119c0 -65 51 -116 125 -118
c74 2 125 53 125 118c0 66 -52 119 -125 119zM285 47c100 0 170 70 170 156s-70 156 -170 156s-170 -70 -170 -156s70 -156 170 -156z" />
    <glyph glyph-name="nine.tf" 
d="M183 0l168 259c-21 -7 -45 -11 -72 -11c-134 0 -229 104 -229 231c0 131 100 231 233 231c133 -1 232 -103 232 -227c0 -63 -25 -114 -49 -151l-215 -332h-68zM283 305c50 0 95 19 129 50c19 31 43 70 43 124c0 97 -73 174 -174 174c-97 0 -171 -76 -171 -174
c0 -99 72 -174 173 -174z" />
    <glyph glyph-name="guillemotright" unicode="&#xbb;" horiz-adv-x="535" 
d="M40 420h71l144 -168v-34l-144 -168h-71l158 185zM240 420h71l144 -168v-34l-144 -168h-71l158 185z" />
    <glyph glyph-name="parenleft.case" horiz-adv-x="425" 
d="M217 350c0 -160 51 -307 138 -427l-46 -33c-94 129 -149 288 -149 460s55 331 149 460l46 -33c-87 -120 -138 -267 -138 -427z" />
    <glyph glyph-name="parenright.case" horiz-adv-x="425" 
d="M208 350c0 160 -51 307 -138 427l46 33c94 -129 149 -288 149 -460s-55 -331 -149 -460l-46 33c87 120 138 267 138 427z" />
    <glyph glyph-name="bracketleft.case" horiz-adv-x="425" 
d="M160 -100v900h225v-54h-168v-792h168v-54h-225z" />
    <glyph glyph-name="bracketright.case" horiz-adv-x="425" 
d="M265 800v-900h-225v54h168v792h-168v54h225z" />
    <glyph glyph-name="Eacute" unicode="&#xc9;" horiz-adv-x="520" 
d="M470 643h-320v-228h250v-57h-250v-301h330v-57h-390v700h380v-57zM319 880h75l-95 -140h-45z" />
    <glyph glyph-name="braceleft.case" horiz-adv-x="425" 
d="M174 350c32 -13 44 -45 44 -88c0 -75 -11 -141 -11 -206c0 -77 23 -102 102 -102h26v-54h-30c-116 0 -155 52 -155 150c0 76 10 146 10 216c0 50 -25 67 -70 67v34c45 0 70 17 70 67c0 70 -10 140 -10 216c0 98 39 150 155 150h30v-54h-26c-79 0 -102 -25 -102 -102
c0 -65 11 -131 11 -206c0 -43 -12 -75 -44 -88z" />
    <glyph glyph-name="braceright.case" horiz-adv-x="425" 
d="M251 350c-32 13 -44 45 -44 88c0 75 11 141 11 206c0 77 -23 102 -102 102h-26v54h30c116 0 155 -52 155 -150c0 -76 -10 -146 -10 -216c0 -50 25 -67 70 -67v-34c-45 0 -70 -17 -70 -67c0 -70 10 -140 10 -216c0 -98 -39 -150 -155 -150h-30v54h26c79 0 102 25 102 102
c0 65 -11 131 -11 206c0 43 12 75 44 88z" />
    <glyph glyph-name="a.ss01" horiz-adv-x="510" 
d="M378 140v58c-27 20 -72 39 -125 39c-76 0 -136 -36 -136 -100c0 -51 46 -93 112 -93s120 41 149 96zM227 -10c-100 0 -167 69 -167 147c0 105 98 154 186 154c69 0 121 -25 132 -32v7c0 48 -9 75 -25 96c-25 33 -63 50 -106 50c-55 0 -101 -25 -128 -48l-33 46
c29 25 85 56 161 56c61 0 118 -25 152 -71c23 -31 36 -70 36 -132v-263h-55v62c-32 -42 -90 -72 -153 -72z" />
    <glyph glyph-name="zero.tf.zero" 
d="M50 350c0 207 63 360 235 360s235 -153 235 -360s-63 -360 -235 -360s-235 153 -235 360zM460 350c0 76 -9 144 -30 196l-259 -448c27 -32 64 -51 114 -51c130 0 175 130 175 303zM110 350c0 -76 8 -143 29 -195l259 447c-27 32 -64 51 -113 51
c-130 0 -175 -130 -175 -303z" />
    <glyph glyph-name="endash.ss04" horiz-adv-x="1050" 
d="M20 274h1010v-49h-1010v49z" />
    <glyph glyph-name="arrowleft" unicode="&#x2190;" horiz-adv-x="727" 
d="M139 274h528v-49h-528l206 -205h-69l-216 215v29l216 215h69z" />
    <glyph glyph-name="arrowright" unicode="&#x2192;" horiz-adv-x="727" 
d="M60 274h528l-206 205h69l216 -215v-29l-216 -215h-69l206 205h-528v49z" />
    <glyph glyph-name="uni2196" unicode="&#x2196;" horiz-adv-x="576" 
d="M109 373v-293l-49 49v307l20 20h307l49 -48h-292l372 -374l-35 -34z" />
    <glyph glyph-name="uni2197" unicode="&#x2197;" horiz-adv-x="576" 
d="M467 80v293l-372 -373l-35 34l372 374h-292l49 48h307l20 -20v-307z" />
    <glyph glyph-name="uni2070" unicode="&#x2070;" horiz-adv-x="320" 
d="M285 520c0 -104 -34 -190 -125 -190s-125 86 -125 190s34 190 125 190s125 -86 125 -190zM82 520c0 -76 19 -146 78 -146s78 70 78 146s-19 146 -78 146s-78 -70 -78 -146z" />
    <glyph glyph-name="uni2074" unicode="&#x2074;" horiz-adv-x="300" 
d="M10 425v24l193 251h27v-231h60v-44h-60v-85h-47v85h-173zM82 469h101v131z" />
    <glyph glyph-name="uni2075" unicode="&#x2075;" horiz-adv-x="260" 
d="M115 580c70 0 125 -57 125 -125c0 -69 -52 -125 -125 -125c-46 0 -83 21 -105 53l35 27c13 -18 37 -36 69 -36c47 0 79 37 79 81c0 45 -33 82 -81 82c-21 0 -40 -8 -55 -19l-27 4l19 178h171v-44h-129l-9 -79c10 2 21 3 33 3z" />
    <glyph glyph-name="uni2076" unicode="&#x2076;" horiz-adv-x="298" 
d="M67 454c0 -44 33 -80 80 -80c46 0 79 36 79 80c0 45 -33 81 -79 81c-20 0 -41 -7 -58 -19c-12 -18 -22 -40 -22 -62zM208 700l-82 -124c3 1 17 3 26 3c64 0 121 -55 121 -125c0 -68 -53 -124 -126 -124c-74 0 -127 57 -127 124c0 41 22 78 46 114l89 132h53z" />
    <glyph glyph-name="uni2077" unicode="&#x2077;" horiz-adv-x="255" 
d="M75 340h-50l155 316h-165v44h225v-24z" />
    <glyph glyph-name="uni2078" unicode="&#x2078;" horiz-adv-x="293" 
d="M146 519c-45 0 -79 -32 -79 -74c0 -39 33 -71 79 -71c47 0 79 32 79 71c0 42 -32 74 -79 74zM146 666c-30 0 -55 -22 -55 -52s25 -52 55 -52c32 0 56 22 56 52s-24 52 -56 52zM146 330c-72 0 -126 53 -126 115c0 43 25 80 59 99c-21 15 -35 43 -35 70c0 55 45 96 102 96
c58 0 103 -41 103 -96c0 -27 -14 -55 -35 -70c34 -19 59 -56 59 -99c0 -62 -55 -115 -127 -115z" />
    <glyph glyph-name="uni2079" unicode="&#x2079;" horiz-adv-x="298" 
d="M226 586c0 44 -33 80 -80 80c-46 0 -79 -36 -79 -80c0 -45 33 -81 79 -81c20 0 41 7 58 19c12 18 22 40 22 62zM85 340l82 124c-3 -1 -17 -3 -26 -3c-64 0 -121 55 -121 125c0 68 53 124 126 124c74 0 127 -57 127 -124c0 -41 -22 -78 -46 -114l-89 -132h-53z" />
    <glyph glyph-name="uni2080" unicode="&#x2080;" horiz-adv-x="320" 
d="M285 180c0 -104 -34 -190 -125 -190s-125 86 -125 190s34 190 125 190s125 -86 125 -190zM82 180c0 -76 19 -146 78 -146s78 70 78 146s-19 146 -78 146s-78 -70 -78 -146z" />
    <glyph glyph-name="uni2081" unicode="&#x2081;" horiz-adv-x="205" 
d="M103 299l-73 -37v48l93 50h27v-360h-47v299z" />
    <glyph glyph-name="uni2082" unicode="&#x2082;" horiz-adv-x="278" 
d="M70 273l-41 17c22 68 73 80 107 80c61 0 108 -48 108 -106c0 -46 -26 -80 -53 -112l-88 -108h145v-44h-223v24l125 152c29 35 47 56 47 88c0 33 -26 62 -61 62c-32 0 -54 -21 -66 -53z" />
    <glyph glyph-name="uni2083" unicode="&#x2083;" horiz-adv-x="282" 
d="M233 336l-79 -100c24 -6 44 -17 61 -34c23 -23 37 -54 37 -88c0 -67 -53 -124 -127 -124c-48 0 -93 25 -115 61l38 27c15 -28 48 -44 77 -44c45 0 80 34 80 80c0 50 -39 82 -86 82c-19 0 -33 -4 -40 -7v24l80 103h-132v44h206v-24z" />
    <glyph glyph-name="uni2084" unicode="&#x2084;" horiz-adv-x="300" 
d="M10 85v24l193 251h27v-231h60v-44h-60v-85h-47v85h-173zM82 129h101v131z" />
    <glyph glyph-name="uni2085" unicode="&#x2085;" horiz-adv-x="260" 
d="M115 240c70 0 125 -57 125 -125c0 -69 -52 -125 -125 -125c-46 0 -83 21 -105 53l35 27c13 -18 37 -36 69 -36c47 0 79 37 79 81c0 45 -33 82 -81 82c-21 0 -40 -8 -55 -19l-27 4l19 178h171v-44h-129l-9 -79c10 2 21 3 33 3z" />
    <glyph glyph-name="uni2086" unicode="&#x2086;" horiz-adv-x="298" 
d="M67 114c0 -44 33 -80 80 -80c46 0 79 36 79 80c0 45 -33 81 -79 81c-20 0 -41 -7 -58 -19c-12 -18 -22 -40 -22 -62zM208 360l-82 -124c3 1 17 3 26 3c64 0 121 -55 121 -125c0 -68 -53 -124 -126 -124c-74 0 -127 57 -127 124c0 41 22 78 46 114l89 132h53z" />
    <glyph glyph-name="uni2087" unicode="&#x2087;" horiz-adv-x="255" 
d="M75 0h-50l155 316h-165v44h225v-24z" />
    <glyph glyph-name="uni2088" unicode="&#x2088;" horiz-adv-x="293" 
d="M146 179c-45 0 -79 -32 -79 -74c0 -39 33 -71 79 -71c47 0 79 32 79 71c0 42 -32 74 -79 74zM146 326c-30 0 -55 -22 -55 -52s25 -52 55 -52c32 0 56 22 56 52s-24 52 -56 52zM146 -10c-72 0 -126 53 -126 115c0 43 25 80 59 99c-21 15 -35 43 -35 70c0 55 45 96 102 96
c58 0 103 -41 103 -96c0 -27 -14 -55 -35 -70c34 -19 59 -56 59 -99c0 -62 -55 -115 -127 -115z" />
    <glyph glyph-name="uni2089" unicode="&#x2089;" horiz-adv-x="298" 
d="M226 246c0 44 -33 80 -80 80c-46 0 -79 -36 -79 -80c0 -45 33 -81 79 -81c20 0 41 7 58 19c12 18 22 40 22 62zM85 0l82 124c-3 -1 -17 -3 -26 -3c-64 0 -121 55 -121 125c0 68 53 124 126 124c74 0 127 -57 127 -124c0 -41 -22 -78 -46 -114l-89 -132h-53z" />
    <glyph glyph-name="onehalf" unicode="&#xbd;" horiz-adv-x="593" 
d="M92 0h-52l408 700h52zM103 639l-73 -37v48l93 50h27v-360h-47v299zM385 273l-41 17c22 68 73 80 107 80c61 0 108 -48 108 -106c0 -46 -26 -80 -53 -112l-88 -108h145v-44h-223v24l125 152c29 35 47 56 47 88c0 33 -26 62 -61 62c-32 0 -54 -21 -66 -53z" />
    <glyph glyph-name="onequarter" unicode="&#xbc;" horiz-adv-x="555" 
d="M265 85v24l193 251h27v-231h60v-44h-60v-85h-47v85h-173zM337 129h101v131zM92 0h-52l408 700h52zM103 639l-73 -37v48l93 50h27v-360h-47v299z" />
    <glyph glyph-name="onesuperior" unicode="&#xb9;" horiz-adv-x="205" 
d="M103 639l-73 -37v48l93 50h27v-360h-47v299z" />
    <glyph glyph-name="threequarters" unicode="&#xbe;" horiz-adv-x="603" 
d="M313 85v24l193 251h27v-231h60v-44h-60v-85h-47v85h-173zM385 129h101v131zM140 0h-52l408 700h52zM233 676l-79 -100c24 -6 44 -17 61 -34c23 -23 37 -54 37 -88c0 -67 -53 -124 -127 -124c-48 0 -93 25 -115 61l38 27c15 -28 48 -44 77 -44c45 0 80 34 80 80
c0 50 -39 82 -86 82c-19 0 -33 -4 -40 -7v24l80 103h-132v44h206v-24z" />
    <glyph glyph-name="threesuperior" unicode="&#xb3;" horiz-adv-x="282" 
d="M233 676l-79 -100c24 -6 44 -17 61 -34c23 -23 37 -54 37 -88c0 -67 -53 -124 -127 -124c-48 0 -93 25 -115 61l38 27c15 -28 48 -44 77 -44c45 0 80 34 80 80c0 50 -39 82 -86 82c-19 0 -33 -4 -40 -7v24l80 103h-132v44h206v-24z" />
    <glyph glyph-name="twosuperior" unicode="&#xb2;" horiz-adv-x="278" 
d="M70 613l-41 17c22 68 73 80 107 80c61 0 108 -48 108 -106c0 -46 -26 -80 -53 -112l-88 -108h145v-44h-223v24l125 152c29 35 47 56 47 88c0 33 -26 62 -61 62c-32 0 -54 -21 -66 -53z" />
    <glyph glyph-name="uni2199" unicode="&#x2199;" horiz-adv-x="576" 
d="M109 376v-293l372 373l35 -34l-372 -374h292l-49 -48h-307l-20 20v307z" />
    <glyph glyph-name="uni2198" unicode="&#x2198;" horiz-adv-x="576" 
d="M467 83v293l49 -49v-307l-20 -20h-307l-49 48h292l-372 374l35 34z" />
    <glyph glyph-name="periodcentered.case" horiz-adv-x="304" 
d="M100 350c0 29 23 52 52 52s52 -23 52 -52s-23 -52 -52 -52s-52 23 -52 52z" />
    <glyph glyph-name="bullet.case" horiz-adv-x="520" 
d="M80 350c0 99 81 180 180 180s180 -81 180 -180s-81 -180 -180 -180s-180 81 -180 180z" />
    <glyph glyph-name="asterisk.ss05" horiz-adv-x="494" 
d="M222 300v157l-136 -79l-24 43l137 79l-137 79l24 43l136 -79v157h50v-157l136 79l24 -43l-137 -79l137 -79l-24 -43l-136 79v-157h-50z" />
    <glyph glyph-name="zero.zero" horiz-adv-x="590" 
d="M60 350c0 207 63 360 235 360s235 -153 235 -360s-63 -360 -235 -360s-235 153 -235 360zM470 350c0 76 -9 144 -30 196l-259 -448c27 -32 64 -51 114 -51c130 0 175 130 175 303zM120 350c0 -76 8 -143 29 -195l259 447c-27 32 -64 51 -113 51
c-130 0 -175 -130 -175 -303z" />
    <glyph glyph-name="uni2070.zero" horiz-adv-x="320" 
d="M285 520c0 -104 -34 -190 -125 -190s-125 86 -125 190s34 190 125 190s125 -86 125 -190zM82 520c0 -28 2 -54 8 -77l116 202c-11 13 -27 21 -46 21c-59 0 -78 -70 -78 -146zM238 520c0 27 -3 54 -9 77l-115 -203c11 -13 26 -20 46 -20c59 0 78 70 78 146z" />
    <glyph glyph-name="uni2080.zero" horiz-adv-x="320" 
d="M285 180c0 -104 -34 -190 -125 -190s-125 86 -125 190s34 190 125 190s125 -86 125 -190zM82 180c0 -28 2 -54 8 -77l116 202c-11 13 -27 21 -46 21c-59 0 -78 -70 -78 -146zM238 180c0 27 -3 54 -9 77l-115 -203c11 -13 26 -20 46 -20c59 0 78 70 78 146z" />
    <glyph glyph-name="emdash.ss04" horiz-adv-x="1350" 
d="M20 274h1310v-49h-1310v49z" />
    <glyph glyph-name="currency" unicode="&#xa4;" horiz-adv-x="540" 
d="M74 351c0 44 16 85 41 118l-75 75l37 37l75 -75c33 25 74 41 118 41c45 0 86 -16 119 -41l74 75l37 -37l-74 -75c25 -33 40 -74 40 -118c0 -45 -15 -86 -40 -119l74 -74l-37 -37l-74 74c-33 -25 -74 -40 -119 -40c-44 0 -85 15 -118 40l-75 -74l-37 37l75 74
c-25 33 -41 74 -41 119zM131 351c0 -77 62 -139 139 -139s139 62 139 139s-62 139 -139 139s-139 -62 -139 -139z" />
    <glyph glyph-name="currency.tf" 
d="M89 351c0 44 16 85 41 118l-75 75l37 37l75 -75c33 25 74 41 118 41c45 0 86 -16 119 -41l74 75l37 -37l-74 -75c25 -33 40 -74 40 -118c0 -45 -15 -86 -40 -119l74 -74l-37 -37l-74 74c-33 -25 -74 -40 -119 -40c-44 0 -85 15 -118 40l-75 -74l-37 37l75 74
c-25 33 -41 74 -41 119zM146 351c0 -77 62 -139 139 -139s139 62 139 139s-62 139 -139 139s-139 -62 -139 -139z" />
    <glyph glyph-name="hyphen.case" horiz-adv-x="420" 
d="M80 412h260v-49h-260v49z" />
    <glyph glyph-name="endash.case" horiz-adv-x="450" 
d="M20 412h410v-49h-410v49z" />
    <glyph glyph-name="emdash.case" horiz-adv-x="750" 
d="M20 412h710v-49h-710v49z" />
    <glyph glyph-name="endash.case.ss04" horiz-adv-x="1050" 
d="M20 412h1010v-49h-1010v49z" />
    <glyph glyph-name="emdash.case.ss04" horiz-adv-x="1350" 
d="M20 412h1310v-49h-1310v49z" />
    <glyph glyph-name="guillemotleft.case" horiz-adv-x="535" 
d="M424 518h71l-158 -185l158 -185h-71l-144 168v34zM224 518h71l-158 -185l158 -185h-71l-144 168v34z" />
    <glyph glyph-name="guillemotright.case" horiz-adv-x="535" 
d="M40 518h71l144 -168v-34l-144 -168h-71l158 185zM240 518h71l144 -168v-34l-144 -168h-71l158 185z" />
    <glyph glyph-name="guilsinglleft.case" horiz-adv-x="335" 
d="M224 518h71l-158 -185l158 -185h-71l-144 168v34z" />
    <glyph glyph-name="guilsinglright.case" horiz-adv-x="335" 
d="M40 518h71l144 -168v-34l-144 -168h-71l158 185z" />
    <glyph glyph-name="bar.case" horiz-adv-x="177" 
d="M60 -100v900h57v-900h-57z" />
    <glyph glyph-name="aacute.ss01" horiz-adv-x="510" 
d="M291 670h75l-95 -140h-45zM378 140v58c-27 20 -72 39 -125 39c-76 0 -136 -36 -136 -100c0 -51 46 -93 112 -93s120 41 149 96zM227 -10c-100 0 -167 69 -167 147c0 105 98 154 186 154c69 0 121 -25 132 -32v7c0 48 -9 75 -25 96c-25 33 -63 50 -106 50
c-55 0 -101 -25 -128 -48l-33 46c29 25 85 56 161 56c61 0 118 -25 152 -71c23 -31 36 -70 36 -132v-263h-55v62c-32 -42 -90 -72 -153 -72z" />
    <glyph glyph-name="agrave.ss01" horiz-adv-x="510" 
d="M159 670h75l65 -140h-45zM378 140v58c-27 20 -72 39 -125 39c-76 0 -136 -36 -136 -100c0 -51 46 -93 112 -93s120 41 149 96zM227 -10c-100 0 -167 69 -167 147c0 105 98 154 186 154c69 0 121 -25 132 -32v7c0 48 -9 75 -25 96c-25 33 -63 50 -106 50
c-55 0 -101 -25 -128 -48l-33 46c29 25 85 56 161 56c61 0 118 -25 152 -71c23 -31 36 -70 36 -132v-263h-55v62c-32 -42 -90 -72 -153 -72z" />
    <glyph glyph-name="acircumflex.ss01" horiz-adv-x="510" 
d="M260 624l-85 -94h-45l95 140h70l95 -140h-45zM378 140v58c-27 20 -72 39 -125 39c-76 0 -136 -36 -136 -100c0 -51 46 -93 112 -93s120 41 149 96zM227 -10c-100 0 -167 69 -167 147c0 105 98 154 186 154c69 0 121 -25 132 -32v7c0 48 -9 75 -25 96
c-25 33 -63 50 -106 50c-55 0 -101 -25 -128 -48l-33 46c29 25 85 56 161 56c61 0 118 -25 152 -71c23 -31 36 -70 36 -132v-263h-55v62c-32 -42 -90 -72 -153 -72z" />
    <glyph glyph-name="adieresis.ss01" horiz-adv-x="510" 
d="M288 594c0 28 22 51 50 51s51 -23 51 -51s-23 -50 -51 -50s-50 22 -50 50zM125 594c0 28 22 51 50 51s51 -23 51 -51s-23 -50 -51 -50s-50 22 -50 50zM378 140v58c-27 20 -72 39 -125 39c-76 0 -136 -36 -136 -100c0 -51 46 -93 112 -93s120 41 149 96zM227 -10
c-100 0 -167 69 -167 147c0 105 98 154 186 154c69 0 121 -25 132 -32v7c0 48 -9 75 -25 96c-25 33 -63 50 -106 50c-55 0 -101 -25 -128 -48l-33 46c29 25 85 56 161 56c61 0 118 -25 152 -71c23 -31 36 -70 36 -132v-263h-55v62c-32 -42 -90 -72 -153 -72z" />
    <glyph glyph-name="atilde.ss01" horiz-adv-x="510" 
d="M160 556l-40 11c1 40 25 83 74 83c51 0 86 -45 124 -45c21 0 34 13 36 45l40 -11c-1 -40 -25 -83 -74 -83c-51 0 -86 45 -124 45c-21 0 -34 -13 -36 -45zM378 140v58c-27 20 -72 39 -125 39c-76 0 -136 -36 -136 -100c0 -51 46 -93 112 -93s120 41 149 96zM227 -10
c-100 0 -167 69 -167 147c0 105 98 154 186 154c69 0 121 -25 132 -32v7c0 48 -9 75 -25 96c-25 33 -63 50 -106 50c-55 0 -101 -25 -128 -48l-33 46c29 25 85 56 161 56c61 0 118 -25 152 -71c23 -31 36 -70 36 -132v-263h-55v62c-32 -42 -90 -72 -153 -72z" />
    <glyph glyph-name="aring.ss01" horiz-adv-x="510" 
d="M167 610c0 50 40 90 90 90s90 -40 90 -90s-40 -90 -90 -90s-90 40 -90 90zM207 610c0 -28 22 -50 50 -50s50 22 50 50s-22 50 -50 50s-50 -22 -50 -50zM378 140v58c-27 20 -72 39 -125 39c-76 0 -136 -36 -136 -100c0 -51 46 -93 112 -93s120 41 149 96zM227 -10
c-100 0 -167 69 -167 147c0 105 98 154 186 154c69 0 121 -25 132 -32v7c0 48 -9 75 -25 96c-25 33 -63 50 -106 50c-55 0 -101 -25 -128 -48l-33 46c29 25 85 56 161 56c61 0 118 -25 152 -71c23 -31 36 -70 36 -132v-263h-55v62c-32 -42 -90 -72 -153 -72z" />
    <glyph glyph-name="ae.ss01" horiz-adv-x="853" 
d="M753 112l40 -38c-34 -43 -99 -84 -186 -84c-71 0 -130 29 -172 80v-70h-55v62c-32 -42 -90 -72 -153 -72c-100 0 -167 69 -167 147c0 105 98 154 186 154c69 0 121 -25 132 -32v7c0 48 -9 75 -25 96c-25 33 -63 50 -106 50c-55 0 -101 -25 -128 -48l-33 46
c29 25 85 56 161 56c61 0 118 -25 152 -71c7 -10 12 -20 17 -31c37 62 101 102 180 102c122 0 212 -96 212 -223c0 -4 0 -11 -1 -20h-372c4 -97 67 -179 172 -179c60 0 110 24 146 68zM378 140v58c-27 20 -72 39 -125 39c-76 0 -136 -36 -136 -100c0 -51 46 -93 112 -93
s120 41 149 96zM596 412c-81 0 -141 -58 -158 -137h311c-12 80 -74 137 -153 137z" />
    <glyph glyph-name="zero.dnom" horiz-adv-x="310" 
d="M280 180c0 -104 -34 -190 -125 -190s-125 86 -125 190s34 190 125 190s125 -86 125 -190zM77 180c0 -76 19 -146 78 -146s78 70 78 146s-19 146 -78 146s-78 -70 -78 -146z" />
    <glyph glyph-name="one.dnom" horiz-adv-x="205" 
d="M103 299l-73 -37v48l93 50h27v-360h-47v299z" />
    <glyph glyph-name="two.dnom" horiz-adv-x="278" 
d="M70 273l-41 17c22 68 73 80 107 80c61 0 108 -48 108 -106c0 -46 -26 -80 -53 -112l-88 -108h145v-44h-223v24l125 152c29 35 47 56 47 88c0 33 -26 62 -61 62c-32 0 -54 -21 -66 -53z" />
    <glyph glyph-name="three.dnom" horiz-adv-x="282" 
d="M233 336l-79 -100c24 -6 44 -17 61 -34c23 -23 37 -54 37 -88c0 -67 -53 -124 -127 -124c-48 0 -93 25 -115 61l38 27c15 -28 48 -44 77 -44c45 0 80 34 80 80c0 50 -39 82 -86 82c-19 0 -33 -4 -40 -7v24l80 103h-132v44h206v-24z" />
    <glyph glyph-name="four.dnom" horiz-adv-x="300" 
d="M10 85v24l193 251h27v-231h60v-44h-60v-85h-47v85h-173zM82 129h101v131z" />
    <glyph glyph-name="five.dnom" horiz-adv-x="260" 
d="M115 240c70 0 125 -57 125 -125c0 -69 -52 -125 -125 -125c-46 0 -83 21 -105 53l35 27c13 -18 37 -36 69 -36c47 0 79 37 79 81c0 45 -33 82 -81 82c-21 0 -40 -8 -55 -19l-27 4l19 178h171v-44h-129l-9 -79c10 2 21 3 33 3z" />
    <glyph glyph-name="six.dnom" horiz-adv-x="298" 
d="M67 114c0 -44 33 -80 80 -80c46 0 79 36 79 80c0 45 -33 81 -79 81c-20 0 -41 -7 -58 -19c-12 -18 -22 -40 -22 -62zM208 360l-82 -124c3 1 17 3 26 3c64 0 121 -55 121 -125c0 -68 -53 -124 -126 -124c-74 0 -127 57 -127 124c0 41 22 78 46 114l89 132h53z" />
    <glyph glyph-name="seven.dnom" horiz-adv-x="255" 
d="M75 0h-50l155 316h-165v44h225v-24z" />
    <glyph glyph-name="eight.dnom" horiz-adv-x="293" 
d="M146 179c-45 0 -79 -32 -79 -74c0 -39 33 -71 79 -71c47 0 79 32 79 71c0 42 -32 74 -79 74zM146 326c-30 0 -55 -22 -55 -52s25 -52 55 -52c32 0 56 22 56 52s-24 52 -56 52zM146 -10c-72 0 -126 53 -126 115c0 43 25 80 59 99c-21 15 -35 43 -35 70c0 55 45 96 102 96
c58 0 103 -41 103 -96c0 -27 -14 -55 -35 -70c34 -19 59 -56 59 -99c0 -62 -55 -115 -127 -115z" />
    <glyph glyph-name="nine.dnom" horiz-adv-x="298" 
d="M226 246c0 44 -33 80 -80 80c-46 0 -79 -36 -79 -80c0 -45 33 -81 79 -81c20 0 41 7 58 19c12 18 22 40 22 62zM85 0l82 124c-3 -1 -17 -3 -26 -3c-64 0 -121 55 -121 125c0 68 53 124 126 124c74 0 127 -57 127 -124c0 -41 -22 -78 -46 -114l-89 -132h-53z" />
    <glyph glyph-name="zero.numr" horiz-adv-x="320" 
d="M285 520c0 -104 -34 -190 -125 -190s-125 86 -125 190s34 190 125 190s125 -86 125 -190zM82 520c0 -76 19 -146 78 -146s78 70 78 146s-19 146 -78 146s-78 -70 -78 -146z" />
    <glyph glyph-name="one.numr" horiz-adv-x="205" 
d="M103 639l-73 -37v48l93 50h27v-360h-47v299z" />
    <glyph glyph-name="two.numr" horiz-adv-x="278" 
d="M70 613l-41 17c22 68 73 80 107 80c61 0 108 -48 108 -106c0 -46 -26 -80 -53 -112l-88 -108h145v-44h-223v24l125 152c29 35 47 56 47 88c0 33 -26 62 -61 62c-32 0 -54 -21 -66 -53z" />
    <glyph glyph-name="three.numr" horiz-adv-x="282" 
d="M233 676l-79 -100c24 -6 44 -17 61 -34c23 -23 37 -54 37 -88c0 -67 -53 -124 -127 -124c-48 0 -93 25 -115 61l38 27c15 -28 48 -44 77 -44c45 0 80 34 80 80c0 50 -39 82 -86 82c-19 0 -33 -4 -40 -7v24l80 103h-132v44h206v-24z" />
    <glyph glyph-name="four.numr" horiz-adv-x="300" 
d="M10 425v24l193 251h27v-231h60v-44h-60v-85h-47v85h-173zM82 469h101v131z" />
    <glyph glyph-name="five.numr" horiz-adv-x="260" 
d="M115 580c70 0 125 -57 125 -125c0 -69 -52 -125 -125 -125c-46 0 -83 21 -105 53l35 27c13 -18 37 -36 69 -36c47 0 79 37 79 81c0 45 -33 82 -81 82c-21 0 -40 -8 -55 -19l-27 4l19 178h171v-44h-129l-9 -79c10 2 21 3 33 3z" />
    <glyph glyph-name="six.numr" horiz-adv-x="298" 
d="M67 454c0 -44 33 -80 80 -80c46 0 79 36 79 80c0 45 -33 81 -79 81c-20 0 -41 -7 -58 -19c-12 -18 -22 -40 -22 -62zM208 700l-82 -124c3 1 17 3 26 3c64 0 121 -55 121 -125c0 -68 -53 -124 -126 -124c-74 0 -127 57 -127 124c0 41 22 78 46 114l89 132h53z" />
    <glyph glyph-name="seven.numr" horiz-adv-x="255" 
d="M75 340h-50l155 316h-165v44h225v-24z" />
    <glyph glyph-name="eight.numr" horiz-adv-x="293" 
d="M146 519c-45 0 -79 -32 -79 -74c0 -39 33 -71 79 -71c47 0 79 32 79 71c0 42 -32 74 -79 74zM146 666c-30 0 -55 -22 -55 -52s25 -52 55 -52c32 0 56 22 56 52s-24 52 -56 52zM146 330c-72 0 -126 53 -126 115c0 43 25 80 59 99c-21 15 -35 43 -35 70c0 55 45 96 102 96
c58 0 103 -41 103 -96c0 -27 -14 -55 -35 -70c34 -19 59 -56 59 -99c0 -62 -55 -115 -127 -115z" />
    <glyph glyph-name="nine.numr" horiz-adv-x="298" 
d="M226 586c0 44 -33 80 -80 80c-46 0 -79 -36 -79 -80c0 -45 33 -81 79 -81c20 0 41 7 58 19c12 18 22 40 22 62zM85 340l82 124c-3 -1 -17 -3 -26 -3c-64 0 -121 55 -121 125c0 68 53 124 126 124c74 0 127 -57 127 -124c0 -41 -22 -78 -46 -114l-89 -132h-53z" />
    <glyph glyph-name="zero.dnom.zero" horiz-adv-x="320" 
d="M285 180c0 -104 -34 -190 -125 -190s-125 86 -125 190s34 190 125 190s125 -86 125 -190zM82 180c0 -28 2 -54 8 -77l116 202c-11 13 -27 21 -46 21c-59 0 -78 -70 -78 -146zM238 180c0 27 -3 54 -9 77l-115 -203c11 -13 26 -20 46 -20c59 0 78 70 78 146z" />
    <glyph glyph-name="zero.numr.zero" horiz-adv-x="320" 
d="M285 520c0 -104 -34 -190 -125 -190s-125 86 -125 190s34 190 125 190s125 -86 125 -190zM82 520c0 -28 2 -54 8 -77l116 202c-11 13 -27 21 -46 21c-59 0 -78 -70 -78 -146zM238 520c0 27 -3 54 -9 77l-115 -203c11 -13 26 -20 46 -20c59 0 78 70 78 146z" />
    <glyph glyph-name="uni2215" unicode="&#x2215;" horiz-adv-x="470" 
d="M57 0h-52l408 700h52z" />
    <glyph glyph-name="minus.tf" 
d="M495 229h-420v54h420v-54z" />
    <glyph glyph-name="multiply.tf" 
d="M436 67l-151 151l-151 -151l-38 38l151 151l-151 151l38 38l151 -151l151 151l38 -38l-151 -151l151 -151z" />
    <glyph glyph-name="numbersign.tf" 
d="M521 700l-60 -220h99v-54h-113l-40 -152h99v-54h-114l-59 -220h-57l60 220h-170l-60 -220h-57l60 220h-99v54h113l40 152h-99v54h114l59 220h57l-59 -220h170l59 220h57zM220 426l-40 -152h170l40 152h-170z" />
    <glyph glyph-name="dollar.tf" 
d="M64 108l44 39c41 -53 96 -100 188 -100c70 0 144 50 144 131c0 127 -150 141 -252 204c-52 32 -95 73 -95 144c0 98 70 169 166 182v107h57v-106c76 -7 126 -44 155 -69l-38 -44c-41 36 -81 57 -139 57c-78 0 -141 -48 -141 -124c0 -106 141 -120 241 -182
c58 -36 106 -88 106 -169c0 -105 -80 -178 -184 -187v-106h-57v107c-77 9 -143 47 -195 116z" />
    <glyph glyph-name="plus.tf" 
d="M495 229h-183v-183h-54v183h-183v54h183v183h54v-183h183v-54z" />
    <glyph glyph-name="less.tf" 
d="M495 123v-58l-420 174v34l420 174v-58l-323 -133z" />
    <glyph glyph-name="equal.tf" 
d="M495 317h-420v54h420v-54zM495 141h-420v54h420v-54z" />
    <glyph glyph-name="greater.tf" 
d="M75 65v58l323 133l-323 133v58l420 -174v-34z" />
    <glyph glyph-name="cent.tf" 
d="M457 107l41 -38c-41 -46 -98 -73 -160 -78v-106h-57v108c-112 16 -208 103 -208 235c0 119 85 222 208 236v117h57v-117c61 -6 109 -34 145 -69l-36 -41c-34 33 -80 58 -138 58c-96 0 -179 -80 -179 -184c0 -102 80 -184 187 -184c53 0 101 22 140 63z" />
    <glyph glyph-name="sterling.tf" 
d="M85 337v54h84c-19 44 -38 88 -38 135c0 109 80 183 183 184c85 0 140 -51 166 -95l-46 -32c-18 31 -52 73 -120 73c-53 0 -126 -39 -126 -130c0 -42 22 -86 43 -135h128v-54h-108c10 -30 17 -61 17 -95c0 -100 -48 -160 -74 -188h321v-54h-450v34c82 31 146 109 146 209
c0 33 -9 64 -20 94h-106z" />
    <glyph glyph-name="section.tf" 
d="M515 207c0 -64 -33 -116 -81 -150c27 -25 44 -59 44 -109c0 -106 -91 -178 -199 -178c-90 0 -147 42 -179 70l37 43c41 -36 82 -56 140 -56c77 0 141 47 141 121c0 78 -75 105 -155 130c-99 31 -208 71 -208 195c0 64 33 115 81 149c-27 26 -44 60 -44 110
c0 106 91 178 199 178c90 0 147 -42 179 -70l-37 -43c-41 36 -82 56 -140 56c-77 0 -141 -47 -141 -121c0 -78 75 -105 155 -130c99 -31 208 -71 208 -195zM314 340c-42 14 -86 27 -125 46c-40 -23 -75 -62 -75 -113c0 -74 68 -107 142 -133c41 -14 86 -28 124 -47
c41 23 76 62 76 114c0 74 -68 108 -142 133z" />
    <glyph glyph-name="notequal.tf" 
d="M443 476l-61 -105h113v-54h-144l-70 -122h214v-54h-245l-60 -105h-63l60 105h-112v54h143l70 122h-213v54h244l61 105h63z" />
    <glyph glyph-name="plusminus.tf" 
d="M495 271h-183v-161h-54v161h-183v54h183v161h54v-161h183v-54zM495 26h-420v54h420v-54z" />
    <glyph glyph-name="lessequal.tf" 
d="M495 26h-420v54h420v-54zM495 149v-58l-420 171v34l420 171v-58l-319 -130z" />
    <glyph glyph-name="greaterequal.tf" 
d="M495 26h-420v54h420v-54zM75 91v58l319 130l-319 130v58l420 -171v-34z" />
    <glyph glyph-name="yen.tf" 
d="M555 700l-159 -245h109v-54h-144l-46 -72v-29h190v-54h-190v-246h-60v246h-190v54h190v29l-47 72h-143v54h108l-158 245h68l202 -313l202 313h68z" />
    <glyph glyph-name="mu.tf" horiz-adv-x="590" 
d="M290 -10c-57 0 -108 22 -141 65v-295h-57v696h57v-234c0 -64 10 -94 26 -118c24 -36 65 -60 115 -60c62 0 122 38 152 95v317h57v-456h-55v62c-32 -42 -91 -72 -154 -72z" />
    <glyph glyph-name="partialdiff.tf" 
d="M355 456l-168 254h66l205 -308c34 -52 62 -109 62 -175c0 -129 -98 -237 -235 -237c-135 0 -235 105 -235 238s99 238 239 238c22 0 45 -4 66 -10zM411 369c-29 24 -74 43 -122 43c-108 0 -182 -80 -182 -184c0 -102 75 -184 178 -184s178 82 178 184
c0 58 -26 111 -52 141z" />
    <glyph glyph-name="summation.tf" 
d="M473 510v136h-335l269 -267v-34l-283 -291h359v136h57v-190h-510v34l317 327l-307 305v34h490v-190h-57z" />
    <glyph glyph-name="product.tf" 
d="M383 0v646h-196v-646h-57v646h-100v54h510v-54h-100v-646h-57z" />
    <glyph glyph-name="pi.tf" 
d="M73 327l-48 29c19 31 48 63 93 82c27 11 59 18 106 18h321v-54h-100v-271c0 -19 1 -39 8 -57c6 -15 17 -28 32 -39l-32 -45c-14 11 -36 29 -50 58c-9 19 -15 43 -15 92v262h-156v-402h-57v397c-41 -3 -77 -28 -102 -70z" />
    <glyph glyph-name="integral.tf" 
d="M300 520c-46 -234 -46 -361 -91 -591c-12 -62 -36 -114 -78 -146c-29 -22 -68 -33 -113 -33c-31 0 -61 6 -86 17l20 52c17 -9 41 -15 66 -15c80 0 119 43 137 136c46 234 46 361 91 591c12 62 36 114 78 146c29 22 68 33 113 33c31 0 61 -6 86 -17l-20 -52
c-17 9 -41 15 -66 15c-80 0 -119 -43 -137 -136z" />
    <glyph glyph-name="logicalnot.tf" 
d="M441 141v176h-366v54h420v-230h-54z" />
    <glyph glyph-name="radical.tf" 
d="M493 700h57l-244 -700h-37l-160 402h-117v54h153l140 -351z" />
    <glyph glyph-name="florin.tf" 
d="M300 520c-9 -47 -17 -89 -23 -129h157v-54h-165c-19 -134 -28 -246 -60 -408c-12 -62 -36 -114 -78 -146c-29 -22 -68 -33 -113 -33c-31 0 -61 6 -86 17l20 52c17 -9 41 -15 66 -15c80 0 119 43 137 136c31 160 41 270 59 397h-143v54h150c7 43 15 89 25 140
c12 62 36 114 78 146c29 22 68 33 113 33c31 0 61 -6 86 -17l-20 -52c-17 9 -41 15 -66 15c-80 0 -119 -43 -137 -136z" />
    <glyph glyph-name="asciicircum.tf" 
d="M89 350l177 350h37l177 -350h-59l-137 266l-136 -266h-59z" />
    <glyph glyph-name="asciitilde.tf" 
d="M112 196l-47 23c19 66 60 108 122 108c82 0 136 -88 194 -88c43 0 63 36 77 77l47 -23c-19 -66 -60 -108 -122 -108c-82 0 -136 88 -194 88c-43 0 -63 -36 -77 -77z" />
    <glyph glyph-name="approxequal.tf" 
d="M112 109l-47 23c19 66 60 108 122 108c82 0 136 -88 194 -88c43 0 63 36 77 77l47 -23c-19 -66 -60 -108 -122 -108c-82 0 -136 88 -194 88c-43 0 -63 -36 -77 -77zM112 283l-47 23c19 66 60 108 122 108c82 0 136 -88 194 -88c43 0 63 36 77 77l47 -23
c-19 -66 -60 -108 -122 -108c-82 0 -136 88 -194 88c-43 0 -63 -36 -77 -77z" />
    <glyph glyph-name="Delta.tf" 
d="M303 700l256 -666v-34h-549v34l256 666h37zM284 594l-209 -540h419z" />
    <glyph glyph-name="Euro.tf" 
d="M-10 401v54h81c33 148 138 255 290 255c90 0 162 -40 212 -117l-49 -33c-41 62 -93 93 -163 93c-120 0 -199 -83 -229 -198h278v-54h-287c-2 -17 -3 -34 -3 -51s1 -34 3 -50h287v-54h-277c30 -117 114 -199 232 -199c82 0 130 26 179 92l48 -33
c-57 -83 -134 -116 -225 -116c-154 0 -262 105 -296 256h-81v54h72c-1 16 -2 33 -2 50s1 34 2 51h-72z" />
    <glyph glyph-name="lozenge.tf" 
d="M303 0h-37l-212 333v34l212 333h37l212 -333v-34zM107 350l177 -279l178 279l-178 278z" />
    <glyph glyph-name="divide.tf" 
d="M495 229h-420v54h420v-54zM235 426c0 28 22 50 50 50s50 -22 50 -50s-22 -50 -50 -50s-50 22 -50 50zM235 86c0 28 22 50 50 50s50 -22 50 -50s-22 -50 -50 -50s-50 22 -50 50z" />
    <glyph glyph-name="quotedbl.tf" 
d="M170 446l-10 254h57l-10 -254h-37zM363 446l-10 254h57l-10 -254h-37z" />
    <glyph glyph-name="quotesingle.tf" 
d="M267 446l-10 254h57l-10 -254h-37z" />
    <glyph glyph-name="at.case" horiz-adv-x="1000" 
d="M624 272v156c-21 43 -67 83 -133 83c-86 0 -157 -68 -157 -161c0 -91 69 -161 157 -161c67 0 112 40 133 83zM636 204c-28 -39 -77 -69 -145 -69c-53 0 -102 19 -137 47c-49 39 -77 100 -77 168s28 129 77 168c35 28 84 47 137 47c47 0 100 -19 133 -58v48h57v-274
c0 -51 18 -92 78 -92c77 0 114 80 114 184c0 226 -167 363 -373 363s-373 -173 -373 -386c0 -216 172 -386 381 -386c83 0 160 30 221 77l31 -47c-69 -53 -158 -84 -253 -84c-242 0 -437 197 -437 440s195 440 437 440c234 0 423 -166 423 -417c0 -129 -60 -238 -172 -238
c-49 0 -99 20 -122 69z" />
    <glyph glyph-name="C" unicode="C" horiz-adv-x="685" 
d="M622 157l43 -38c-60 -77 -162 -129 -270 -129c-209 0 -360 153 -360 360c0 202 149 360 351 360c100 0 193 -40 254 -107l-41 -41c-49 54 -126 91 -213 91c-168 0 -291 -135 -291 -303c0 -170 123 -303 297 -303c96 0 181 46 230 110z" />
    <glyph glyph-name="D" unicode="D" horiz-adv-x="705" 
d="M610 350c0 94 -41 180 -110 234c-50 39 -115 59 -213 59h-137v-586h137c98 0 163 20 213 59c69 54 110 140 110 234zM670 350c0 -116 -53 -220 -139 -284c-57 -42 -130 -66 -241 -66h-200v700h200c111 0 184 -24 241 -66c86 -64 139 -168 139 -284z" />
    <glyph glyph-name="Amacron" unicode="&#x100;" horiz-adv-x="654" 
d="M187 836h280v-50h-280v50zM307 700h40l302 -700h-60l-92 211h-340l-92 -211h-60zM327 606l-146 -338h291z" />
    <glyph glyph-name="amacron" unicode="&#x101;" horiz-adv-x="582" 
d="M150 626h280v-50h-280v50zM497 0h-55v67c-34 -46 -93 -77 -164 -77c-43 0 -91 11 -136 43c-60 42 -97 113 -97 195c0 76 33 143 85 187c38 31 90 51 145 51c66 0 126 -27 167 -73v63h55v-456zM440 144v176c-20 34 -80 92 -164 92c-38 0 -78 -13 -110 -39
c-40 -33 -64 -86 -64 -145c0 -63 28 -119 72 -150c29 -20 64 -34 103 -34c67 0 127 38 163 100z" />
    <glyph glyph-name="Abreve" unicode="&#x102;" horiz-adv-x="654" 
d="M402 890h50c0 -69 -56 -125 -125 -125s-125 56 -125 125h50c0 -41 34 -75 75 -75s75 34 75 75zM307 700h40l302 -700h-60l-92 211h-340l-92 -211h-60zM327 606l-146 -338h291z" />
    <glyph glyph-name="abreve" unicode="&#x103;" horiz-adv-x="582" 
d="M368 680h50c0 -69 -56 -125 -125 -125s-125 56 -125 125h50c0 -41 34 -75 75 -75s75 34 75 75zM497 0h-55v67c-34 -46 -93 -77 -164 -77c-43 0 -91 11 -136 43c-60 42 -97 113 -97 195c0 76 33 143 85 187c38 31 90 51 145 51c66 0 126 -27 167 -73v63h55v-456zM440 144
v176c-20 34 -80 92 -164 92c-38 0 -78 -13 -110 -39c-40 -33 -64 -86 -64 -145c0 -63 28 -119 72 -150c29 -20 64 -34 103 -34c67 0 127 38 163 100z" />
    <glyph glyph-name="Aogonek" unicode="&#x104;" horiz-adv-x="654" 
d="M327 606l-146 -338h291zM590 -2l-93 213h-340l-92 -211h-60l302 700h40l302 -700c-12 -17 -32 -53 -32 -97c0 -56 35 -70 64 -70c17 0 31 3 40 5l10 -49c-7 -3 -30 -9 -55 -9c-72 0 -115 52 -115 118c0 46 17 82 29 100z" />
    <glyph glyph-name="aogonek" unicode="&#x105;" horiz-adv-x="582" 
d="M497 0c-12 -17 -32 -53 -32 -97c0 -56 35 -70 64 -70c17 0 31 3 40 5l10 -49c-7 -3 -30 -9 -55 -9c-72 0 -115 52 -115 118c0 49 20 87 33 106v63c-34 -46 -93 -77 -164 -77c-43 0 -91 11 -136 43c-60 42 -97 113 -97 195c0 76 33 143 85 187c38 31 90 51 145 51
c66 0 126 -27 167 -73v63h55v-456zM440 144v176c-20 34 -80 92 -164 92c-38 0 -78 -13 -110 -39c-40 -33 -64 -86 -64 -145c0 -63 28 -119 72 -150c29 -20 64 -34 103 -34c67 0 127 38 163 100z" />
    <glyph glyph-name="Cacute" unicode="&#x106;" horiz-adv-x="685" 
d="M622 157l43 -38c-60 -77 -162 -129 -270 -129c-209 0 -360 153 -360 360c0 202 149 360 351 360c100 0 193 -40 254 -107l-41 -41c-49 54 -126 91 -213 91c-168 0 -291 -135 -291 -303c0 -170 123 -303 297 -303c96 0 181 46 230 110zM426 880h75l-95 -140h-45z" />
    <glyph glyph-name="cacute" unicode="&#x107;" horiz-adv-x="500" 
d="M308 670h75l-95 -140h-45zM429 107l41 -38c-45 -50 -110 -79 -180 -79c-127 0 -245 92 -245 238c0 128 99 238 236 238c76 0 133 -30 174 -71l-36 -41c-34 33 -80 58 -138 58c-96 0 -179 -80 -179 -184c0 -102 80 -184 187 -184c53 0 101 22 140 63z" />
    <glyph glyph-name="Ccircumflex" unicode="&#x108;" horiz-adv-x="685" 
d="M622 157l43 -38c-60 -77 -162 -129 -270 -129c-209 0 -360 153 -360 360c0 202 149 360 351 360c100 0 193 -40 254 -107l-41 -41c-49 54 -126 91 -213 91c-168 0 -291 -135 -291 -303c0 -170 123 -303 297 -303c96 0 181 46 230 110zM386 834l-85 -94h-45l95 140h70
l95 -140h-45z" />
    <glyph glyph-name="ccircumflex" unicode="&#x109;" horiz-adv-x="500" 
d="M273 624l-85 -94h-45l95 140h70l95 -140h-45zM429 107l41 -38c-45 -50 -110 -79 -180 -79c-127 0 -245 92 -245 238c0 128 99 238 236 238c76 0 133 -30 174 -71l-36 -41c-34 33 -80 58 -138 58c-96 0 -179 -80 -179 -184c0 -102 80 -184 187 -184c53 0 101 22 140 63z
" />
    <glyph glyph-name="Cdotaccent" unicode="&#x10a;" horiz-adv-x="685" 
d="M622 157l43 -38c-60 -77 -162 -129 -270 -129c-209 0 -360 153 -360 360c0 202 149 360 351 360c100 0 193 -40 254 -107l-41 -41c-49 54 -126 91 -213 91c-168 0 -291 -135 -291 -303c0 -170 123 -303 297 -303c96 0 181 46 230 110zM336 824c0 28 22 51 50 51
s51 -23 51 -51s-23 -50 -51 -50s-50 22 -50 50z" />
    <glyph glyph-name="cdotaccent" unicode="&#x10b;" horiz-adv-x="500" 
d="M218 614c0 28 22 51 50 51s51 -23 51 -51s-23 -50 -51 -50s-50 22 -50 50zM429 107l41 -38c-45 -50 -110 -79 -180 -79c-127 0 -245 92 -245 238c0 128 99 238 236 238c76 0 133 -30 174 -71l-36 -41c-34 33 -80 58 -138 58c-96 0 -179 -80 -179 -184
c0 -102 80 -184 187 -184c53 0 101 22 140 63z" />
    <glyph glyph-name="Ccaron" unicode="&#x10c;" horiz-adv-x="685" 
d="M622 157l43 -38c-60 -77 -162 -129 -270 -129c-209 0 -360 153 -360 360c0 202 149 360 351 360c100 0 193 -40 254 -107l-41 -41c-49 54 -126 91 -213 91c-168 0 -291 -135 -291 -303c0 -170 123 -303 297 -303c96 0 181 46 230 110zM301 890l85 -94l85 94h45l-95 -140
h-70l-95 140h45z" />
    <glyph glyph-name="ccaron" unicode="&#x10d;" horiz-adv-x="500" 
d="M183 680l85 -94l85 94h45l-95 -140h-70l-95 140h45zM429 107l41 -38c-45 -50 -110 -79 -180 -79c-127 0 -245 92 -245 238c0 128 99 238 236 238c76 0 133 -30 174 -71l-36 -41c-34 33 -80 58 -138 58c-96 0 -179 -80 -179 -184c0 -102 80 -184 187 -184
c53 0 101 22 140 63z" />
    <glyph glyph-name="Dcaron" unicode="&#x10e;" horiz-adv-x="705" 
d="M610 350c0 94 -41 180 -110 234c-50 39 -115 59 -213 59h-137v-586h137c98 0 163 20 213 59c69 54 110 140 110 234zM670 350c0 -116 -53 -220 -139 -284c-57 -42 -130 -66 -241 -66h-200v700h200c111 0 184 -24 241 -66c86 -64 139 -168 139 -284zM231 890l85 -94l85 94
h45l-95 -140h-70l-95 140h45z" />
    <glyph glyph-name="dcaron" unicode="&#x10f;" horiz-adv-x="627" 
d="M602 700h75l-95 -140h-45zM440 144v176c-20 34 -80 92 -164 92c-38 0 -78 -13 -110 -39c-40 -33 -64 -86 -64 -145c0 -63 28 -119 72 -150c29 -20 64 -34 103 -34c67 0 127 38 163 100zM278 -10c-43 0 -91 11 -136 43c-60 42 -97 113 -97 195c0 76 33 143 85 187
c38 31 90 51 145 51c63 0 122 -25 165 -71v315h57v-710h-55v67c-34 -46 -93 -77 -164 -77z" />
    <glyph glyph-name="Dcroat" unicode="&#x110;" horiz-adv-x="705" 
d="M-10 358v57h100v285h200c111 0 184 -24 241 -66c86 -64 139 -168 139 -284s-53 -220 -139 -284c-57 -42 -130 -66 -241 -66h-200v358h-100zM610 350c0 94 -41 180 -110 234c-50 39 -115 59 -213 59h-137v-228h200v-57h-200v-301h137c98 0 163 20 213 59
c69 54 110 140 110 234z" />
    <glyph glyph-name="dcroat" unicode="&#x111;" horiz-adv-x="587" 
d="M278 -10c-43 0 -91 11 -136 43c-60 42 -97 113 -97 195c0 76 33 143 85 187c38 31 90 51 145 51c63 0 122 -25 165 -71v156h-130v54h130v105h57v-105h85v-54h-85v-551h-55v67c-34 -46 -93 -77 -164 -77zM440 144v176c-20 34 -80 92 -164 92c-38 0 -78 -13 -110 -39
c-40 -33 -64 -86 -64 -145c0 -63 28 -119 72 -150c29 -20 64 -34 103 -34c67 0 127 38 163 100z" />
    <glyph glyph-name="Emacron" unicode="&#x112;" horiz-adv-x="520" 
d="M470 643h-320v-228h250v-57h-250v-301h330v-57h-390v700h380v-57zM140 836h280v-50h-280v50z" />
    <glyph glyph-name="emacron" unicode="&#x113;" horiz-adv-x="520" 
d="M133 626h280v-50h-280v50zM263 412c-81 0 -141 -58 -158 -137h311c-12 80 -74 137 -153 137zM420 112l40 -38c-34 -43 -99 -84 -186 -84c-128 0 -229 96 -229 238c0 131 89 238 218 238c122 0 212 -96 212 -223c0 -4 0 -11 -1 -20h-372c4 -97 67 -179 172 -179
c60 0 110 24 146 68z" />
    <glyph glyph-name="Edotaccent" unicode="&#x116;" horiz-adv-x="520" 
d="M470 643h-320v-228h250v-57h-250v-301h330v-57h-390v700h380v-57zM230 824c0 28 22 51 50 51s51 -23 51 -51s-23 -50 -51 -50s-50 22 -50 50z" />
    <glyph glyph-name="edotaccent" unicode="&#x117;" horiz-adv-x="520" 
d="M223 614c0 28 22 51 50 51s51 -23 51 -51s-23 -50 -51 -50s-50 22 -50 50zM263 412c-81 0 -141 -58 -158 -137h311c-12 80 -74 137 -153 137zM420 112l40 -38c-34 -43 -99 -84 -186 -84c-128 0 -229 96 -229 238c0 131 89 238 218 238c122 0 212 -96 212 -223
c0 -4 0 -11 -1 -20h-372c4 -97 67 -179 172 -179c60 0 110 24 146 68z" />
    <glyph glyph-name="Eogonek" unicode="&#x118;" horiz-adv-x="520" 
d="M470 643h-320v-228h250v-57h-250v-301h330v-57h-107c-12 -17 -32 -53 -32 -97c0 -56 35 -70 64 -70c17 0 31 3 40 5l10 -49c-7 -3 -30 -9 -55 -9c-72 0 -115 52 -115 118c0 49 19 85 30 102h-225v700h380v-57z" />
    <glyph glyph-name="eogonek" unicode="&#x119;" horiz-adv-x="520" 
d="M420 112l40 -38c-22 -28 -56 -55 -101 -70c-11 -14 -34 -53 -34 -101c0 -56 35 -70 64 -70c17 0 31 3 40 5l10 -49c-7 -3 -30 -9 -55 -9c-72 0 -115 52 -115 118c0 41 12 74 23 93c-6 -1 -12 -1 -18 -1c-128 0 -229 96 -229 238c0 131 89 238 218 238
c122 0 212 -96 212 -223c0 -4 0 -11 -1 -20h-372c4 -97 67 -179 172 -179c60 0 110 24 146 68zM263 412c-81 0 -141 -58 -158 -137h311c-12 80 -74 137 -153 137z" />
    <glyph glyph-name="Ecaron" unicode="&#x11a;" horiz-adv-x="520" 
d="M470 643h-320v-228h250v-57h-250v-301h330v-57h-390v700h380v-57zM195 890l85 -94l85 94h45l-95 -140h-70l-95 140h45z" />
    <glyph glyph-name="ecaron" unicode="&#x11b;" horiz-adv-x="520" 
d="M188 680l85 -94l85 94h45l-95 -140h-70l-95 140h45zM263 412c-81 0 -141 -58 -158 -137h311c-12 80 -74 137 -153 137zM420 112l40 -38c-34 -43 -99 -84 -186 -84c-128 0 -229 96 -229 238c0 131 89 238 218 238c122 0 212 -96 212 -223c0 -4 0 -11 -1 -20h-372
c4 -97 67 -179 172 -179c60 0 110 24 146 68z" />
    <glyph glyph-name="Gcircumflex" unicode="&#x11c;" horiz-adv-x="730" 
d="M605 135v223h-230v57h290v-295c-60 -77 -162 -130 -270 -130c-209 0 -360 153 -360 360c0 202 149 360 351 360c100 0 193 -40 254 -107l-41 -41c-49 54 -126 91 -213 91c-168 0 -291 -135 -291 -303c0 -170 123 -303 297 -303c85 0 162 35 213 88zM386 834l-85 -94h-45
l95 140h70l95 -140h-45z" />
    <glyph glyph-name="gcircumflex" unicode="&#x11d;" horiz-adv-x="582" 
d="M295 624l-85 -94h-45l95 140h70l95 -140h-45zM497 2c0 -67 -6 -111 -25 -147c-33 -62 -98 -105 -198 -105c-87 0 -161 40 -207 109l45 33c34 -54 90 -88 163 -88c77 0 124 33 147 78c14 28 18 61 18 118v65c-34 -44 -91 -75 -162 -75c-43 0 -91 11 -136 43
c-60 42 -97 113 -97 195c0 76 33 143 85 187c38 31 90 51 145 51c66 0 126 -27 167 -73v63h55v-454zM440 144v176c-20 34 -80 92 -164 92c-38 0 -78 -13 -110 -39c-40 -33 -64 -86 -64 -145c0 -63 28 -119 72 -150c29 -20 64 -34 103 -34c67 0 127 38 163 100z" />
    <glyph glyph-name="Gbreve" unicode="&#x11e;" horiz-adv-x="730" 
d="M461 890h50c0 -69 -56 -125 -125 -125s-125 56 -125 125h50c0 -41 34 -75 75 -75s75 34 75 75zM605 135v223h-230v57h290v-295c-60 -77 -162 -130 -270 -130c-209 0 -360 153 -360 360c0 202 149 360 351 360c100 0 193 -40 254 -107l-41 -41c-49 54 -126 91 -213 91
c-168 0 -291 -135 -291 -303c0 -170 123 -303 297 -303c85 0 162 35 213 88z" />
    <glyph glyph-name="gbreve" unicode="&#x11f;" horiz-adv-x="582" 
d="M368 680h50c0 -69 -56 -125 -125 -125s-125 56 -125 125h50c0 -41 34 -75 75 -75s75 34 75 75zM497 2c0 -67 -6 -111 -25 -147c-33 -62 -98 -105 -198 -105c-87 0 -161 40 -207 109l45 33c34 -54 90 -88 163 -88c77 0 124 33 147 78c14 28 18 61 18 118v65
c-34 -44 -91 -75 -162 -75c-43 0 -91 11 -136 43c-60 42 -97 113 -97 195c0 76 33 143 85 187c38 31 90 51 145 51c66 0 126 -27 167 -73v63h55v-454zM440 144v176c-20 34 -80 92 -164 92c-38 0 -78 -13 -110 -39c-40 -33 -64 -86 -64 -145c0 -63 28 -119 72 -150
c29 -20 64 -34 103 -34c67 0 127 38 163 100z" />
    <glyph glyph-name="Gdotaccent" unicode="&#x120;" horiz-adv-x="730" 
d="M605 135v223h-230v57h290v-295c-60 -77 -162 -130 -270 -130c-209 0 -360 153 -360 360c0 202 149 360 351 360c100 0 193 -40 254 -107l-41 -41c-49 54 -126 91 -213 91c-168 0 -291 -135 -291 -303c0 -170 123 -303 297 -303c85 0 162 35 213 88zM336 824
c0 28 22 51 50 51s51 -23 51 -51s-23 -50 -51 -50s-50 22 -50 50z" />
    <glyph glyph-name="gdotaccent" unicode="&#x121;" horiz-adv-x="582" 
d="M253 614c0 28 22 51 50 51s51 -23 51 -51s-23 -50 -51 -50s-50 22 -50 50zM497 2c0 -67 -6 -111 -25 -147c-33 -62 -98 -105 -198 -105c-87 0 -161 40 -207 109l45 33c34 -54 90 -88 163 -88c77 0 124 33 147 78c14 28 18 61 18 118v65c-34 -44 -91 -75 -162 -75
c-43 0 -91 11 -136 43c-60 42 -97 113 -97 195c0 76 33 143 85 187c38 31 90 51 145 51c66 0 126 -27 167 -73v63h55v-454zM440 144v176c-20 34 -80 92 -164 92c-38 0 -78 -13 -110 -39c-40 -33 -64 -86 -64 -145c0 -63 28 -119 72 -150c29 -20 64 -34 103 -34
c67 0 127 38 163 100z" />
    <glyph glyph-name="Gcommaaccent" unicode="&#x122;" horiz-adv-x="730" 
d="M605 135v223h-230v57h290v-295c-60 -77 -162 -130 -270 -130c-209 0 -360 153 -360 360c0 202 149 360 351 360c100 0 193 -40 254 -107l-41 -41c-49 54 -126 91 -213 91c-168 0 -291 -135 -291 -303c0 -170 123 -303 297 -303c85 0 162 35 213 88zM360 -40h75l-95 -140
h-45z" />
    <glyph glyph-name="gcommaaccent" unicode="&#x123;" horiz-adv-x="582" 
d="M331 531h-75l95 140h45zM497 2c0 -67 -6 -111 -25 -147c-33 -62 -98 -105 -198 -105c-87 0 -161 40 -207 109l45 33c34 -54 90 -88 163 -88c77 0 124 33 147 78c14 28 18 61 18 118v65c-34 -44 -91 -75 -162 -75c-43 0 -91 11 -136 43c-60 42 -97 113 -97 195
c0 76 33 143 85 187c38 31 90 51 145 51c66 0 126 -27 167 -73v63h55v-454zM440 144v176c-20 34 -80 92 -164 92c-38 0 -78 -13 -110 -39c-40 -33 -64 -86 -64 -145c0 -63 28 -119 72 -150c29 -20 64 -34 103 -34c67 0 127 38 163 100z" />
    <glyph glyph-name="Hcircumflex" unicode="&#x124;" horiz-adv-x="750" 
d="M600 0v358h-450v-358h-60v700h60v-285h450v285h60v-700h-60zM376 834l-85 -94h-45l95 140h70l95 -140h-45z" />
    <glyph glyph-name="hcircumflex" unicode="&#x125;" horiz-adv-x="577" 
d="M124 844l-85 -94h-45l95 140h70l95 -140h-45zM142 710v-315c36 48 98 71 159 71c66 0 125 -27 162 -77c25 -33 39 -71 39 -146v-243h-57v239c0 60 -10 89 -26 112c-26 38 -69 61 -119 61c-66 0 -123 -35 -158 -95v-317h-57v710h57z" />
    <glyph glyph-name="Hbar" unicode="&#x126;" horiz-adv-x="750" 
d="M750 605v-57h-90v-548h-60v358h-450v-358h-60v548h-90v57h90v95h60v-95h450v95h60v-95h90zM150 415h450v133h-450v-133z" />
    <glyph glyph-name="hbar" unicode="&#x127;" horiz-adv-x="577" 
d="M142 710v-105h130v-54h-130v-156c36 48 98 71 159 71c66 0 125 -27 162 -77c25 -33 39 -71 39 -146v-243h-57v239c0 60 -10 89 -26 112c-26 38 -69 61 -119 61c-66 0 -123 -35 -158 -95v-317h-57v551h-85v54h85v105h57z" />
    <glyph glyph-name="Itilde" unicode="&#x128;" horiz-adv-x="240" 
d="M90 0v700h60v-700h-60zM23 766l-40 11c1 40 25 83 74 83c51 0 86 -45 124 -45c21 0 34 13 36 45l40 -11c-1 -40 -25 -83 -74 -83c-51 0 -86 45 -124 45c-21 0 -34 -13 -36 -45z" />
    <glyph glyph-name="Imacron" unicode="&#x12a;" horiz-adv-x="240" 
d="M-20 836h280v-50h-280v50zM90 0v700h60v-700h-60z" />
    <glyph glyph-name="imacron" unicode="&#x12b;" horiz-adv-x="227" 
d="M85 0v456h57v-456h-57zM-26 626h280v-50h-280v50z" />
    <glyph glyph-name="Iogonek" unicode="&#x12e;" horiz-adv-x="240" 
d="M150 700v-700c-12 -17 -32 -53 -32 -97c0 -56 35 -70 64 -70c17 0 31 3 40 5l10 -49c-7 -3 -30 -9 -55 -9c-72 0 -115 52 -115 118c0 46 16 81 28 99v703h60z" />
    <glyph glyph-name="iogonek" unicode="&#x12f;" horiz-adv-x="227" 
d="M142 456v-456c-12 -17 -32 -53 -32 -97c0 -56 35 -70 64 -70c17 0 31 3 40 5l10 -49c-7 -3 -30 -9 -55 -9c-72 0 -115 52 -115 118c0 49 19 86 31 103v455h57zM63 614c0 28 22 51 50 51s51 -23 51 -51s-23 -50 -51 -50s-50 22 -50 50z" />
    <glyph glyph-name="Idotaccent" unicode="&#x130;" horiz-adv-x="240" 
d="M70 824c0 28 22 51 50 51s51 -23 51 -51s-23 -50 -51 -50s-50 22 -50 50zM90 0v700h60v-700h-60z" />
    <glyph glyph-name="Jcircumflex" unicode="&#x134;" horiz-adv-x="435" 
d="M315 834l-85 -94h-45l95 140h70l95 -140h-45zM0 102l54 22c19 -45 64 -77 116 -77c46 0 86 23 108 60c11 19 17 42 17 85v508h60v-505c0 -58 -11 -95 -31 -124c-33 -50 -90 -81 -154 -81c-76 0 -142 46 -170 112z" />
    <glyph glyph-name="jcircumflex" unicode="&#x135;" horiz-adv-x="270" 
d="M146 624l-85 -94h-45l95 140h70l95 -140h-45zM-10 -247l5 53c10 -2 19 -2 25 -2c36 0 70 15 89 43c13 19 19 41 19 95v514h57v-514c0 -71 -12 -108 -36 -137c-29 -35 -76 -55 -126 -55c-11 0 -25 1 -33 3z" />
    <glyph glyph-name="Kcommaaccent" unicode="&#x136;" horiz-adv-x="610" 
d="M590 0h-80l-360 354v-354h-60v700h60v-314l330 314h80l-346 -331zM280 -40h75l-95 -140h-45z" />
    <glyph glyph-name="kcommaaccent" unicode="&#x137;" horiz-adv-x="496" 
d="M481 0h-80l-259 241v-241h-57v710h57v-444l233 190h85l-250 -205zM230 -40h75l-95 -140h-45z" />
    <glyph glyph-name="Lacute" unicode="&#x139;" horiz-adv-x="500" 
d="M150 700v-643h330v-57h-390v700h60zM165 880h75l-95 -140h-45z" />
    <glyph glyph-name="lacute" unicode="&#x13a;" horiz-adv-x="227" 
d="M154 890h75l-95 -140h-45zM85 0v710h57v-710h-57z" />
    <glyph glyph-name="Lcommaaccent" unicode="&#x13b;" horiz-adv-x="500" 
d="M150 700v-643h330v-57h-390v700h60zM250 -40h75l-95 -140h-45z" />
    <glyph glyph-name="lcommaaccent" unicode="&#x13c;" horiz-adv-x="227" 
d="M85 0v710h57v-710h-57zM85 -40h75l-95 -140h-45z" />
    <glyph glyph-name="Lcaron" unicode="&#x13d;" horiz-adv-x="500" 
d="M150 700v-643h330v-57h-390v700h60zM295 700h75l-95 -140h-45z" />
    <glyph glyph-name="lcaron" unicode="&#x13e;" horiz-adv-x="267" 
d="M247 700h75l-95 -140h-45zM85 0v710h57v-710h-57z" />
    <glyph glyph-name="Nacute" unicode="&#x143;" horiz-adv-x="750" 
d="M90 0v700h40l470 -583v583h60v-700h-40l-470 583v-583h-60zM415 880h75l-95 -140h-45z" />
    <glyph glyph-name="nacute" unicode="&#x144;" horiz-adv-x="577" 
d="M337 670h75l-95 -140h-45zM140 456v-64c37 49 97 74 161 74c66 0 125 -27 162 -77c25 -33 39 -71 39 -146v-243h-57v239c0 60 -10 89 -26 112c-26 38 -69 61 -119 61c-66 0 -123 -35 -158 -95v-317h-57v456h55z" />
    <glyph glyph-name="Ncommaaccent" unicode="&#x145;" horiz-adv-x="750" 
d="M90 0v700h40l470 -583v583h60v-700h-40l-470 583v-583h-60zM330 -40h75l-95 -140h-45z" />
    <glyph glyph-name="ncommaaccent" unicode="&#x146;" horiz-adv-x="577" 
d="M250 -40h75l-95 -140h-45zM140 456v-64c37 49 97 74 161 74c66 0 125 -27 162 -77c25 -33 39 -71 39 -146v-243h-57v239c0 60 -10 89 -26 112c-26 38 -69 61 -119 61c-66 0 -123 -35 -158 -95v-317h-57v456h55z" />
    <glyph glyph-name="Ncaron" unicode="&#x147;" horiz-adv-x="750" 
d="M90 0v700h40l470 -583v583h60v-700h-40l-470 583v-583h-60zM290 890l85 -94l85 94h45l-95 -140h-70l-95 140h45z" />
    <glyph glyph-name="ncaron" unicode="&#x148;" horiz-adv-x="577" 
d="M212 680l85 -94l85 94h45l-95 -140h-70l-95 140h45zM140 456v-64c37 49 97 74 161 74c66 0 125 -27 162 -77c25 -33 39 -71 39 -146v-243h-57v239c0 60 -10 89 -26 112c-26 38 -69 61 -119 61c-66 0 -123 -35 -158 -95v-317h-57v456h55z" />
    <glyph glyph-name="Omacron" unicode="&#x14c;" horiz-adv-x="766" 
d="M35 350c0 204 150 360 348 360s348 -156 348 -360s-150 -360 -348 -360s-348 156 -348 360zM95 350c0 -166 119 -303 288 -303s288 137 288 303s-119 303 -288 303s-288 -137 -288 -303zM243 836h280v-50h-280v50z" />
    <glyph glyph-name="omacron" unicode="&#x14d;" horiz-adv-x="560" 
d="M458 228c0 102 -75 184 -178 184s-178 -82 -178 -184s75 -184 178 -184s178 82 178 184zM515 228c0 -131 -99 -238 -235 -238s-235 107 -235 238s99 238 235 238s235 -107 235 -238zM140 626h280v-50h-280v50z" />
    <glyph glyph-name="Ohungarumlaut" unicode="&#x150;" horiz-adv-x="766" 
d="M35 350c0 204 150 360 348 360s348 -156 348 -360s-150 -360 -348 -360s-348 156 -348 360zM95 350c0 -166 119 -303 288 -303s288 137 288 303s-119 303 -288 303s-288 -137 -288 -303zM364 880h75l-95 -140h-45zM514 880h75l-95 -140h-45z" />
    <glyph glyph-name="ohungarumlaut" unicode="&#x151;" horiz-adv-x="560" 
d="M458 228c0 102 -75 184 -178 184s-178 -82 -178 -184s75 -184 178 -184s178 82 178 184zM515 228c0 -131 -99 -238 -235 -238s-235 107 -235 238s99 238 235 238s235 -107 235 -238zM260 670h75l-95 -140h-45zM410 670h75l-95 -140h-45z" />
    <glyph glyph-name="Racute" unicode="&#x154;" horiz-adv-x="615" 
d="M610 0h-72l-270 358h-118v-358h-60v700h239c64 0 105 -17 136 -45c34 -31 55 -76 55 -126s-21 -95 -55 -126c-29 -27 -67 -43 -125 -45zM150 415h176c50 0 77 11 97 30c23 21 37 51 37 84s-14 63 -37 84c-20 19 -47 30 -97 30h-176v-228zM305 880h75l-95 -140h-45z" />
    <glyph glyph-name="racute" unicode="&#x155;" horiz-adv-x="350" 
d="M320 464l-8 -53c-6 1 -24 1 -27 1c-62 0 -119 -42 -143 -101v-311h-57v456h57v-60c21 32 73 70 144 70c8 0 28 -1 34 -2zM217 670h75l-95 -140h-45z" />
    <glyph glyph-name="Rcommaaccent" unicode="&#x156;" horiz-adv-x="615" 
d="M610 0h-72l-270 358h-118v-358h-60v700h239c64 0 105 -17 136 -45c34 -31 55 -76 55 -126s-21 -95 -55 -126c-29 -27 -67 -43 -125 -45zM150 415h176c50 0 77 11 97 30c23 21 37 51 37 84s-14 63 -37 84c-20 19 -47 30 -97 30h-176v-228zM285 -40h75l-95 -140h-45z" />
    <glyph glyph-name="rcommaaccent" unicode="&#x157;" horiz-adv-x="350" 
d="M85 -40h75l-95 -140h-45zM320 464l-8 -53c-6 1 -24 1 -27 1c-62 0 -119 -42 -143 -101v-311h-57v456h57v-60c21 32 73 70 144 70c8 0 28 -1 34 -2z" />
    <glyph glyph-name="Rcaron" unicode="&#x158;" horiz-adv-x="615" 
d="M610 0h-72l-270 358h-118v-358h-60v700h239c64 0 105 -17 136 -45c34 -31 55 -76 55 -126s-21 -95 -55 -126c-29 -27 -67 -43 -125 -45zM150 415h176c50 0 77 11 97 30c23 21 37 51 37 84s-14 63 -37 84c-20 19 -47 30 -97 30h-176v-228zM205 890l85 -94l85 94h45
l-95 -140h-70l-95 140h45z" />
    <glyph glyph-name="rcaron" unicode="&#x159;" horiz-adv-x="350" 
d="M132 680l85 -94l85 94h45l-95 -140h-70l-95 140h45zM320 464l-8 -53c-6 1 -24 1 -27 1c-62 0 -119 -42 -143 -101v-311h-57v456h57v-60c21 32 73 70 144 70c8 0 28 -1 34 -2z" />
    <glyph glyph-name="Sacute" unicode="&#x15a;" horiz-adv-x="516" 
d="M298 880h75l-95 -140h-45zM35 108l44 39c41 -53 96 -100 188 -100c70 0 144 50 144 131c0 127 -150 141 -252 204c-52 32 -95 73 -95 144c0 109 87 184 199 184c90 0 147 -42 179 -70l-38 -44c-41 36 -81 57 -139 57c-78 0 -141 -48 -141 -124c0 -106 141 -120 241 -182
c58 -36 106 -88 106 -169c0 -111 -90 -188 -204 -188c-93 0 -172 39 -232 118z" />
    <glyph glyph-name="sacute" unicode="&#x15b;" horiz-adv-x="425" 
d="M40 55l35 44c39 -33 87 -55 138 -55c57 0 105 32 105 80c0 117 -263 53 -263 209c0 83 78 133 155 133c62 0 113 -21 147 -44l-30 -47c-39 25 -67 37 -114 37c-48 0 -101 -25 -101 -78c0 -101 263 -47 263 -207c0 -85 -72 -137 -158 -137c-76 0 -137 28 -177 65zM247 670
h75l-95 -140h-45z" />
    <glyph glyph-name="Scircumflex" unicode="&#x15c;" horiz-adv-x="516" 
d="M263 834l-85 -94h-45l95 140h70l95 -140h-45zM35 108l44 39c41 -53 96 -100 188 -100c70 0 144 50 144 131c0 127 -150 141 -252 204c-52 32 -95 73 -95 144c0 109 87 184 199 184c90 0 147 -42 179 -70l-38 -44c-41 36 -81 57 -139 57c-78 0 -141 -48 -141 -124
c0 -106 141 -120 241 -182c58 -36 106 -88 106 -169c0 -111 -90 -188 -204 -188c-93 0 -172 39 -232 118z" />
    <glyph glyph-name="scircumflex" unicode="&#x15d;" horiz-adv-x="425" 
d="M40 55l35 44c39 -33 87 -55 138 -55c57 0 105 32 105 80c0 117 -263 53 -263 209c0 83 78 133 155 133c62 0 113 -21 147 -44l-30 -47c-39 25 -67 37 -114 37c-48 0 -101 -25 -101 -78c0 -101 263 -47 263 -207c0 -85 -72 -137 -158 -137c-76 0 -137 28 -177 65zM215 624
l-85 -94h-45l95 140h70l95 -140h-45z" />
    <glyph glyph-name="Scedilla" unicode="&#x15e;" horiz-adv-x="516" 
d="M198 -140l48 131c-84 5 -156 44 -211 117l44 39c41 -53 96 -100 188 -100c70 0 144 50 144 131c0 127 -150 141 -252 204c-52 32 -95 73 -95 144c0 109 87 184 199 184c90 0 147 -42 179 -70l-38 -44c-41 36 -81 57 -139 57c-78 0 -141 -48 -141 -124
c0 -106 141 -120 241 -182c58 -36 106 -88 106 -169c0 -102 -76 -175 -176 -186l-22 -132h-75z" />
    <glyph glyph-name="scedilla" unicode="&#x15f;" horiz-adv-x="425" 
d="M147 -140l48 131c-66 5 -119 30 -155 64l35 44c39 -33 87 -55 138 -55c57 0 105 32 105 80c0 117 -263 53 -263 209c0 83 78 133 155 133c62 0 113 -21 147 -44l-30 -47c-39 25 -67 37 -114 37c-48 0 -101 -25 -101 -78c0 -101 263 -47 263 -207
c0 -76 -58 -126 -131 -135l-22 -132h-75z" />
    <glyph glyph-name="Tcommaaccent" unicode="&#x162;" horiz-adv-x="500" 
d="M20 700h460v-57h-200v-643h-60v643h-200v57zM220 -40h75l-95 -140h-45z" />
    <glyph glyph-name="tcommaaccent" unicode="&#x163;" horiz-adv-x="386" 
d="M218 -40h75l-95 -140h-45zM340 456v-54h-155v-250c0 -41 8 -61 20 -76c16 -20 42 -32 76 -32c13 0 32 1 49 6l10 -52c-15 -5 -41 -8 -59 -8c-42 0 -91 13 -122 52c-20 25 -31 58 -31 112v248h-128v54h128v124h57v-124h155z" />
    <glyph glyph-name="Tcaron" unicode="&#x164;" horiz-adv-x="500" 
d="M165 890l85 -94l85 94h45l-95 -140h-70l-95 140h45zM20 700h460v-57h-200v-643h-60v643h-200v57z" />
    <glyph glyph-name="tcaron" unicode="&#x165;" horiz-adv-x="385" 
d="M290 700h75l-95 -140h-45zM340 456v-54h-155v-250c0 -41 8 -61 20 -76c16 -20 42 -32 76 -32c13 0 32 1 49 6l10 -52c-15 -5 -41 -8 -59 -8c-42 0 -91 13 -122 52c-20 25 -31 58 -31 112v248h-128v54h128v124h57v-124h155z" />
    <glyph glyph-name="Umacron" unicode="&#x16a;" horiz-adv-x="720" 
d="M220 836h280v-50h-280v50zM360 -10c-101 0 -190 50 -239 127c-26 41 -41 89 -41 163v420h60v-423c0 -61 11 -98 31 -130c39 -61 109 -100 189 -100s150 39 189 100c20 32 31 69 31 130v423h60v-420c0 -74 -15 -122 -41 -163c-49 -77 -138 -127 -239 -127z" />
    <glyph glyph-name="umacron" unicode="&#x16b;" horiz-adv-x="567" 
d="M139 626h280v-50h-280v50zM427 0v62c-32 -42 -91 -72 -154 -72c-75 0 -138 36 -171 94c-17 31 -27 68 -27 129v243h57v-234c0 -64 10 -94 26 -118c24 -36 65 -60 115 -60c62 0 122 38 152 95v317h57v-456h-55z" />
    <glyph glyph-name="Ubreve" unicode="&#x16c;" horiz-adv-x="720" 
d="M435 890h50c0 -69 -56 -125 -125 -125s-125 56 -125 125h50c0 -41 34 -75 75 -75s75 34 75 75zM360 -10c-101 0 -190 50 -239 127c-26 41 -41 89 -41 163v420h60v-423c0 -61 11 -98 31 -130c39 -61 109 -100 189 -100s150 39 189 100c20 32 31 69 31 130v423h60v-420
c0 -74 -15 -122 -41 -163c-49 -77 -138 -127 -239 -127z" />
    <glyph glyph-name="ubreve" unicode="&#x16d;" horiz-adv-x="567" 
d="M354 680h50c0 -69 -56 -125 -125 -125s-125 56 -125 125h50c0 -41 34 -75 75 -75s75 34 75 75zM427 0v62c-32 -42 -91 -72 -154 -72c-75 0 -138 36 -171 94c-17 31 -27 68 -27 129v243h57v-234c0 -64 10 -94 26 -118c24 -36 65 -60 115 -60c62 0 122 38 152 95v317h57
v-456h-55z" />
    <glyph glyph-name="Uring" unicode="&#x16e;" horiz-adv-x="720" 
d="M360 -10c-101 0 -190 50 -239 127c-26 41 -41 89 -41 163v420h60v-423c0 -61 11 -98 31 -130c39 -61 109 -100 189 -100s150 39 189 100c20 32 31 69 31 130v423h60v-420c0 -74 -15 -122 -41 -163c-49 -77 -138 -127 -239 -127zM270 820c0 50 40 90 90 90s90 -40 90 -90
s-40 -90 -90 -90s-90 40 -90 90zM310 820c0 -28 22 -50 50 -50s50 22 50 50s-22 50 -50 50s-50 -22 -50 -50z" />
    <glyph glyph-name="uring" unicode="&#x16f;" horiz-adv-x="567" 
d="M189 610c0 50 40 90 90 90s90 -40 90 -90s-40 -90 -90 -90s-90 40 -90 90zM229 610c0 -28 22 -50 50 -50s50 22 50 50s-22 50 -50 50s-50 -22 -50 -50zM427 0v62c-32 -42 -91 -72 -154 -72c-75 0 -138 36 -171 94c-17 31 -27 68 -27 129v243h57v-234
c0 -64 10 -94 26 -118c24 -36 65 -60 115 -60c62 0 122 38 152 95v317h57v-456h-55z" />
    <glyph glyph-name="Uhungarumlaut" unicode="&#x170;" horiz-adv-x="720" 
d="M324 880h75l-95 -140h-45zM474 880h75l-95 -140h-45zM360 -10c-101 0 -190 50 -239 127c-26 41 -41 89 -41 163v420h60v-423c0 -61 11 -98 31 -130c39 -61 109 -100 189 -100s150 39 189 100c20 32 31 69 31 130v423h60v-420c0 -74 -15 -122 -41 -163
c-49 -77 -138 -127 -239 -127z" />
    <glyph glyph-name="uhungarumlaut" unicode="&#x171;" horiz-adv-x="567" 
d="M246 670h75l-95 -140h-45zM396 670h75l-95 -140h-45zM427 0v62c-32 -42 -91 -72 -154 -72c-75 0 -138 36 -171 94c-17 31 -27 68 -27 129v243h57v-234c0 -64 10 -94 26 -118c24 -36 65 -60 115 -60c62 0 122 38 152 95v317h57v-456h-55z" />
    <glyph glyph-name="Uogonek" unicode="&#x172;" horiz-adv-x="720" 
d="M360 -10c-101 0 -190 50 -239 127c-26 41 -41 89 -41 163v420h60v-423c0 -61 11 -98 31 -130c39 -61 109 -100 189 -100s150 39 189 100c20 32 31 69 31 130v423h60v-420c0 -74 -15 -122 -41 -163c-34 -53 -86 -93 -148 -113c-11 -14 -35 -52 -35 -101
c0 -56 35 -70 64 -70c17 0 31 3 40 5l10 -49c-7 -3 -30 -9 -55 -9c-72 0 -115 52 -115 118c0 42 14 74 25 93c-12 -1 -17 -1 -25 -1z" />
    <glyph glyph-name="uogonek" unicode="&#x173;" horiz-adv-x="567" 
d="M427 0v62c-17 -22 -42 -41 -70 -54c-10 -11 -38 -53 -38 -105c0 -56 35 -70 64 -70c17 0 31 3 40 5l10 -49c-7 -3 -30 -9 -55 -9c-72 0 -115 52 -115 118c0 41 12 73 23 93c-4 -1 -9 -1 -13 -1c-75 0 -138 36 -171 94c-17 31 -27 68 -27 129v243h57v-234
c0 -64 10 -94 26 -118c24 -36 65 -60 115 -60c62 0 122 38 152 95v317h57v-456h-55z" />
    <glyph glyph-name="Wcircumflex" unicode="&#x174;" horiz-adv-x="942" 
d="M451 700h40l187 -579l188 579h61l-230 -700h-40l-186 575l-186 -575h-40l-230 700h61l188 -579zM471 834l-85 -94h-45l95 140h70l95 -140h-45z" />
    <glyph glyph-name="wcircumflex" unicode="&#x175;" horiz-adv-x="762" 
d="M381 363l-148 -363h-37l-176 456h59l138 -358l146 358h36l146 -358l138 358h59l-176 -456h-37zM381 624l-85 -94h-45l95 140h70l95 -140h-45z" />
    <glyph glyph-name="Ycircumflex" unicode="&#x176;" horiz-adv-x="560" 
d="M550 700l-240 -371v-329h-60v329l-240 371h68l202 -313l202 313h68zM280 834l-85 -94h-45l95 140h70l95 -140h-45z" />
    <glyph glyph-name="ycircumflex" unicode="&#x177;" horiz-adv-x="487" 
d="M244 624l-85 -94h-45l95 140h70l95 -140h-45zM156 -240h-60l125 277l-206 419h64l171 -354l161 354h61z" />
    <glyph glyph-name="Zacute" unicode="&#x179;" horiz-adv-x="585" 
d="M335 880h75l-95 -140h-45zM40 37l409 606h-379v57h460v-37l-407 -606h427v-57h-510v37z" />
    <glyph glyph-name="zacute" unicode="&#x17a;" horiz-adv-x="470" 
d="M40 34l304 368h-279v54h365v-34l-305 -368h315v-54h-400v34zM290 670h75l-95 -140h-45z" />
    <glyph glyph-name="Zdotaccent" unicode="&#x17b;" horiz-adv-x="585" 
d="M40 37l409 606h-379v57h460v-37l-407 -606h427v-57h-510v37zM246 824c0 28 22 51 50 51s51 -23 51 -51s-23 -50 -51 -50s-50 22 -50 50z" />
    <glyph glyph-name="zdotaccent" unicode="&#x17c;" horiz-adv-x="470" 
d="M40 34l304 368h-279v54h365v-34l-305 -368h315v-54h-400v34zM204 614c0 28 22 51 50 51s51 -23 51 -51s-23 -50 -51 -50s-50 22 -50 50z" />
    <glyph glyph-name="Scommaaccent" unicode="&#x218;" horiz-adv-x="516" 
d="M35 108l44 39c41 -53 96 -100 188 -100c70 0 144 50 144 131c0 127 -150 141 -252 204c-52 32 -95 73 -95 144c0 109 87 184 199 184c90 0 147 -42 179 -70l-38 -44c-41 36 -81 57 -139 57c-78 0 -141 -48 -141 -124c0 -106 141 -120 241 -182c58 -36 106 -88 106 -169
c0 -111 -90 -188 -204 -188c-93 0 -172 39 -232 118z" />
    <glyph glyph-name="scommaaccent" unicode="&#x219;" horiz-adv-x="425" 
d="M40 55l35 44c39 -33 87 -55 138 -55c57 0 105 32 105 80c0 117 -263 53 -263 209c0 83 78 133 155 133c62 0 113 -21 147 -44l-30 -47c-39 25 -67 37 -114 37c-48 0 -101 -25 -101 -78c0 -101 263 -47 263 -207c0 -85 -72 -137 -158 -137c-76 0 -137 28 -177 65z" />
    <glyph glyph-name="Wgrave" unicode="&#x1e80;" horiz-adv-x="942" 
d="M451 700h40l187 -579l188 579h61l-230 -700h-40l-186 575l-186 -575h-40l-230 700h61l188 -579zM351 880h75l65 -140h-45z" />
    <glyph glyph-name="wgrave" unicode="&#x1e81;" horiz-adv-x="762" 
d="M381 363l-148 -363h-37l-176 456h59l138 -358l146 358h36l146 -358l138 358h59l-176 -456h-37zM259 670h75l65 -140h-45z" />
    <glyph glyph-name="amacron.ss01" horiz-adv-x="510" 
d="M123 626h280v-50h-280v50zM378 140v58c-27 20 -72 39 -125 39c-76 0 -136 -36 -136 -100c0 -51 46 -93 112 -93s120 41 149 96zM227 -10c-100 0 -167 69 -167 147c0 105 98 154 186 154c69 0 121 -25 132 -32v7c0 48 -9 75 -25 96c-25 33 -63 50 -106 50
c-55 0 -101 -25 -128 -48l-33 46c29 25 85 56 161 56c61 0 118 -25 152 -71c23 -31 36 -70 36 -132v-263h-55v62c-32 -42 -90 -72 -153 -72z" />
    <glyph glyph-name="abreve.ss01" horiz-adv-x="510" 
d="M342 680h50c0 -69 -56 -125 -125 -125s-125 56 -125 125h50c0 -41 34 -75 75 -75s75 34 75 75zM378 140v58c-27 20 -72 39 -125 39c-76 0 -136 -36 -136 -100c0 -51 46 -93 112 -93s120 41 149 96zM227 -10c-100 0 -167 69 -167 147c0 105 98 154 186 154
c69 0 121 -25 132 -32v7c0 48 -9 75 -25 96c-25 33 -63 50 -106 50c-55 0 -101 -25 -128 -48l-33 46c29 25 85 56 161 56c61 0 118 -25 152 -71c23 -31 36 -70 36 -132v-263h-55v62c-32 -42 -90 -72 -153 -72z" />
    <glyph glyph-name="aogonek.ss01" horiz-adv-x="510" 
d="M378 140v58c-27 20 -72 39 -125 39c-76 0 -136 -36 -136 -100c0 -51 46 -93 112 -93s120 41 149 96zM380 4v58c-32 -42 -90 -72 -153 -72c-100 0 -167 69 -167 147c0 105 98 154 186 154c69 0 121 -25 132 -32v7c0 48 -9 75 -25 96c-25 33 -63 50 -106 50
c-55 0 -101 -25 -128 -48l-33 46c29 25 85 56 161 56c61 0 118 -25 152 -71c23 -31 36 -70 36 -132v-263c-12 -17 -32 -53 -32 -97c0 -56 35 -70 64 -70c17 0 31 3 40 5l10 -49c-7 -3 -30 -9 -55 -9c-72 0 -115 52 -115 118c0 49 20 87 33 106z" />
    <glyph glyph-name="ebreve" unicode="&#x115;" horiz-adv-x="520" 
d="M348 680h50c0 -69 -56 -125 -125 -125s-125 56 -125 125h50c0 -41 34 -75 75 -75s75 34 75 75zM263 412c-81 0 -141 -58 -158 -137h311c-12 80 -74 137 -153 137zM420 112l40 -38c-34 -43 -99 -84 -186 -84c-128 0 -229 96 -229 238c0 131 89 238 218 238
c122 0 212 -96 212 -223c0 -4 0 -11 -1 -20h-372c4 -97 67 -179 172 -179c60 0 110 24 146 68z" />
    <glyph glyph-name="Ebreve" unicode="&#x114;" horiz-adv-x="520" 
d="M355 890h50c0 -69 -56 -125 -125 -125s-125 56 -125 125h50c0 -41 34 -75 75 -75s75 34 75 75zM470 643h-320v-228h250v-57h-250v-301h330v-57h-390v700h380v-57z" />
    <glyph glyph-name="itilde" unicode="&#x129;" horiz-adv-x="227" 
d="M85 0v456h57v-456h-57zM17 556l-40 11c1 40 25 83 74 83c51 0 86 -45 124 -45c21 0 34 13 36 45l40 -11c-1 -40 -25 -83 -74 -83c-51 0 -86 45 -124 45c-21 0 -34 -13 -36 -45z" />
    <glyph glyph-name="Ldot" unicode="&#x13f;" horiz-adv-x="500" 
d="M150 700v-643h330v-57h-390v700h60zM250 350c0 28 22 51 50 51s51 -23 51 -51s-23 -50 -51 -50s-50 22 -50 50z" />
    <glyph glyph-name="ldot" unicode="&#x140;" horiz-adv-x="227" 
d="M85 0v710h57v-710h-57zM192 350c0 28 22 51 50 51s51 -23 51 -51s-23 -50 -51 -50s-50 22 -50 50z" />
    <glyph glyph-name="Obreve" unicode="&#x14e;" horiz-adv-x="766" 
d="M458 890h50c0 -69 -56 -125 -125 -125s-125 56 -125 125h50c0 -41 34 -75 75 -75s75 34 75 75zM35 350c0 204 150 360 348 360s348 -156 348 -360s-150 -360 -348 -360s-348 156 -348 360zM95 350c0 -166 119 -303 288 -303s288 137 288 303s-119 303 -288 303
s-288 -137 -288 -303z" />
    <glyph glyph-name="obreve" unicode="&#x14f;" horiz-adv-x="560" 
d="M458 228c0 102 -75 184 -178 184s-178 -82 -178 -184s75 -184 178 -184s178 82 178 184zM515 228c0 -131 -99 -238 -235 -238s-235 107 -235 238s99 238 235 238s235 -107 235 -238zM355 680h50c0 -69 -56 -125 -125 -125s-125 56 -125 125h50c0 -41 34 -75 75 -75
s75 34 75 75z" />
    <glyph glyph-name="Tbar" unicode="&#x166;" horiz-adv-x="500" 
d="M440 358h-160v-358h-60v358h-160v57h160v228h-200v57h460v-57h-200v-228h160v-57z" />
    <glyph glyph-name="tbar" unicode="&#x167;" horiz-adv-x="386" 
d="M340 456v-54h-155v-140h155v-54h-155v-56c0 -41 8 -61 20 -76c16 -20 42 -32 76 -32c13 0 32 1 49 6l10 -52c-15 -5 -41 -8 -59 -8c-42 0 -91 13 -122 52c-20 25 -31 58 -31 112v54h-128v54h128v140h-128v54h128v124h57v-124h155z" />
    <glyph glyph-name="Utilde" unicode="&#x168;" horiz-adv-x="720" 
d="M360 -10c-101 0 -190 50 -239 127c-26 41 -41 89 -41 163v420h60v-423c0 -61 11 -98 31 -130c39 -61 109 -100 189 -100s150 39 189 100c20 32 31 69 31 130v423h60v-420c0 -74 -15 -122 -41 -163c-49 -77 -138 -127 -239 -127zM263 766l-40 11c1 40 25 83 74 83
c51 0 86 -45 124 -45c21 0 34 13 36 45l40 -11c-1 -40 -25 -83 -74 -83c-51 0 -86 45 -124 45c-21 0 -34 -13 -36 -45z" />
    <glyph glyph-name="utilde" unicode="&#x169;" horiz-adv-x="567" 
d="M425 0v60c-33 -41 -92 -70 -152 -70c-75 0 -138 38 -171 96c-17 31 -27 68 -27 129v241h57v-234c0 -64 10 -94 26 -118c24 -36 65 -60 115 -60c62 0 122 38 152 95v317h57v-456h-57zM182 556l-40 11c1 40 25 83 74 83c51 0 86 -45 124 -45c21 0 34 13 36 45l40 -11
c-1 -40 -25 -83 -74 -83c-51 0 -86 45 -124 45c-21 0 -34 -13 -36 -45z" />
    <glyph glyph-name="Ibreve" unicode="&#x12c;" horiz-adv-x="240" 
d="M90 0v700h60v-700h-60zM195 890h50c0 -69 -56 -125 -125 -125s-125 56 -125 125h50c0 -41 34 -75 75 -75s75 34 75 75z" />
    <glyph glyph-name="ibreve" unicode="&#x12d;" horiz-adv-x="227" 
d="M85 0v456h57v-456h-57zM189 680h50c0 -69 -56 -125 -125 -125s-125 56 -125 125h50c0 -41 34 -75 75 -75s75 34 75 75z" />
    <glyph glyph-name="IJ" unicode="&#x132;" horiz-adv-x="675" 
d="M90 0v700h60v-700h-60zM240 102l54 22c19 -45 64 -77 116 -77c46 0 86 23 108 60c11 19 17 42 17 85v508h60v-505c0 -58 -11 -95 -31 -124c-33 -50 -90 -81 -154 -81c-76 0 -142 46 -170 112z" />
    <glyph glyph-name="ij" unicode="&#x133;" horiz-adv-x="497" 
d="M85 0v456h57v-456h-57zM63 614c0 28 22 51 50 51s51 -23 51 -51s-23 -50 -51 -50s-50 22 -50 50zM217 -247l5 53c10 -2 19 -2 25 -2c36 0 70 15 89 43c13 19 19 41 19 95v514h57v-514c0 -71 -12 -108 -36 -137c-29 -35 -76 -55 -126 -55c-11 0 -25 1 -33 3zM333 614
c0 28 22 51 50 51s51 -23 51 -51s-23 -50 -51 -50s-50 22 -50 50z" />
    <glyph glyph-name="kgreenlandic" unicode="&#x138;" horiz-adv-x="496" 
d="M481 0h-80l-259 241v-241h-57v456h57v-190l233 190h85l-250 -205z" />
    <glyph glyph-name="napostrophe" unicode="&#x149;" horiz-adv-x="577" 
d="M150 700h75l-95 -140h-45zM140 456v-64c37 49 97 74 161 74c66 0 125 -27 162 -77c25 -33 39 -71 39 -146v-243h-57v239c0 60 -10 89 -26 112c-26 38 -69 61 -119 61c-66 0 -123 -35 -158 -95v-317h-57v456h55z" />
    <glyph glyph-name="Eng" unicode="&#x14a;" horiz-adv-x="750" 
d="M305 -138l54 22c19 -45 64 -77 116 -77c46 0 86 23 108 60c11 19 17 42 17 85v73l-450 558v-583h-60v700h40l470 -583v583h60v-745c0 -58 -11 -95 -31 -124c-33 -50 -90 -81 -154 -81c-76 0 -142 46 -170 112z" />
    <glyph glyph-name="eng" unicode="&#x14b;" horiz-adv-x="577" 
d="M140 456v-64c37 49 97 74 161 74c66 0 125 -27 162 -77c25 -33 39 -71 39 -146v-301c0 -71 -12 -107 -36 -136c-29 -35 -76 -56 -126 -56c-34 0 -59 5 -83 18l23 50c17 -8 32 -14 57 -14c36 0 70 15 89 43c13 19 19 41 19 95v297c0 60 -10 89 -26 112
c-26 38 -69 61 -119 61c-66 0 -123 -35 -158 -95v-317h-57v456h55z" />
    <glyph glyph-name="longs" unicode="&#x17f;" horiz-adv-x="381" 
d="M187 528v-528h-57v525c0 70 15 108 39 137c31 37 78 58 130 58c29 0 57 -6 82 -18l-23 -51c-20 9 -38 15 -60 15c-37 0 -69 -16 -89 -45c-13 -19 -22 -39 -22 -93z" />
    <glyph glyph-name="uni018F" unicode="&#x18f;" horiz-adv-x="722" 
d="M357 47c144 0 245 106 268 254h-529c13 -155 128 -254 261 -254zM37 358h590c-5 162 -107 295 -282 295c-103 0 -188 -46 -250 -115l-42 42c56 61 156 130 292 130c211 0 342 -163 342 -360c0 -198 -135 -360 -330 -360c-184 0 -322 145 -322 337c0 6 0 17 2 31z" />
    <glyph glyph-name="uni01B5" unicode="&#x1b5;" horiz-adv-x="585" 
d="M130 415h165l154 228h-379v57h460v-37l-167 -248h127v-57h-165l-202 -301h427v-57h-510v37l216 321h-126v57z" />
    <glyph glyph-name="uni01B6" unicode="&#x1b6;" horiz-adv-x="470" 
d="M85 262h143l116 140h-279v54h365v-34l-133 -160h113v-54h-158l-127 -154h315v-54h-400v34l143 174h-98v54z" />
    <glyph glyph-name="Aringacute" unicode="&#x1fa;" horiz-adv-x="654" 
d="M237 820c0 50 40 90 90 90s90 -40 90 -90s-40 -90 -90 -90s-90 40 -90 90zM277 820c0 -28 22 -50 50 -50s50 22 50 50s-22 50 -50 50s-50 -22 -50 -50zM371 1084h75l-95 -140h-45zM307 700h40l302 -700h-60l-92 211h-340l-92 -211h-60zM327 606l-146 -338h291z" />
    <glyph glyph-name="aringacute" unicode="&#x1fb;" horiz-adv-x="582" 
d="M202 610c0 50 40 90 90 90s90 -40 90 -90s-40 -90 -90 -90s-90 40 -90 90zM242 610c0 -28 22 -50 50 -50s50 22 50 50s-22 50 -50 50s-50 -22 -50 -50zM336 874h75l-95 -140h-45zM497 0h-55v67c-34 -46 -93 -77 -164 -77c-43 0 -91 11 -136 43c-60 42 -97 113 -97 195
c0 76 33 143 85 187c38 31 90 51 145 51c66 0 126 -27 167 -73v63h55v-456zM440 144v176c-20 34 -80 92 -164 92c-38 0 -78 -13 -110 -39c-40 -33 -64 -86 -64 -145c0 -63 28 -119 72 -150c29 -20 64 -34 103 -34c67 0 127 38 163 100z" />
    <glyph glyph-name="AEacute" unicode="&#x1fc;" horiz-adv-x="870" 
d="M482 880h75l-95 -140h-45zM820 643h-320v-228h250v-57h-250v-301h330v-57h-390v211h-267l-127 -211h-66l418 700h422v-57zM207 268h233v392z" />
    <glyph glyph-name="aeacute" unicode="&#x1fd;" horiz-adv-x="915" 
d="M505 670h75l-95 -140h-45zM495 0h-53v67c-34 -46 -93 -77 -164 -77c-43 0 -91 11 -136 43c-60 42 -97 113 -97 195c0 76 33 143 85 187c38 31 90 51 145 51c66 0 126 -27 167 -73v63h53v-70c37 49 93 80 163 80c122 0 212 -96 212 -223c0 -4 0 -11 -1 -20h-372
c4 -97 67 -179 172 -179c60 0 110 24 146 68l40 -38c-34 -43 -99 -84 -186 -84c-73 0 -133 31 -174 84v-74zM440 144v176c-20 34 -80 92 -164 92c-38 0 -78 -13 -110 -39c-40 -33 -64 -86 -64 -145c0 -63 28 -119 72 -150c29 -20 64 -34 103 -34c67 0 127 38 163 100z
M658 412c-81 0 -141 -58 -158 -137h311c-12 80 -74 137 -153 137z" />
    <glyph glyph-name="Oslashacute" unicode="&#x1fe;" horiz-adv-x="766" 
d="M428 880h76l-96 -140h-46zM35 350c0 204 150 360 348 360c68 0 131 -19 183 -51l36 51h66l-59 -83c75 -65 122 -164 122 -277c0 -204 -150 -360 -348 -360c-69 0 -131 18 -184 51l-36 -51h-65l58 83c-75 65 -121 164 -121 277zM671 350c0 91 -36 172 -96 228l-343 -489
c43 -27 94 -42 151 -42c169 0 288 137 288 303zM95 350c0 -91 35 -172 95 -228l343 489c-43 27 -94 42 -150 42c-169 0 -288 -137 -288 -303z" />
    <glyph glyph-name="oslashacute" unicode="&#x1ff;" horiz-adv-x="560" 
d="M326 670h75l-95 -140h-45zM515 228c0 -131 -99 -238 -235 -238c-43 0 -82 11 -116 29l-20 -29h-64l41 60c-48 43 -76 107 -76 178c0 131 99 238 235 238c43 0 82 -11 115 -30l21 30h64l-42 -60c48 -44 77 -108 77 -178zM102 228c0 -53 20 -100 53 -134l207 298
c-24 13 -52 20 -82 20c-103 0 -178 -82 -178 -184zM458 228c0 52 -20 100 -54 133l-206 -298c24 -12 52 -19 82 -19c103 0 178 82 178 184z" />
    <glyph glyph-name="uni0259" unicode="&#x259;" horiz-adv-x="520" 
d="M257 44c81 0 141 58 158 137h-311c12 -80 74 -137 153 -137zM100 344l-40 38c34 43 99 84 186 84c128 0 229 -96 229 -238c0 -131 -89 -238 -218 -238c-122 0 -212 96 -212 223c0 4 0 11 1 20h372c-4 97 -67 179 -172 179c-60 0 -110 -24 -146 -68z" />
    <glyph glyph-name="Wacute" unicode="&#x1e82;" horiz-adv-x="942" 
d="M451 700h40l187 -579l188 579h61l-230 -700h-40l-186 575l-186 -575h-40l-230 700h61l188 -579zM516 880h75l-95 -140h-45z" />
    <glyph glyph-name="wacute" unicode="&#x1e83;" horiz-adv-x="762" 
d="M381 363l-148 -363h-37l-176 456h59l138 -358l146 358h36l146 -358l138 358h59l-176 -456h-37zM428 670h75l-95 -140h-45z" />
    <glyph glyph-name="uni0237" unicode="&#x237;" horiz-adv-x="270" 
d="M-10 -247l5 53c10 -2 19 -2 25 -2c36 0 70 15 89 43c13 19 19 41 19 95v514h57v-514c0 -71 -12 -108 -36 -137c-29 -35 -76 -55 -126 -55c-11 0 -25 1 -33 3z" />
    <glyph glyph-name="aringacute.ss01" horiz-adv-x="510" 
d="M301 874h75l-95 -140h-45zM167 610c0 50 40 90 90 90s90 -40 90 -90s-40 -90 -90 -90s-90 40 -90 90zM207 610c0 -28 22 -50 50 -50s50 22 50 50s-22 50 -50 50s-50 -22 -50 -50zM378 140v58c-27 20 -72 39 -125 39c-76 0 -136 -36 -136 -100c0 -51 46 -93 112 -93
s120 41 149 96zM227 -10c-100 0 -167 69 -167 147c0 105 98 154 186 154c69 0 121 -25 132 -32v7c0 48 -9 75 -25 96c-25 33 -63 50 -106 50c-55 0 -101 -25 -128 -48l-33 46c29 25 85 56 161 56c61 0 118 -25 152 -71c23 -31 36 -70 36 -132v-263h-55v62
c-32 -42 -90 -72 -153 -72z" />
    <glyph glyph-name="aeacute.ss01" horiz-adv-x="853" 
d="M443 670h75l-95 -140h-45zM753 112l40 -38c-34 -43 -99 -84 -186 -84c-71 0 -130 29 -172 80v-70h-55v62c-32 -42 -90 -72 -153 -72c-100 0 -167 69 -167 147c0 105 98 154 186 154c69 0 121 -25 132 -32v7c0 48 -9 75 -25 96c-25 33 -63 50 -106 50
c-55 0 -101 -25 -128 -48l-33 46c29 25 85 56 161 56c61 0 118 -25 152 -71c7 -10 12 -20 17 -31c37 62 101 102 180 102c122 0 212 -96 212 -223c0 -4 0 -11 -1 -20h-372c4 -97 67 -179 172 -179c60 0 110 24 146 68zM378 140v58c-27 20 -72 39 -125 39
c-76 0 -136 -36 -136 -100c0 -51 46 -93 112 -93s120 41 149 96zM596 412c-81 0 -141 -58 -158 -137h311c-12 80 -74 137 -153 137z" />
    <glyph glyph-name="Wdieresis" unicode="&#x1e84;" horiz-adv-x="942" 
d="M451 700h40l187 -579l188 579h61l-230 -700h-40l-186 575l-186 -575h-40l-230 700h61l188 -579zM502 804c0 28 22 51 50 51s51 -23 51 -51s-23 -50 -51 -50s-50 22 -50 50zM339 804c0 28 22 51 50 51s51 -23 51 -51s-23 -50 -51 -50s-50 22 -50 50z" />
    <glyph glyph-name="wdieresis" unicode="&#x1e85;" horiz-adv-x="762" 
d="M381 363l-148 -363h-37l-176 456h59l138 -358l146 358h36l146 -358l138 358h59l-176 -456h-37zM412 594c0 28 22 51 50 51s51 -23 51 -51s-23 -50 -51 -50s-50 22 -50 50zM249 594c0 28 22 51 50 51s51 -23 51 -51s-23 -50 -51 -50s-50 22 -50 50z" />
    <glyph glyph-name="uni1E8A" unicode="&#x1e8a;" horiz-adv-x="610" 
d="M255 824c0 28 22 51 50 51s51 -23 51 -51s-23 -50 -51 -50s-50 22 -50 50zM88 0h-68l246 384l-202 316h67l174 -271l174 271h67l-202 -316l246 -384h-68l-217 339z" />
    <glyph glyph-name="uni1E8B" unicode="&#x1e8b;" horiz-adv-x="462" 
d="M380 0l-149 207l-149 -207h-67l176 245l-151 211h67l124 -173l124 173h67l-151 -211l176 -245h-67zM181 614c0 28 22 51 50 51s51 -23 51 -51s-23 -50 -51 -50s-50 22 -50 50z" />
    <glyph glyph-name="Ygrave" unicode="&#x1ef2;" horiz-adv-x="560" 
d="M550 700l-240 -371v-329h-60v329l-240 371h68l202 -313l202 313h68zM164 880h75l65 -140h-45z" />
    <glyph glyph-name="ygrave" unicode="&#x1ef3;" horiz-adv-x="487" 
d="M131 670h75l65 -140h-45zM156 -240h-60l125 277l-206 419h64l171 -354l161 354h61z" />
    <glyph glyph-name="asterisk.ss06" horiz-adv-x="494" 
d="M285 521l168 -53l-16 -47l-166 54v-175h-50v175l-166 -54l-15 47l165 55l-102 140l40 29l103 -141l102 141l40 -29z" />
    <glyph glyph-name="asterisk.ss07" horiz-adv-x="494" 
d="M447 475h-157l79 -136l-43 -24l-79 137l-79 -137l-43 24l79 136h-157v50h157l-79 136l43 24l79 -137l79 137l43 -24l-79 -136h157v-50z" />
    <glyph glyph-name="asterisk.ss08" horiz-adv-x="494" 
d="M247 452l-79 -137l-43 24l79 136zM447 475h-157v50h157v-50zM369 661l-79 -136l-43 23l79 137zM204 525l-79 136l43 24l79 -137zM47 525h157v-50h-157v50zM290 475l79 -136l-43 -24l-79 137z" />
    <glyph glyph-name="asterisk.ss09" horiz-adv-x="494" 
d="M47 525h175v-50h-175v50zM222 525v175h50v-175h-50zM272 475v-175h-50v175h50zM447 475h-175v50h175v-50zM282 571l94 93l36 -35l-94 -94zM118 664l94 -93l-36 -36l-94 94zM376 336l-94 93l36 36l94 -94zM212 429l-94 -93l-36 35l94 94z" />
    <glyph glyph-name="f.ss02" horiz-adv-x="380" 
d="M380 702l-24 -51c-20 9 -38 15 -60 15c-37 0 -69 -16 -89 -45c-13 -19 -22 -39 -22 -93v-72h190v-54h-190v-402h-57v402h-118v54h118v69c0 70 15 108 39 137c31 37 78 58 130 58c29 0 58 -6 83 -18z" />
    <glyph glyph-name="j.ss02" horiz-adv-x="270" 
d="M-60 -232l23 50c17 -8 32 -14 57 -14c36 0 70 15 89 43c13 19 19 41 19 95v514h57v-514c0 -71 -12 -107 -36 -136c-29 -35 -76 -56 -126 -56c-34 0 -59 5 -83 18zM106 614c0 28 22 51 50 51s51 -23 51 -51s-23 -50 -51 -50s-50 22 -50 50z" />
    <glyph glyph-name="t.ss02" horiz-adv-x="410" 
d="M364 60l21 -50c-23 -11 -62 -20 -96 -20c-48 0 -92 16 -123 51c-24 27 -38 62 -38 121v240h-128v54h128v124h57v-124h200v-54h-200v-241c0 -44 10 -67 24 -84c20 -23 50 -33 83 -33c27 0 53 7 72 16z" />
    <glyph glyph-name="fi.ss02" horiz-adv-x="599" 
d="M185 456h329v-456h-57v402h-272v-402h-57v402h-118v54h118v70c0 70 15 107 39 136c31 37 78 58 130 58c29 0 58 -6 83 -18l-24 -51c-21 9 -38 15 -60 15c-37 0 -69 -16 -89 -45c-13 -19 -22 -38 -22 -92v-73zM435 614c0 28 22 51 50 51s51 -23 51 -51s-23 -50 -51 -50
s-50 22 -50 50z" />
    <glyph glyph-name="fl.ss02" horiz-adv-x="599" 
d="M185 456h272v254h57v-710h-57v402h-272v-402h-57v402h-118v54h118v69c0 70 15 108 39 137c31 37 78 58 130 58c29 0 58 -6 83 -18l-24 -51c-21 9 -38 15 -60 15c-37 0 -69 -16 -89 -45c-13 -19 -22 -39 -22 -93v-72z" />
    <glyph glyph-name="uniFB00.ss02" horiz-adv-x="735" 
d="M735 702l-24 -51c-20 9 -38 15 -60 15c-37 0 -69 -16 -89 -45c-13 -19 -22 -39 -22 -93v-72h188v-54h-188v-402h-57v402h-298v-402h-57v402h-118v54h118v69c0 70 15 108 39 137c31 37 78 58 130 58c29 0 58 -6 83 -18l-24 -51c-20 9 -38 15 -60 15c-37 0 -69 -16 -89 -45
c-13 -19 -22 -39 -22 -93v-72h298v69c0 70 15 108 39 137c31 37 78 58 130 58c29 0 58 -6 83 -18z" />
    <glyph glyph-name="uniFB03.ss02" horiz-adv-x="954" 
d="M869 456v-456h-57v402h-272v-402h-57v402h-298v-402h-57v402h-118v54h118v69c0 70 15 108 39 137c31 37 78 58 130 58c29 0 58 -6 83 -18l-24 -51c-20 9 -38 15 -60 15c-37 0 -69 -16 -89 -45c-13 -19 -22 -39 -22 -93v-72h298v69c0 70 15 108 39 137c31 37 78 58 130 58
c29 0 58 -6 83 -18l-24 -51c-20 9 -38 15 -60 15c-37 0 -69 -16 -89 -45c-13 -19 -22 -39 -22 -93v-72h329zM790 614c0 28 22 51 50 51s51 -23 51 -51s-23 -50 -51 -50s-50 22 -50 50z" />
    <glyph glyph-name="uniFB04.ss02" horiz-adv-x="954" 
d="M812 0v402h-272v-402h-57v402h-298v-402h-57v402h-118v54h118v69c0 70 15 108 39 137c31 37 78 58 130 58c29 0 58 -6 83 -18l-24 -51c-20 9 -38 15 -60 15c-37 0 -69 -16 -89 -45c-13 -19 -22 -39 -22 -93v-72h298v69c0 70 15 108 39 137c31 37 78 58 130 58
c29 0 58 -6 83 -18l-24 -51c-20 9 -38 15 -60 15c-37 0 -69 -16 -89 -45c-13 -19 -22 -39 -22 -93v-72h272v254h57v-710h-57z" />
    <glyph glyph-name="tbar.ss02" horiz-adv-x="410" 
d="M0 262h128v140h-128v54h128v124h57v-124h200v-54h-200v-140h200v-54h-200v-47c0 -44 10 -67 24 -84c20 -23 50 -33 83 -33c27 0 53 7 72 16l21 -50c-23 -11 -62 -20 -96 -20c-48 0 -92 16 -123 51c-24 27 -38 62 -38 121v46h-128v54z" />
    <glyph glyph-name="ij.ss02" horiz-adv-x="497" 
d="M85 0v456h57v-456h-57zM63 614c0 28 22 51 50 51s51 -23 51 -51s-23 -50 -51 -50s-50 22 -50 50zM167 -232l23 50c17 -8 32 -14 57 -14c36 0 70 15 89 43c13 19 19 41 19 95v514h57v-514c0 -71 -12 -107 -36 -136c-29 -35 -76 -56 -126 -56c-34 0 -59 5 -83 18zM333 614
c0 28 22 51 50 51s51 -23 51 -51s-23 -50 -51 -50s-50 22 -50 50z" />
    <glyph glyph-name="tcommaaccent.ss02" horiz-adv-x="410" 
d="M248 -40h75l-95 -140h-45zM364 60l21 -50c-23 -11 -62 -20 -96 -20c-48 0 -92 16 -123 51c-24 27 -38 62 -38 121v240h-128v54h128v124h57v-124h200v-54h-200v-241c0 -44 10 -67 24 -84c20 -23 50 -33 83 -33c27 0 53 7 72 16z" />
    <glyph glyph-name="tcaron.ss02" horiz-adv-x="410" 
d="M290 700h75l-95 -140h-45zM364 60l21 -50c-23 -11 -62 -20 -96 -20c-48 0 -92 16 -123 51c-24 27 -38 62 -38 121v240h-128v54h128v124h57v-124h200v-54h-200v-241c0 -44 10 -67 24 -84c20 -23 50 -33 83 -33c27 0 53 7 72 16z" />
    <glyph glyph-name="jcircumflex.ss02" horiz-adv-x="270" 
d="M-60 -232l23 50c17 -8 32 -14 57 -14c36 0 70 15 89 43c13 19 19 41 19 95v514h57v-514c0 -71 -12 -107 -36 -136c-29 -35 -76 -56 -126 -56c-34 0 -59 5 -83 18zM146 624l-85 -94h-45l95 140h70l95 -140h-45z" />
    <glyph glyph-name="uni0237.ss02" horiz-adv-x="270" 
d="M-60 -232l23 50c17 -8 32 -14 57 -14c36 0 70 15 89 43c13 19 19 41 19 95v514h57v-514c0 -71 -12 -107 -36 -136c-29 -35 -76 -56 -126 -56c-34 0 -59 5 -83 18z" />
    <glyph glyph-name="r.ss02" horiz-adv-x="359" 
d="M334 461l-10 -53c-8 2 -18 4 -37 4c-62 0 -121 -42 -145 -101v-311h-57v456h57v-58c21 33 73 68 149 68c18 0 32 -2 43 -5z" />
    <glyph glyph-name="racute.ss02" horiz-adv-x="359" 
d="M217 670h75l-95 -140h-45zM334 461l-10 -53c-8 2 -18 4 -37 4c-62 0 -121 -42 -145 -101v-311h-57v456h57v-58c21 33 73 68 149 68c18 0 32 -2 43 -5z" />
    <glyph glyph-name="rcaron.ss02" horiz-adv-x="359" 
d="M132 680l85 -94l85 94h45l-95 -140h-70l-95 140h45zM334 461l-10 -53c-8 2 -18 4 -37 4c-62 0 -121 -42 -145 -101v-311h-57v456h57v-58c21 33 73 68 149 68c18 0 32 -2 43 -5z" />
    <glyph glyph-name="rcommaaccent.ss02" horiz-adv-x="359" 
d="M85 -40h75l-95 -140h-45zM334 461l-10 -53c-8 2 -18 4 -37 4c-62 0 -121 -42 -145 -101v-311h-57v456h57v-58c21 33 73 68 149 68c18 0 32 -2 43 -5z" />
    </font>
</defs>
</svg>
